osu file format v14

[General]
AudioFilename: audio.mp3
AudioLeadIn: 0
PreviewTime: 162153
Countdown: 0
SampleSet: Soft
StackLeniency: 0.7
Mode: 3
LetterboxInBreaks: 0
SpecialStyle: 0
WidescreenStoryboard: 1

[Editor]
DistanceSpacing: 1.4
BeatDivisor: 4
GridSize: 8
TimelineZoom: 2.3

[Metadata]
Title:All For The Time
TitleUnicode:All For The Time
Artist:Taishi
ArtistUnicode:Taishi
Creator:AHHHHHHHHHHHHHH
Version:insane
Source:
Tags:DVSP-0168 Comic Market 91 C91 Electronic Instrumental Diverse system ad piano advantage ad:piano IV monochrome anomaly disc 2 compllege
BeatmapID:2242138
BeatmapSetID:1029946

[Difficulty]
HPDrainRate:8
CircleSize:4
OverallDifficulty:7.5
ApproachRate:5
SliderMultiplier:1.4
SliderTickRate:1

[Events]
//Background and Video events
0,0,"73858612_p0_master1200.jpg",0,0
//Break Periods
//Storyboard Layer 0 (Background)
//Storyboard Layer 1 (Fail)
//Storyboard Layer 2 (Pass)
//Storyboard Layer 3 (Foreground)
//Storyboard Layer 4 (Overlay)
//Storyboard Sound Samples

[TimingPoints]
820,333.333333333333,4,2,1,5,1,0
22153,-100,4,2,1,15,0,0
54153,-100,4,2,1,5,0,0
74153,-100,4,2,1,10,0,0
74486,-100,4,2,1,13,0,0
74819,-100,4,2,1,16,0,0
75153,-100,4,2,1,19,0,0
75486,-100,4,2,1,22,0,0
75819,-100,4,2,1,25,0,0
76153,-100,4,2,1,28,0,0
76486,-100,4,2,1,30,0,0
76819,-100,4,2,1,35,0,0
77153,-100,4,2,1,40,0,0
77486,-100,4,2,1,45,0,0
77819,-100,4,2,1,50,0,0
78153,-100,4,2,1,30,0,1
99486,-100,4,2,1,30,0,0
109486,-100,4,2,1,25,0,0
110653,-100,4,2,1,20,0,0
112819,-100,4,2,1,15,0,0
114153,-100,4,2,1,10,0,0
114819,-100,4,2,1,5,0,0
136819,-100,4,2,1,7,0,0
137153,-100,4,2,1,9,0,0
137486,-100,4,2,1,11,0,0
137819,-100,4,2,1,13,0,0
138153,-100,4,2,1,15,0,0
138486,-100,4,2,1,17,0,0
138819,-100,4,2,1,19,0,0
139153,-100,4,2,1,21,0,0
139486,-100,4,2,1,24,0,0
139819,-100,4,2,1,27,0,0
140153,-100,4,2,1,30,0,0
140486,-100,4,2,1,33,0,0
140819,-100,4,2,1,36,0,0
141153,-100,4,2,1,40,0,0
141486,-100,4,2,1,45,0,0
141819,-100,4,2,1,5,0,0
141986,-100,4,2,1,30,0,0
163486,-100,4,2,1,30,0,1
183486,-100,4,2,1,15,0,0
183653,-100,4,2,1,30,0,0
183819,-100,4,2,1,5,0,0
184153,-100,4,2,1,50,0,0
184819,-100,4,2,1,30,0,0
200819,-100,4,2,1,35,0,0
200986,-100,4,2,1,30,0,0
201486,-100,4,2,1,40,0,0
201653,-100,4,2,1,30,0,0
202153,-100,4,2,1,45,0,0
202319,-100,4,2,1,30,0,0
202819,-100,4,2,1,50,0,0
202986,-100,4,2,1,30,0,0
203486,-100,4,2,1,55,0,0
203653,-100,4,2,1,30,0,0
204153,-100,4,2,1,55,0,0
204319,-100,4,2,1,30,0,0
206153,-100,4,2,1,30,0,1
222486,-100,4,2,1,10,0,1
223153,-100,4,2,1,15,0,1
223819,-100,4,2,1,20,0,1
224486,-100,4,2,1,25,0,1
224819,-100,4,2,1,30,0,1
225819,-100,4,2,1,35,0,1
226486,-100,4,2,1,40,0,1
226986,-100,4,2,1,45,0,1
227153,-100,4,2,1,50,0,1
227319,-100,4,2,1,55,0,1
227486,-100,4,2,1,15,0,0
248819,-100,4,2,1,5,0,0

[HitObjects]
448,192,820,5,0,0:0:0:0:
64,192,2153,1,0,0:0:0:0:
192,192,6153,128,0,8819:0:0:0:0:
448,192,8819,1,0,0:0:0:0:
448,192,11486,1,0,0:0:0:0:
64,192,12819,1,0,0:0:0:0:
192,192,16819,1,0,0:0:0:0:
192,192,19819,128,0,22153:0:0:0:0:
64,192,22153,1,0,0:0:0:0:
448,192,22153,1,0,0:0:0:0:
192,192,22486,1,0,0:0:0:0:
320,192,22653,1,0,0:0:0:0:
448,192,22819,1,0,0:0:0:0:
64,192,22819,1,0,0:0:0:0:
64,192,23153,1,0,0:0:0:0:
448,192,23153,1,0,0:0:0:0:
192,192,23486,1,0,0:0:0:0:
320,192,23653,1,0,0:0:0:0:
448,192,23819,1,0,0:0:0:0:
64,192,23819,1,0,0:0:0:0:
192,192,24819,1,0,0:0:0:0:
64,192,24819,1,0,0:0:0:0:
320,192,24986,1,0,0:0:0:0:
448,192,25153,1,0,0:0:0:0:
192,192,25486,1,0,0:0:0:0:
448,192,25486,1,0,0:0:0:0:
448,192,25819,1,0,0:0:0:0:
64,192,26153,1,0,0:0:0:0:
320,192,26319,1,0,0:0:0:0:
448,192,26486,1,0,0:0:0:0:
192,192,26486,1,0,0:0:0:0:
448,192,27486,1,0,0:0:0:0:
64,192,27486,1,0,0:0:0:0:
192,192,27819,1,0,0:0:0:0:
320,192,27986,1,0,0:0:0:0:
448,192,28153,1,0,0:0:0:0:
64,192,28486,1,0,0:0:0:0:
448,192,28486,1,0,0:0:0:0:
192,192,28819,1,0,0:0:0:0:
320,192,28986,1,0,0:0:0:0:
448,192,29153,1,0,0:0:0:0:
192,192,30153,1,0,0:0:0:0:
64,192,30153,1,0,0:0:0:0:
320,192,30319,1,0,0:0:0:0:
448,192,30486,1,0,0:0:0:0:
192,192,30819,1,0,0:0:0:0:
448,192,30819,1,0,0:0:0:0:
448,192,31153,1,0,0:0:0:0:
192,192,31153,1,0,0:0:0:0:
64,192,31486,1,0,0:0:0:0:
320,192,31653,1,0,0:0:0:0:
448,192,31819,128,0,32819:0:0:0:0:
320,192,32819,1,0,0:0:0:0:
64,192,32819,1,0,0:0:0:0:
192,192,33153,1,0,0:0:0:0:
320,192,33319,1,0,0:0:0:0:
448,192,33486,1,0,0:0:0:0:
64,192,33486,1,0,0:0:0:0:
64,192,33819,1,0,0:0:0:0:
448,192,33819,1,0,0:0:0:0:
64,192,34153,1,0,0:0:0:0:
192,192,34153,1,0,0:0:0:0:
320,192,34319,1,0,0:0:0:0:
448,192,34486,1,0,0:0:0:0:
64,192,34486,1,0,0:0:0:0:
64,192,35486,1,0,0:0:0:0:
192,192,35486,1,0,0:0:0:0:
320,192,35653,1,0,0:0:0:0:
448,192,35819,1,0,0:0:0:0:
448,192,36153,1,0,0:0:0:0:
448,192,36486,1,0,0:0:0:0:
192,192,36819,1,0,0:0:0:0:
320,192,36986,1,0,0:0:0:0:
448,192,37153,1,0,0:0:0:0:
64,192,37153,1,0,0:0:0:0:
192,192,37986,1,0,0:0:0:0:
64,192,38153,1,0,0:0:0:0:
448,192,38153,1,0,0:0:0:0:
192,192,38486,1,0,0:0:0:0:
320,192,38653,1,0,0:0:0:0:
448,192,38819,1,0,0:0:0:0:
64,192,38819,1,0,0:0:0:0:
64,192,39153,1,0,0:0:0:0:
448,192,39153,1,0,0:0:0:0:
320,192,39319,1,0,0:0:0:0:
192,192,39486,1,0,0:0:0:0:
64,192,39486,1,0,0:0:0:0:
320,192,39653,1,0,0:0:0:0:
448,192,39819,1,0,0:0:0:0:
64,192,40819,1,0,0:0:0:0:
192,192,40819,1,0,0:0:0:0:
320,192,40986,1,0,0:0:0:0:
448,192,41153,1,0,0:0:0:0:
192,192,41153,1,0,0:0:0:0:
192,192,41486,1,0,0:0:0:0:
448,192,41486,1,0,0:0:0:0:
448,192,41819,1,0,0:0:0:0:
192,192,41819,1,0,0:0:0:0:
64,192,42153,1,0,0:0:0:0:
320,192,42319,1,0,0:0:0:0:
448,192,42486,1,0,0:0:0:0:
448,192,43486,1,0,0:0:0:0:
64,192,43486,1,0,0:0:0:0:
64,192,43819,1,0,0:0:0:0:
448,192,43903,1,0,0:0:0:0:
64,192,43986,1,0,0:0:0:0:
448,192,44069,1,0,0:0:0:0:
192,192,44153,1,0,0:0:0:0:
320,192,44153,1,0,0:0:0:0:
448,192,44486,1,0,0:0:0:0:
320,192,44486,1,0,0:0:0:0:
192,192,44819,1,0,0:0:0:0:
64,192,44819,1,0,0:0:0:0:
320,192,44986,1,0,0:0:0:0:
448,192,45153,1,0,0:0:0:0:
64,192,45153,1,0,0:0:0:0:
320,192,45458,1,0,0:0:0:0:
192,192,46153,1,0,0:0:0:0:
64,192,46153,1,0,0:0:0:0:
320,192,46319,1,0,0:0:0:0:
448,192,46486,1,0,0:0:0:0:
448,192,46819,1,0,0:0:0:0:
448,192,47153,1,0,0:0:0:0:
192,192,47486,1,0,0:0:0:0:
64,192,47486,1,0,0:0:0:0:
320,192,47653,1,0,0:0:0:0:
448,192,47819,1,0,0:0:0:0:
64,192,48819,1,0,0:0:0:0:
448,192,48819,1,0,0:0:0:0:
192,192,49153,1,0,0:0:0:0:
320,192,49319,1,0,0:0:0:0:
448,192,49486,1,0,0:0:0:0:
64,192,49486,1,0,0:0:0:0:
64,192,49819,1,0,0:0:0:0:
448,192,49819,1,0,0:0:0:0:
320,192,49986,1,0,0:0:0:0:
64,192,50153,1,0,0:0:0:0:
192,192,50153,1,0,0:0:0:0:
320,192,50319,1,0,0:0:0:0:
448,192,50486,1,0,0:0:0:0:
448,192,50792,1,0,0:0:0:0:
64,192,51486,1,0,0:0:0:0:
192,192,51486,1,0,0:0:0:0:
320,192,51653,1,0,0:0:0:0:
448,192,51819,1,0,0:0:0:0:
192,192,51819,1,0,0:0:0:0:
448,192,52153,1,0,0:0:0:0:
192,192,52486,1,0,0:0:0:0:
448,192,52486,1,0,0:0:0:0:
64,192,52819,1,0,0:0:0:0:
320,192,52986,1,0,0:0:0:0:
448,192,53153,128,0,54153:0:0:0:0:
64,192,54153,1,0,0:0:0:0:
192,192,54153,1,0,0:0:0:0:
320,192,54486,1,0,0:0:0:0:
192,192,54653,1,0,0:0:0:0:
192,192,54986,1,0,0:0:0:0:
448,192,55153,1,0,0:0:0:0:
320,192,55340,1,0,0:0:0:0:
64,192,55486,1,0,0:0:0:0:
192,192,55653,1,0,0:0:0:0:
320,192,55708,1,0,0:0:0:0:
448,192,55819,1,0,0:0:0:0:
192,192,55986,1,0,0:0:0:0:
448,192,56236,1,0,0:0:0:0:
320,192,56319,1,0,0:0:0:0:
64,192,56403,1,0,0:0:0:0:
448,192,56486,1,0,0:0:0:0:
192,192,56653,1,0,0:0:0:0:
64,192,56819,1,0,0:0:0:0:
448,192,56944,1,0,0:0:0:0:
320,192,57049,1,0,0:0:0:0:
192,192,57153,1,0,0:0:0:0:
64,192,57319,1,0,0:0:0:0:
192,192,57653,1,0,0:0:0:0:
448,192,57819,1,0,0:0:0:0:
320,192,57986,1,0,0:0:0:0:
64,192,58153,1,0,0:0:0:0:
448,192,58431,1,0,0:0:0:0:
320,192,58486,1,0,0:0:0:0:
192,192,58653,1,0,0:0:0:0:
64,192,58764,1,0,0:0:0:0:
192,192,58986,1,0,0:0:0:0:
448,192,59153,1,0,0:0:0:0:
320,192,59278,1,0,0:0:0:0:
192,192,59403,1,0,0:0:0:0:
64,192,59486,1,0,0:0:0:0:
320,192,59625,1,0,0:0:0:0:
448,192,59792,1,0,0:0:0:0:
64,192,59986,1,0,0:0:0:0:
448,192,60111,1,0,0:0:0:0:
192,192,60319,1,0,0:0:0:0:
448,192,60486,1,0,0:0:0:0:
320,192,60653,1,0,0:0:0:0:
64,192,60792,1,0,0:0:0:0:
192,192,60958,1,0,0:0:0:0:
448,192,61153,1,0,0:0:0:0:
192,192,61319,1,0,0:0:0:0:
64,192,61653,1,0,0:0:0:0:
448,192,61819,1,0,0:0:0:0:
320,192,61986,1,0,0:0:0:0:
64,192,62153,1,0,0:0:0:0:
320,192,62486,1,0,0:0:0:0:
192,192,62653,1,0,0:0:0:0:
448,192,62819,1,0,0:0:0:0:
320,192,62986,1,0,0:0:0:0:
64,192,63153,1,0,0:0:0:0:
320,192,63319,1,0,0:0:0:0:
192,192,63486,1,0,0:0:0:0:
64,192,63653,1,0,0:0:0:0:
448,192,63819,1,0,0:0:0:0:
192,192,63986,1,0,0:0:0:0:
64,192,64153,1,0,0:0:0:0:
320,192,64319,1,0,0:0:0:0:
448,192,64486,1,0,0:0:0:0:
192,192,64653,1,0,0:0:0:0:
448,192,64819,1,0,0:0:0:0:
64,192,64819,1,0,0:0:0:0:
192,192,65125,1,0,0:0:0:0:
320,192,65292,1,0,0:0:0:0:
448,192,65458,1,0,0:0:0:0:
448,192,65778,1,0,0:0:0:0:
64,192,65778,1,0,0:0:0:0:
192,192,66125,1,0,0:0:0:0:
320,192,66292,1,0,0:0:0:0:
64,192,66403,1,0,0:0:0:0:
448,192,66486,1,0,0:0:0:0:
192,192,66653,1,0,0:0:0:0:
192,192,66847,1,0,0:0:0:0:
320,192,66986,1,0,0:0:0:0:
448,192,67153,1,0,0:0:0:0:
192,192,67319,1,0,0:0:0:0:
64,192,67486,1,0,0:0:0:0:
320,192,67632,1,0,0:0:0:0:
448,192,67819,1,0,0:0:0:0:
192,192,67986,1,0,0:0:0:0:
64,192,68153,1,0,0:0:0:0:
320,192,68319,1,0,0:0:0:0:
192,192,68486,1,0,0:0:0:0:
64,192,68625,1,0,0:0:0:0:
320,192,68708,1,0,0:0:0:0:
448,192,68819,1,0,0:0:0:0:
64,192,69069,1,0,0:0:0:0:
320,192,69153,1,0,0:0:0:0:
192,192,69319,1,0,0:0:0:0:
64,192,69486,1,0,0:0:0:0:
64,192,69653,1,0,0:0:0:0:
448,192,69819,1,0,0:0:0:0:
320,192,69986,1,0,0:0:0:0:
64,192,70153,128,0,78153:0:0:0:0:
192,192,70299,1,0,0:0:0:0:
448,192,70444,1,0,0:0:0:0:
448,192,70792,1,0,0:0:0:0:
448,192,71125,1,0,0:0:0:0:
192,192,71458,1,0,0:0:0:0:
320,192,71632,1,0,0:0:0:0:
448,192,71819,128,0,72153:0:0:0:0:
192,192,72153,128,0,72486:0:0:0:0:
320,192,72486,128,0,72819:0:0:0:0:
448,192,72819,128,0,73153:0:0:0:0:
192,192,73153,128,0,73486:0:0:0:0:
320,192,73486,128,0,73819:0:0:0:0:
448,192,73819,128,0,74153:0:0:0:0:
192,192,74153,128,0,74486:0:0:0:0:
320,192,74486,128,0,74819:0:0:0:0:
448,192,74819,128,0,75153:0:0:0:0:
192,192,75153,128,0,75819:0:0:0:0:
320,192,75486,128,0,75819:0:0:0:0:
448,192,75819,128,0,76153:0:0:0:0:
192,192,76153,128,0,76819:0:0:0:0:
320,192,76486,128,0,76819:0:0:0:0:
448,192,76819,128,0,77153:0:0:0:0:
192,192,77153,128,0,77819:0:0:0:0:
320,192,77486,128,0,77819:0:0:0:0:
448,192,77819,128,0,78153:0:0:0:0:
320,192,78153,1,0,0:0:0:0:
192,192,78153,1,2,0:0:0:0:
320,192,78319,1,0,0:0:0:0:
192,192,78319,1,0,0:0:0:0:
448,192,78486,1,0,0:0:0:0:
320,192,78542,1,0,0:0:0:0:
192,192,78597,1,0,0:0:0:0:
64,192,78653,1,0,0:0:0:0:
448,192,78708,1,0,0:0:0:0:
320,192,78764,1,0,0:0:0:0:
192,192,78819,1,4,0:0:0:0:
64,192,78819,1,0,0:0:0:0:
64,192,78986,1,0,0:0:0:0:
192,192,78986,1,4,0:0:0:0:
448,192,79153,1,0,0:0:0:0:
64,192,79319,1,0,0:0:0:0:
192,192,79319,1,0,0:0:0:0:
448,192,79486,128,0,79819:0:0:0:0:
192,192,79653,1,0,0:0:0:0:
64,192,79653,1,0,0:0:0:0:
320,192,79819,1,0,0:0:0:0:
192,192,79875,1,0,0:0:0:0:
64,192,79931,1,0,0:0:0:0:
320,192,79986,1,0,0:0:0:0:
448,192,79986,1,0,0:0:0:0:
192,192,80153,1,4,0:0:0:0:
64,192,80153,1,0,0:0:0:0:
448,192,80319,1,0,0:0:0:0:
320,192,80319,1,0,0:0:0:0:
320,192,80486,1,0,0:0:0:0:
448,192,80486,128,0,80653:0:0:0:0:
64,192,80653,128,0,80819:0:0:0:0:
448,192,80819,128,0,80986:0:0:0:0:
192,192,80819,1,2,0:0:0:0:
64,192,80986,1,0,0:0:0:0:
320,192,80986,128,0,81153:0:0:0:0:
192,192,81153,1,0,0:0:0:0:
64,192,81208,1,0,0:0:0:0:
448,192,81264,1,0,0:0:0:0:
320,192,81319,1,0,0:0:0:0:
192,192,81375,1,0,0:0:0:0:
64,192,81431,1,0,0:0:0:0:
320,192,81486,1,4,0:0:0:0:
448,192,81486,1,0,0:0:0:0:
320,192,81653,1,4,0:0:0:0:
448,192,81653,1,0,0:0:0:0:
192,192,81819,1,0,0:0:0:0:
320,192,81986,1,0,0:0:0:0:
448,192,81986,1,0,0:0:0:0:
320,192,82153,1,0,0:0:0:0:
64,192,82153,128,0,82486:0:0:0:0:
448,192,82319,1,0,0:0:0:0:
192,192,82319,1,0,0:0:0:0:
192,192,82486,1,0,0:0:0:0:
448,192,82486,1,0,0:0:0:0:
320,192,82653,1,0,0:0:0:0:
192,192,82708,1,0,0:0:0:0:
64,192,82764,1,0,0:0:0:0:
320,192,82819,1,4,0:0:0:0:
448,192,82819,1,0,0:0:0:0:
192,192,82986,128,0,83153:0:0:0:0:
320,192,83153,128,0,83486:0:0:0:0:
64,192,83486,1,2,0:0:0:0:
448,192,83486,1,0,0:0:0:0:
448,192,83819,1,0,0:0:0:0:
320,192,83875,1,0,0:0:0:0:
64,192,83931,1,0,0:0:0:0:
192,192,83986,1,0,0:0:0:0:
320,192,84042,1,0,0:0:0:0:
448,192,84097,1,0,0:0:0:0:
192,192,84153,1,4,0:0:0:0:
64,192,84153,1,0,0:0:0:0:
192,192,84319,1,4,0:0:0:0:
64,192,84319,1,0,0:0:0:0:
448,192,84486,1,0,0:0:0:0:
192,192,84653,1,0,0:0:0:0:
64,192,84653,1,0,0:0:0:0:
448,192,84819,128,0,84986:0:0:0:0:
320,192,84819,128,0,84986:0:0:0:0:
192,192,84986,1,0,0:0:0:0:
64,192,84986,1,0,0:0:0:0:
448,192,85153,1,0,0:0:0:0:
320,192,85208,1,0,0:0:0:0:
192,192,85264,1,0,0:0:0:0:
64,192,85319,1,0,0:0:0:0:
448,192,85319,128,0,85486:0:0:0:0:
320,192,85486,1,4,0:0:0:0:
192,192,85486,1,0,0:0:0:0:
64,192,85653,1,0,0:0:0:0:
448,192,85653,1,0,0:0:0:0:
448,192,85819,1,0,0:0:0:0:
64,192,85819,128,0,85986:0:0:0:0:
320,192,85986,128,0,86153:0:0:0:0:
64,192,86153,128,0,86319:0:0:0:0:
192,192,86153,1,2,0:0:0:0:
448,192,86319,128,0,86486:0:0:0:0:
320,192,86319,1,0,0:0:0:0:
192,192,86486,128,0,86653:0:0:0:0:
320,192,86653,1,0,0:0:0:0:
448,192,86708,1,0,0:0:0:0:
64,192,86764,1,0,0:0:0:0:
192,192,86819,1,0,0:0:0:0:
320,192,86819,1,4,0:0:0:0:
320,192,86986,1,4,0:0:0:0:
192,192,86986,1,0,0:0:0:0:
448,192,87153,1,0,0:0:0:0:
320,192,87236,1,0,0:0:0:0:
192,192,87319,1,0,0:0:0:0:
64,192,87375,1,0,0:0:0:0:
320,192,87431,1,0,0:0:0:0:
448,192,87486,128,0,87653:0:0:0:0:
320,192,87653,128,0,87819:0:0:0:0:
192,192,87819,128,0,87986:0:0:0:0:
64,192,87986,1,0,0:0:0:0:
448,192,88153,1,4,0:0:0:0:
64,192,88153,128,0,88319:0:0:0:0:
192,192,88319,128,0,88486:0:0:0:0:
320,192,88486,128,0,88653:0:0:0:0:
448,192,88653,128,0,88819:0:0:0:0:
64,192,88819,1,0,0:0:0:0:
192,192,88819,1,2,0:0:0:0:
192,192,88986,1,0,0:0:0:0:
64,192,88986,1,0,0:0:0:0:
320,192,89153,1,0,0:0:0:0:
192,192,89208,1,0,0:0:0:0:
64,192,89264,1,0,0:0:0:0:
448,192,89319,1,0,0:0:0:0:
320,192,89375,1,0,0:0:0:0:
192,192,89431,1,0,0:0:0:0:
64,192,89486,1,0,0:0:0:0:
448,192,89486,1,4,0:0:0:0:
448,192,89653,1,4,0:0:0:0:
64,192,89653,1,0,0:0:0:0:
320,192,89819,1,0,0:0:0:0:
64,192,89986,1,0,0:0:0:0:
448,192,89986,1,0,0:0:0:0:
192,192,90153,128,0,90486:0:0:0:0:
448,192,90319,1,0,0:0:0:0:
64,192,90319,1,0,0:0:0:0:
320,192,90486,1,0,0:0:0:0:
448,192,90542,1,0,0:0:0:0:
64,192,90597,1,0,0:0:0:0:
192,192,90653,1,0,0:0:0:0:
320,192,90653,1,0,0:0:0:0:
64,192,90819,1,0,0:0:0:0:
448,192,90819,1,4,0:0:0:0:
320,192,90986,1,0,0:0:0:0:
192,192,90986,1,0,0:0:0:0:
192,192,91153,1,0,0:0:0:0:
320,192,91153,128,0,91319:0:0:0:0:
64,192,91319,128,0,91486:0:0:0:0:
320,192,91486,128,0,91653:0:0:0:0:
448,192,91486,1,2,0:0:0:0:
64,192,91653,1,0,0:0:0:0:
192,192,91653,128,0,91819:0:0:0:0:
448,192,91819,1,0,0:0:0:0:
320,192,91875,1,0,0:0:0:0:
192,192,91931,1,0,0:0:0:0:
64,192,91986,1,0,0:0:0:0:
448,192,92042,1,0,0:0:0:0:
320,192,92097,1,0,0:0:0:0:
192,192,92153,1,4,0:0:0:0:
64,192,92153,1,0,0:0:0:0:
64,192,92319,1,0,0:0:0:0:
192,192,92319,1,4,0:0:0:0:
448,192,92486,1,0,0:0:0:0:
192,192,92653,1,0,0:0:0:0:
64,192,92653,1,0,0:0:0:0:
192,192,92819,1,0,0:0:0:0:
448,192,92819,128,0,93153:0:0:0:0:
320,192,92986,1,0,0:0:0:0:
64,192,92986,1,0,0:0:0:0:
64,192,93153,1,0,0:0:0:0:
320,192,93153,1,0,0:0:0:0:
192,192,93319,1,0,0:0:0:0:
320,192,93375,1,0,0:0:0:0:
448,192,93431,1,0,0:0:0:0:
192,192,93486,1,4,0:0:0:0:
64,192,93486,1,0,0:0:0:0:
448,192,93653,128,0,93819:0:0:0:0:
64,192,93819,128,0,94153:0:0:0:0:
320,192,94153,1,2,0:0:0:0:
448,192,94153,1,0,0:0:0:0:
192,192,94486,1,0,0:0:0:0:
64,192,94542,1,0,0:0:0:0:
448,192,94597,1,0,0:0:0:0:
320,192,94653,1,0,0:0:0:0:
192,192,94708,1,0,0:0:0:0:
64,192,94764,1,0,0:0:0:0:
320,192,94819,1,4,0:0:0:0:
448,192,94819,1,0,0:0:0:0:
448,192,94986,1,0,0:0:0:0:
320,192,94986,1,4,0:0:0:0:
192,192,95153,1,0,0:0:0:0:
320,192,95319,1,0,0:0:0:0:
448,192,95319,1,0,0:0:0:0:
192,192,95486,128,0,95653:0:0:0:0:
64,192,95486,128,0,95653:0:0:0:0:
320,192,95653,1,0,0:0:0:0:
448,192,95653,1,0,0:0:0:0:
64,192,95819,1,0,0:0:0:0:
192,192,95875,1,0,0:0:0:0:
320,192,95931,1,0,0:0:0:0:
448,192,95986,1,0,0:0:0:0:
64,192,95986,128,0,96153:0:0:0:0:
320,192,96153,1,4,0:0:0:0:
192,192,96153,1,0,0:0:0:0:
64,192,96319,1,0,0:0:0:0:
448,192,96319,1,0,0:0:0:0:
64,192,96486,1,0,0:0:0:0:
448,192,96486,128,0,96653:0:0:0:0:
320,192,96653,128,0,96819:0:0:0:0:
192,192,96819,1,2,0:0:0:0:
448,192,96819,128,0,96986:0:0:0:0:
64,192,96986,128,0,97153:0:0:0:0:
320,192,96986,1,0,0:0:0:0:
192,192,97153,128,0,97319:0:0:0:0:
448,192,97319,1,0,0:0:0:0:
320,192,97375,1,0,0:0:0:0:
64,192,97431,1,0,0:0:0:0:
192,192,97486,1,4,0:0:0:0:
448,192,97486,1,0,0:0:0:0:
448,192,97653,1,0,0:0:0:0:
192,192,97653,1,4,0:0:0:0:
320,192,97819,1,0,0:0:0:0:
192,192,97986,1,0,0:0:0:0:
448,192,97986,1,0,0:0:0:0:
64,192,98153,128,0,98486:0:0:0:0:
192,192,98486,128,0,98819:0:0:0:0:
448,192,98819,128,0,99153:0:0:0:0:
320,192,98819,128,4,99153:0:0:0:0:
192,192,99153,128,0,99486:0:0:0:0:
64,192,99486,1,0,0:0:0:0:
448,192,99486,1,2,0:0:0:0:
320,192,99819,1,0,0:0:0:0:
64,192,100153,128,0,100486:0:0:0:0:
192,192,100153,128,4,100486:0:0:0:0:
320,192,100458,1,0,0:0:0:0:
448,192,100819,128,0,101153:0:0:0:0:
64,192,101486,128,0,101819:0:0:0:0:
192,192,101486,128,4,101819:0:0:0:0:
448,192,102153,1,0,0:0:0:0:
64,192,102153,1,2,0:0:0:0:
320,192,102486,1,0,0:0:0:0:
192,192,102653,1,0,0:0:0:0:
448,192,102819,128,0,103153:0:0:0:0:
320,192,102819,128,4,103153:0:0:0:0:
64,192,103181,1,0,0:0:0:0:
192,192,103486,128,0,103819:0:0:0:0:
448,192,104153,128,0,104486:0:0:0:0:
320,192,104153,128,4,104486:0:0:0:0:
64,192,104819,1,0,0:0:0:0:
320,192,104819,1,2,0:0:0:0:
448,192,105153,1,0,0:0:0:0:
192,192,105486,128,4,105819:0:0:0:0:
64,192,105486,128,0,105819:0:0:0:0:
448,192,105792,1,0,0:0:0:0:
320,192,106153,128,0,106486:0:0:0:0:
64,192,106153,128,0,106319:0:0:0:0:
448,192,106653,128,0,106819:0:0:0:0:
192,192,106819,128,4,107153:0:0:0:0:
64,192,106819,128,0,107153:0:0:0:0:
320,192,107153,128,0,107319:0:0:0:0:
64,192,107486,1,0,0:0:0:0:
448,192,107486,1,2,0:0:0:0:
320,192,107819,1,0,0:0:0:0:
192,192,107986,1,0,0:0:0:0:
320,192,108153,128,4,108486:0:0:0:0:
448,192,108153,128,0,108486:0:0:0:0:
64,192,108514,1,0,0:0:0:0:
192,192,108819,128,0,109153:0:0:0:0:
320,192,109486,128,4,109819:0:0:0:0:
448,192,109486,128,0,109819:0:0:0:0:
192,192,110153,1,2,0:0:0:0:
64,192,110153,1,0,0:0:0:0:
448,192,110486,1,0,0:0:0:0:
320,192,110653,1,0,0:0:0:0:
192,192,110819,128,4,111153:0:0:0:0:
64,192,110819,1,0,0:0:0:0:
448,192,111125,1,0,0:0:0:0:
320,192,111486,128,0,111819:0:0:0:0:
64,192,112153,1,0,0:0:0:0:
192,192,112153,128,0,112486:0:0:0:15:soft-hitfinish.wav
448,192,112819,1,2,0:0:0:0:
320,192,113153,1,0,0:0:0:0:
192,192,113319,1,0,0:0:0:0:
448,192,113486,1,0,0:0:0:10:soft-hitfinish.wav
64,192,113819,1,0,0:0:0:0:
192,192,114181,1,0,0:0:0:0:
448,192,114819,1,4,0:0:0:0:
64,192,115486,1,2,0:0:0:0:
448,192,115819,1,0,0:0:0:0:
192,192,116153,1,0,0:0:0:0:
448,192,116458,1,0,0:0:0:0:
64,192,116819,128,0,116986:0:0:0:0:
192,192,117319,128,0,117486:0:0:0:0:
320,192,117819,128,0,117986:0:0:0:0:
64,192,118153,1,0,0:0:0:0:
192,192,118486,1,0,0:0:0:0:
192,192,118819,1,0,0:0:0:0:
448,192,119153,1,0,0:0:0:0:
320,192,119514,1,0,0:0:0:0:
64,192,120819,1,0,0:0:0:0:
448,192,121319,128,0,121486:0:0:0:0:
64,192,121986,1,0,0:0:0:0:
64,192,122153,1,0,0:0:0:0:
64,192,123486,1,0,0:0:0:0:
64,192,123986,1,0,0:0:0:0:
64,192,124153,1,0,0:0:0:0:
64,192,124819,1,0,0:0:0:0:
448,192,126153,1,0,0:0:0:0:
64,192,126653,128,0,126819:0:0:0:0:
64,192,127486,1,0,0:0:0:0:
320,192,128819,1,0,0:0:0:0:
64,192,131486,1,0,0:0:0:0:
448,192,131986,128,0,132153:0:0:0:0:
64,192,132653,1,0,0:0:0:0:
64,192,132819,1,0,0:0:0:0:
64,192,134153,1,0,0:0:0:0:
64,192,134653,1,0,0:0:0:0:
64,192,134819,1,0,0:0:0:0:
64,192,135486,128,0,141819:0:0:0:0:
448,192,136819,1,0,0:0:0:0:
192,192,137153,128,0,137486:0:0:0:0:
320,192,137486,128,0,137819:0:0:0:0:
448,192,137819,128,0,138153:0:0:0:0:
192,192,138153,128,0,138486:0:0:0:0:
320,192,138486,128,0,138819:0:0:0:0:
448,192,138819,128,0,139153:0:0:0:0:
192,192,139153,128,0,139819:0:0:0:0:
320,192,139486,128,0,139819:0:0:0:0:
448,192,139819,128,0,140153:0:0:0:0:
192,192,140153,128,0,140819:0:0:0:0:
320,192,140486,128,0,140819:0:0:0:0:
448,192,140819,128,0,141153:0:0:0:0:
192,192,141153,128,0,141819:0:0:0:0:
320,192,141486,128,0,141819:0:0:0:0:
448,192,141819,1,0,0:0:0:0:
192,192,142153,1,0,0:0:0:0:
448,192,142153,128,2,143486:0:0:0:0:
64,192,142153,128,0,142653:0:0:0:0:
320,192,142653,128,0,142819:0:0:0:0:
64,192,142819,128,0,143069:0:0:0:0:
64,192,143486,128,0,144819:0:0:0:0:
192,192,143486,128,0,143819:0:0:0:0:
320,192,144819,1,0,0:0:0:0:
192,192,144819,1,0,0:0:0:0:
448,192,144819,128,2,146153:0:0:0:0:
320,192,145319,128,0,145486:0:0:0:0:
64,192,145486,128,0,145736:0:0:0:0:
64,192,146153,128,0,147486:0:0:0:0:
192,192,146153,128,0,146486:0:0:0:0:
448,192,147486,1,0,0:0:0:0:
320,192,147486,128,2,148819:0:0:0:0:
192,192,147486,128,0,147986:0:0:0:0:
448,192,147986,128,0,148153:0:0:0:0:
192,192,148153,128,0,148403:0:0:0:0:
192,192,148819,128,0,150153:0:0:0:0:
64,192,148819,128,0,149153:0:0:0:0:
448,192,150153,1,0,0:0:0:0:
64,192,150153,1,0,0:0:0:0:
320,192,150153,128,2,151486:0:0:0:0:
448,192,150653,128,0,150819:0:0:0:0:
192,192,150819,128,0,151069:0:0:0:0:
448,192,151486,128,0,152153:0:0:0:0:
64,192,151486,128,0,151819:0:0:0:0:
192,192,152153,128,0,152819:0:0:0:0:
320,192,152153,1,0,0:0:0:0:
448,192,152819,1,0,0:0:0:0:
320,192,152819,128,2,154153:0:0:0:0:
64,192,152819,128,0,153319:0:0:0:0:
448,192,153319,128,0,153486:0:0:0:0:
64,192,153486,128,0,153736:0:0:0:0:
64,192,154153,128,0,155486:0:0:0:0:
192,192,154153,128,0,154486:0:0:0:0:
320,192,155486,1,0,0:0:0:0:
192,192,155486,1,0,0:0:0:0:
448,192,155486,128,2,156819:0:0:0:0:
320,192,155986,128,0,156153:0:0:0:0:
64,192,156153,128,0,156403:0:0:0:0:
64,192,156819,128,0,157486:0:0:0:0:
192,192,156819,128,0,157153:0:0:0:0:
448,192,157486,128,0,157819:0:0:0:0:
448,192,158153,1,0,0:0:0:0:
320,192,158153,128,2,159486:0:0:0:0:
192,192,158153,128,0,158653:0:0:0:0:
448,192,158653,128,0,158819:0:0:0:0:
192,192,158819,128,0,159069:0:0:0:0:
192,192,159486,128,0,160819:0:0:0:0:
64,192,159486,128,0,159819:0:0:0:0:
448,192,160819,1,0,0:0:0:0:
64,192,160819,1,0,0:0:0:0:
320,192,160819,128,2,161986:0:0:0:0:
448,192,161319,128,0,161486:0:0:0:0:
192,192,161486,128,0,161736:0:0:0:0:
64,192,162153,1,0,0:0:0:0:
192,192,162153,1,0,0:0:0:0:
64,192,162319,1,0,0:0:0:0:
192,192,162319,1,0,0:0:0:0:
448,192,162486,1,0,0:0:0:0:
320,192,162542,1,0,0:0:0:0:
192,192,162597,1,0,0:0:0:0:
64,192,162653,1,0,0:0:0:0:
448,192,162708,1,0,0:0:0:0:
320,192,162764,1,0,0:0:0:0:
192,192,162819,1,0,0:0:0:0:
64,192,162819,1,0,0:0:0:0:
192,192,162986,1,0,0:0:0:0:
64,192,162986,1,0,0:0:0:0:
448,192,163153,1,0,0:0:0:0:
320,192,163153,1,0,0:0:0:0:
320,192,163319,1,0,0:0:0:0:
64,192,163319,1,0,0:0:0:0:
64,192,163486,1,0,0:0:0:0:
192,192,163486,1,0,0:0:0:0:
448,192,163486,1,2,0:0:0:0:
320,192,163819,1,0,0:0:0:0:
448,192,163819,1,0,0:0:0:0:
320,192,163931,1,0,0:0:0:0:
448,192,163931,1,0,0:0:0:0:
192,192,164042,1,0,0:0:0:0:
64,192,164042,1,0,0:0:0:0:
64,192,164153,1,0,0:0:0:0:
192,192,164153,1,4,0:0:0:0:
320,192,164486,1,0,0:0:0:0:
448,192,164486,1,0,0:0:0:0:
320,192,164597,1,0,0:0:0:0:
448,192,164597,1,0,0:0:0:0:
192,192,164708,1,0,0:0:0:0:
64,192,164708,1,0,0:0:0:0:
192,192,164819,1,0,0:0:0:0:
64,192,164819,1,0,0:0:0:0:
320,192,165153,1,0,0:0:0:0:
448,192,165153,1,0,0:0:0:0:
320,192,165264,1,0,0:0:0:0:
448,192,165264,1,0,0:0:0:0:
192,192,165375,1,0,0:0:0:0:
64,192,165375,1,0,0:0:0:0:
192,192,165486,1,4,0:0:0:0:
64,192,165486,1,0,0:0:0:0:
320,192,165819,1,0,0:0:0:0:
448,192,165819,1,0,0:0:0:0:
320,192,165931,1,0,0:0:0:0:
448,192,165931,1,0,0:0:0:0:
320,192,166042,1,0,0:0:0:0:
448,192,166042,1,0,0:0:0:0:
192,192,166153,1,2,0:0:0:0:
64,192,166153,1,0,0:0:0:0:
320,192,166319,1,0,0:0:0:0:
64,192,166486,1,0,0:0:0:0:
192,192,166542,1,0,0:0:0:0:
448,192,166597,1,0,0:0:0:0:
320,192,166653,1,0,0:0:0:0:
64,192,166708,1,0,0:0:0:0:
192,192,166764,1,0,0:0:0:0:
448,192,166819,1,0,0:0:0:0:
320,192,166819,1,4,0:0:0:0:
64,192,166986,1,0,0:0:0:0:
448,192,167153,1,0,0:0:0:0:
320,192,167208,1,0,0:0:0:0:
64,192,167264,1,0,0:0:0:0:
192,192,167319,1,0,0:0:0:0:
448,192,167375,1,0,0:0:0:0:
320,192,167431,1,0,0:0:0:0:
192,192,167486,1,0,0:0:0:0:
64,192,167486,1,0,0:0:0:0:
448,192,167653,1,0,0:0:0:0:
320,192,167653,1,0,0:0:0:0:
64,192,167819,1,0,0:0:0:0:
192,192,167875,1,0,0:0:0:0:
448,192,167931,1,0,0:0:0:0:
320,192,167986,1,0,0:0:0:0:
64,192,168042,1,0,0:0:0:0:
192,192,168097,1,0,0:0:0:0:
320,192,168153,1,4,0:0:0:0:
448,192,168153,1,0,0:0:0:0:
64,192,168486,1,0,0:0:0:0:
192,192,168542,1,0,0:0:0:0:
448,192,168597,1,0,0:0:0:0:
320,192,168653,1,0,0:0:0:0:
64,192,168708,1,0,0:0:0:0:
192,192,168764,1,0,0:0:0:0:
320,192,168819,1,2,0:0:0:0:
448,192,168819,1,0,0:0:0:0:
64,192,169153,1,0,0:0:0:0:
192,192,169153,1,0,0:0:0:0:
64,192,169264,1,0,0:0:0:0:
192,192,169264,1,0,0:0:0:0:
448,192,169375,1,0,0:0:0:0:
320,192,169375,1,0,0:0:0:0:
448,192,169486,1,4,0:0:0:0:
320,192,169486,1,0,0:0:0:0:
64,192,169819,1,0,0:0:0:0:
192,192,169819,1,0,0:0:0:0:
64,192,169931,1,0,0:0:0:0:
192,192,169931,1,0,0:0:0:0:
448,192,170042,1,0,0:0:0:0:
320,192,170042,1,0,0:0:0:0:
448,192,170153,1,0,0:0:0:0:
320,192,170153,1,0,0:0:0:0:
64,192,170486,1,0,0:0:0:0:
192,192,170486,1,0,0:0:0:0:
64,192,170597,1,0,0:0:0:0:
192,192,170597,1,0,0:0:0:0:
448,192,170708,1,0,0:0:0:0:
320,192,170708,1,0,0:0:0:0:
448,192,170819,1,4,0:0:0:0:
320,192,170819,1,0,0:0:0:0:
64,192,171153,1,0,0:0:0:0:
192,192,171153,1,0,0:0:0:0:
64,192,171264,1,0,0:0:0:0:
192,192,171264,1,0,0:0:0:0:
64,192,171375,1,0,0:0:0:0:
192,192,171375,1,0,0:0:0:0:
320,192,171486,1,2,0:0:0:0:
448,192,171486,1,0,0:0:0:0:
192,192,171653,1,0,0:0:0:0:
64,192,171653,1,0,0:0:0:0:
448,192,171819,1,0,0:0:0:0:
320,192,171875,1,0,0:0:0:0:
64,192,171931,1,0,0:0:0:0:
192,192,171986,1,0,0:0:0:0:
448,192,172042,1,0,0:0:0:0:
320,192,172097,1,0,0:0:0:0:
192,192,172153,1,4,0:0:0:0:
64,192,172153,1,0,0:0:0:0:
448,192,172319,1,0,0:0:0:0:
320,192,172319,1,0,0:0:0:0:
64,192,172486,1,0,0:0:0:0:
192,192,172542,1,0,0:0:0:0:
320,192,172597,1,0,0:0:0:0:
64,192,172653,1,0,0:0:0:0:
192,192,172708,1,0,0:0:0:0:
320,192,172764,1,0,0:0:0:0:
64,192,172819,1,0,0:0:0:0:
448,192,172819,1,0,0:0:0:0:
64,192,173153,1,0,0:0:0:0:
192,192,173153,1,0,0:0:0:0:
64,192,173264,1,0,0:0:0:0:
192,192,173264,1,0,0:0:0:0:
64,192,173375,1,0,0:0:0:0:
192,192,173375,1,0,0:0:0:0:
448,192,173486,1,0,0:0:0:0:
320,192,173486,1,4,0:0:0:0:
320,192,173653,1,0,0:0:0:0:
448,192,173653,1,0,0:0:0:0:
192,192,173819,1,0,0:0:0:0:
64,192,173819,1,0,0:0:0:0:
192,192,173931,1,0,0:0:0:0:
64,192,173931,1,0,0:0:0:0:
448,192,174042,1,0,0:0:0:0:
320,192,174042,1,0,0:0:0:0:
448,192,174153,1,0,0:0:0:0:
64,192,174153,1,2,0:0:0:0:
192,192,174486,1,0,0:0:0:0:
64,192,174486,1,0,0:0:0:0:
192,192,174597,1,0,0:0:0:0:
64,192,174597,1,0,0:0:0:0:
320,192,174708,1,0,0:0:0:0:
448,192,174708,1,0,0:0:0:0:
320,192,174819,1,4,0:0:0:0:
448,192,174819,1,0,0:0:0:0:
192,192,175153,1,0,0:0:0:0:
64,192,175153,1,0,0:0:0:0:
192,192,175264,1,0,0:0:0:0:
64,192,175264,1,0,0:0:0:0:
320,192,175375,1,0,0:0:0:0:
448,192,175375,1,0,0:0:0:0:
320,192,175486,1,0,0:0:0:0:
448,192,175486,1,0,0:0:0:0:
192,192,175819,1,0,0:0:0:0:
64,192,175819,1,0,0:0:0:0:
192,192,175931,1,0,0:0:0:0:
64,192,175931,1,0,0:0:0:0:
320,192,176042,1,0,0:0:0:0:
448,192,176042,1,0,0:0:0:0:
320,192,176153,1,4,0:0:0:0:
448,192,176153,1,0,0:0:0:0:
192,192,176486,1,0,0:0:0:0:
64,192,176486,1,0,0:0:0:0:
192,192,176597,1,0,0:0:0:0:
64,192,176597,1,0,0:0:0:0:
192,192,176708,1,0,0:0:0:0:
64,192,176708,1,0,0:0:0:0:
320,192,176819,1,2,0:0:0:0:
448,192,176819,1,0,0:0:0:0:
192,192,176986,1,0,0:0:0:0:
448,192,177153,1,0,0:0:0:0:
320,192,177208,1,0,0:0:0:0:
64,192,177264,1,0,0:0:0:0:
192,192,177319,1,0,0:0:0:0:
448,192,177375,1,0,0:0:0:0:
320,192,177431,1,0,0:0:0:0:
64,192,177486,1,0,0:0:0:0:
192,192,177486,1,4,0:0:0:0:
448,192,177653,1,0,0:0:0:0:
64,192,177819,1,0,0:0:0:0:
192,192,177875,1,0,0:0:0:0:
448,192,177931,1,0,0:0:0:0:
320,192,177986,1,0,0:0:0:0:
64,192,178042,1,0,0:0:0:0:
192,192,178097,1,0,0:0:0:0:
320,192,178153,1,0,0:0:0:0:
448,192,178153,1,0,0:0:0:0:
64,192,178319,1,0,0:0:0:0:
192,192,178319,1,0,0:0:0:0:
448,192,178486,1,0,0:0:0:0:
320,192,178542,1,0,0:0:0:0:
64,192,178597,1,0,0:0:0:0:
192,192,178653,1,0,0:0:0:0:
448,192,178708,1,0,0:0:0:0:
320,192,178764,1,0,0:0:0:0:
192,192,178819,1,4,0:0:0:0:
64,192,178819,1,0,0:0:0:0:
448,192,179153,1,0,0:0:0:0:
320,192,179208,1,0,0:0:0:0:
64,192,179264,1,0,0:0:0:0:
192,192,179319,1,0,0:0:0:0:
448,192,179375,1,0,0:0:0:0:
320,192,179431,1,0,0:0:0:0:
192,192,179486,1,2,0:0:0:0:
64,192,179486,1,0,0:0:0:0:
448,192,179819,1,0,0:0:0:0:
320,192,179819,1,0,0:0:0:0:
448,192,179931,1,0,0:0:0:0:
320,192,179931,1,0,0:0:0:0:
64,192,180042,1,0,0:0:0:0:
192,192,180042,1,0,0:0:0:0:
64,192,180153,1,0,0:0:0:0:
192,192,180153,1,4,0:0:0:0:
448,192,180486,1,0,0:0:0:0:
320,192,180486,1,0,0:0:0:0:
448,192,180597,1,0,0:0:0:0:
320,192,180597,1,0,0:0:0:0:
64,192,180708,1,0,0:0:0:0:
192,192,180708,1,0,0:0:0:0:
64,192,180819,1,0,0:0:0:0:
192,192,180819,1,0,0:0:0:0:
448,192,181153,1,0,0:0:0:0:
320,192,181153,1,0,0:0:0:0:
448,192,181264,1,0,0:0:0:0:
320,192,181264,1,0,0:0:0:0:
64,192,181375,1,0,0:0:0:0:
192,192,181375,1,0,0:0:0:0:
64,192,181486,1,0,0:0:0:0:
192,192,181486,1,4,0:0:0:0:
448,192,181819,1,0,0:0:0:0:
320,192,181819,1,0,0:0:0:0:
448,192,181931,1,0,0:0:0:0:
320,192,181931,1,0,0:0:0:0:
448,192,182042,1,0,0:0:0:0:
320,192,182042,1,0,0:0:0:0:
64,192,182153,1,2,0:0:0:0:
192,192,182194,1,0,0:0:0:0:
320,192,182236,1,0,0:0:0:0:
448,192,182278,1,0,0:0:0:0:
64,192,182319,1,0,0:0:0:0:
192,192,182375,1,0,0:0:0:0:
320,192,182431,1,0,0:0:0:0:
448,192,182486,1,0,0:0:0:0:
64,192,182549,1,0,0:0:0:0:
192,192,182632,1,0,0:0:0:0:
320,192,182715,1,0,0:0:0:0:
448,192,182819,1,4,0:0:0:0:
64,192,182819,1,0,0:0:0:0:
448,192,182986,1,0,0:0:0:0:
64,192,182986,1,0,0:0:0:0:
64,192,183181,1,0,0:0:0:0:
448,192,183181,1,0,0:0:0:0:
192,192,183486,128,0,183653:0:0:0:0:
448,192,183653,128,0,183819:0:0:0:0:
320,192,183819,128,0,184153:0:0:0:0:
64,192,184153,1,0,0:0:0:0:
448,192,184819,1,0,0:0:0:0:
320,192,184819,1,2,0:0:0:0:
192,192,184819,1,0,0:0:0:0:
64,192,185153,1,0,0:0:0:0:
192,192,185153,1,0,0:0:0:0:
320,192,185319,1,0,0:0:0:0:
448,192,185319,1,0,0:0:0:0:
64,192,185486,1,0,0:0:0:0:
448,192,185486,128,4,185819:0:0:0:0:
192,192,185653,1,0,0:0:0:0:
320,192,185819,1,0,0:0:0:0:
64,192,185819,1,0,0:0:0:0:
192,192,185986,1,0,0:0:0:0:
448,192,186153,1,0,0:0:0:0:
64,192,186153,128,0,186486:0:0:0:0:
320,192,186319,1,0,0:0:0:0:
448,192,186486,1,0,0:0:0:0:
192,192,186486,1,0,0:0:0:0:
64,192,186653,1,0,0:0:0:0:
320,192,186653,1,0,0:0:0:0:
448,192,186819,128,4,187153:0:0:0:0:
64,192,186819,1,0,0:0:0:0:
320,192,186986,1,0,0:0:0:0:
192,192,187153,1,0,0:0:0:0:
64,192,187153,1,0,0:0:0:0:
320,192,187319,1,0,0:0:0:0:
448,192,187486,1,2,0:0:0:0:
192,192,187486,1,0,0:0:0:0:
448,192,187653,1,0,0:0:0:0:
64,192,187819,1,0,0:0:0:0:
192,192,187819,1,0,0:0:0:0:
448,192,187986,1,0,0:0:0:0:
320,192,187986,1,0,0:0:0:0:
320,192,188153,128,4,188486:0:0:0:0:
192,192,188153,1,0,0:0:0:0:
64,192,188319,1,0,0:0:0:0:
448,192,188486,1,0,0:0:0:0:
192,192,188486,1,0,0:0:0:0:
64,192,188653,1,0,0:0:0:0:
320,192,188819,1,0,0:0:0:0:
448,192,188819,128,0,189153:0:0:0:0:
64,192,188986,1,0,0:0:0:0:
192,192,188986,1,0,0:0:0:0:
64,192,189153,1,0,0:0:0:0:
320,192,189153,1,0,0:0:0:0:
192,192,189319,1,0,0:0:0:0:
448,192,189319,1,0,0:0:0:0:
448,192,189486,1,0,0:0:0:0:
320,192,189486,128,4,189819:0:0:0:0:
64,192,189653,1,0,0:0:0:0:
448,192,189819,1,0,0:0:0:0:
192,192,189819,1,0,0:0:0:0:
320,192,189986,1,0,0:0:0:0:
64,192,190153,1,0,0:0:0:0:
448,192,190153,1,2,0:0:0:0:
64,192,190319,1,0,0:0:0:0:
320,192,190486,1,0,0:0:0:0:
448,192,190486,1,0,0:0:0:0:
192,192,190653,1,0,0:0:0:0:
64,192,190653,1,0,0:0:0:0:
192,192,190819,1,0,0:0:0:0:
448,192,190819,128,4,191153:0:0:0:0:
320,192,190986,1,0,0:0:0:0:
192,192,191153,1,0,0:0:0:0:
64,192,191153,1,0,0:0:0:0:
448,192,191319,1,0,0:0:0:0:
64,192,191486,128,0,191819:0:0:0:0:
320,192,191486,1,0,0:0:0:0:
192,192,191653,1,0,0:0:0:0:
320,192,191819,1,0,0:0:0:0:
448,192,191819,1,0,0:0:0:0:
64,192,191986,1,0,0:0:0:0:
192,192,191986,1,0,0:0:0:0:
448,192,192153,128,4,192486:0:0:0:0:
64,192,192153,1,0,0:0:0:0:
320,192,192319,1,0,0:0:0:0:
192,192,192403,1,0,0:0:0:0:
64,192,192403,1,0,0:0:0:0:
320,192,192486,1,0,0:0:0:0:
64,192,192653,1,0,0:0:0:0:
448,192,192819,1,0,0:0:0:0:
320,192,192819,1,2,0:0:0:0:
192,192,192986,1,0,0:0:0:0:
448,192,192986,1,0,0:0:0:0:
64,192,193153,1,0,0:0:0:0:
320,192,193153,1,0,0:0:0:0:
448,192,193319,1,0,0:0:0:0:
320,192,193486,1,4,0:0:0:0:
192,192,193486,128,0,193819:0:0:0:0:
64,192,193653,1,0,0:0:0:0:
448,192,193653,1,0,0:0:0:0:
320,192,193819,1,0,0:0:0:0:
448,192,193819,1,0,0:0:0:0:
64,192,193986,1,0,0:0:0:0:
320,192,194153,128,0,194486:0:0:0:0:
448,192,194153,1,0,0:0:0:0:
64,192,194319,1,0,0:0:0:0:
192,192,194486,1,0,0:0:0:0:
448,192,194486,1,0,0:0:0:0:
320,192,194653,1,0,0:0:0:0:
192,192,194819,128,4,195153:0:0:0:0:
64,192,194819,1,0,0:0:0:0:
448,192,194986,1,0,0:0:0:0:
64,192,195153,1,0,0:0:0:0:
320,192,195153,1,0,0:0:0:0:
448,192,195319,1,0,0:0:0:0:
64,192,195486,1,0,0:0:0:0:
192,192,195486,1,2,0:0:0:0:
64,192,195653,1,0,0:0:0:0:
448,192,195819,1,0,0:0:0:0:
192,192,195819,1,0,0:0:0:0:
64,192,195986,1,0,0:0:0:0:
320,192,195986,1,0,0:0:0:0:
448,192,196153,128,4,196486:0:0:0:0:
320,192,196153,1,0,0:0:0:0:
192,192,196319,1,0,0:0:0:0:
320,192,196486,1,0,0:0:0:0:
64,192,196486,1,0,0:0:0:0:
448,192,196653,1,0,0:0:0:0:
64,192,196819,128,0,197153:0:0:0:0:
320,192,196819,1,0,0:0:0:0:
192,192,196986,1,0,0:0:0:0:
448,192,197153,1,0,0:0:0:0:
320,192,197153,1,0,0:0:0:0:
192,192,197319,1,0,0:0:0:0:
64,192,197319,1,0,0:0:0:0:
448,192,197486,128,4,197819:0:0:0:0:
64,192,197486,1,0,0:0:0:0:
320,192,197653,1,0,0:0:0:0:
192,192,197819,1,0,0:0:0:0:
64,192,197819,1,0,0:0:0:0:
320,192,197986,1,0,0:0:0:0:
448,192,198153,1,0,0:0:0:0:
64,192,198153,1,2,0:0:0:0:
64,192,198319,1,0,0:0:0:0:
320,192,198486,1,0,0:0:0:0:
448,192,198486,1,0,0:0:0:0:
64,192,198653,1,0,0:0:0:0:
192,192,198653,1,0,0:0:0:0:
320,192,198819,128,4,199153:0:0:0:0:
192,192,198819,1,0,0:0:0:0:
448,192,198986,1,0,0:0:0:0:
64,192,199153,1,0,0:0:0:0:
192,192,199153,1,0,0:0:0:0:
448,192,199319,1,0,0:0:0:0:
320,192,199486,1,0,0:0:0:0:
192,192,199486,128,0,199819:0:0:0:0:
448,192,199653,1,0,0:0:0:0:
64,192,199653,1,0,0:0:0:0:
320,192,199819,1,0,0:0:0:0:
64,192,199819,1,0,0:0:0:0:
192,192,199986,1,0,0:0:0:0:
448,192,199986,1,0,0:0:0:0:
448,192,200153,1,4,0:0:0:0:
320,192,200153,128,0,200486:0:0:0:0:
192,192,200319,1,0,0:0:0:0:
448,192,200403,1,0,0:0:0:0:
64,192,200403,1,0,0:0:0:0:
192,192,200486,1,0,0:0:0:0:
192,192,200653,1,0,0:0:0:0:
320,192,200653,1,0,0:0:0:0:
64,192,200819,128,0,201153:0:0:0:0:
448,192,200819,128,2,201153:0:0:0:0:
192,192,200986,1,0,0:0:0:0:
320,192,201153,1,0,0:0:0:0:
192,192,201319,1,0,0:0:0:0:
448,192,201486,128,4,201819:0:0:0:0:
64,192,201486,128,0,201819:0:0:0:0:
320,192,201653,1,0,0:0:0:0:
192,192,201819,1,0,0:0:0:0:
320,192,201986,1,0,0:0:0:0:
64,192,202153,128,0,202486:0:0:0:0:
448,192,202153,128,0,202486:0:0:0:0:
192,192,202319,1,0,0:0:0:0:
320,192,202486,1,0,0:0:0:0:
192,192,202653,1,0,0:0:0:0:
448,192,202819,128,4,203153:0:0:0:0:
64,192,202819,128,0,203153:0:0:0:0:
320,192,202986,1,0,0:0:0:0:
192,192,203153,1,0,0:0:0:0:
320,192,203319,1,0,0:0:0:0:
64,192,203486,128,0,203819:0:0:0:0:
448,192,203486,128,2,203653:0:0:0:0:
192,192,203653,128,0,203819:0:0:0:0:
320,192,203653,1,0,0:0:0:0:
448,192,203819,1,0,0:0:0:0:
192,192,203986,1,0,0:0:0:0:
64,192,204153,128,0,204486:0:0:0:0:
448,192,204153,128,4,204319:0:0:0:0:
320,192,204319,1,0,0:0:0:0:
192,192,204319,128,0,204486:0:0:0:0:
448,192,204486,1,0,0:0:0:0:
192,192,204653,1,0,0:0:0:0:
448,192,204819,1,0,0:0:0:0:
320,192,204861,1,0,0:0:0:0:
192,192,204903,1,0,0:0:0:0:
64,192,204944,1,0,0:0:0:0:
448,192,204986,1,0,0:0:0:0:
320,192,205042,1,0,0:0:0:0:
192,192,205097,1,0,0:0:0:0:
64,192,205153,1,0,0:0:0:0:
448,192,205215,1,0,0:0:0:0:
320,192,205278,1,0,0:0:0:0:
192,192,205382,1,0,0:0:0:0:
448,192,205486,1,4,0:0:0:0:
64,192,205486,1,0,0:0:0:0:
192,192,205708,1,0,0:0:0:0:
64,192,205708,1,0,0:0:0:0:
320,192,205986,1,0,0:0:0:0:
448,192,205986,1,0,0:0:0:0:
192,192,206153,1,2,0:0:0:0:
64,192,206153,1,0,0:0:0:0:
448,192,206153,1,0,0:0:0:0:
320,192,206319,1,0,0:0:0:0:
64,192,206486,1,0,0:0:0:0:
192,192,206549,1,0,0:0:0:0:
320,192,206549,1,0,0:0:0:0:
448,192,206653,1,0,0:0:0:0:
192,192,206819,1,4,0:0:0:0:
64,192,206819,128,0,207153:0:0:0:0:
320,192,206986,1,0,0:0:0:0:
192,192,207153,1,0,0:0:0:0:
448,192,207153,1,0,0:0:0:0:
64,192,207319,1,0,0:0:0:0:
320,192,207486,1,0,0:0:0:0:
448,192,207486,128,0,207819:0:0:0:0:
64,192,207653,1,0,0:0:0:0:
192,192,207736,1,0,0:0:0:0:
320,192,207736,1,0,0:0:0:0:
64,192,207819,1,0,0:0:0:0:
448,192,207986,1,0,0:0:0:0:
320,192,207986,1,0,0:0:0:0:
192,192,208125,1,0,0:0:0:0:
64,192,208153,128,4,208486:0:0:0:0:
320,192,208319,1,0,0:0:0:0:
448,192,208486,1,0,0:0:0:0:
192,192,208486,1,0,0:0:0:0:
64,192,208653,1,0,0:0:0:0:
448,192,208819,1,2,0:0:0:0:
192,192,208819,1,0,0:0:0:0:
192,192,208986,1,0,0:0:0:0:
448,192,209153,1,0,0:0:0:0:
320,192,209153,1,0,0:0:0:0:
64,192,209319,1,0,0:0:0:0:
192,192,209319,1,0,0:0:0:0:
320,192,209486,128,4,209819:0:0:0:0:
64,192,209486,1,0,0:0:0:0:
192,192,209653,1,0,0:0:0:0:
64,192,209819,1,0,0:0:0:0:
448,192,209819,1,0,0:0:0:0:
320,192,209986,1,0,0:0:0:0:
64,192,210153,1,0,0:0:0:0:
192,192,210153,128,0,210486:0:0:0:0:
64,192,210319,1,0,0:0:0:0:
448,192,210319,1,0,0:0:0:0:
320,192,210486,1,0,0:0:0:0:
448,192,210486,1,0,0:0:0:0:
64,192,210653,1,0,0:0:0:0:
192,192,210653,1,0,0:0:0:0:
64,192,210792,1,0,0:0:0:0:
320,192,210819,128,4,211153:0:0:0:0:
448,192,210986,1,0,0:0:0:0:
64,192,211153,1,0,0:0:0:0:
192,192,211181,1,0,0:0:0:0:
448,192,211319,1,0,0:0:0:0:
64,192,211486,1,2,0:0:0:0:
192,192,211486,1,0,0:0:0:0:
320,192,211528,1,0,0:0:0:0:
448,192,211653,1,0,0:0:0:0:
320,192,211819,1,0,0:0:0:0:
64,192,211819,1,0,0:0:0:0:
192,192,211986,1,0,0:0:0:0:
448,192,211986,1,0,0:0:0:0:
448,192,212153,128,4,212486:0:0:0:0:
64,192,212153,1,0,0:0:0:0:
320,192,212319,1,0,0:0:0:0:
192,192,212424,1,0,0:0:0:0:
64,192,212486,1,0,0:0:0:0:
320,192,212625,1,0,0:0:0:0:
448,192,212653,1,0,0:0:0:0:
64,192,212819,128,0,213153:0:0:0:0:
192,192,212819,1,0,0:0:0:0:
448,192,212986,1,0,0:0:0:0:
192,192,213153,1,0,0:0:0:0:
320,192,213153,1,0,0:0:0:0:
64,192,213319,1,0,0:0:0:0:
448,192,213319,1,0,0:0:0:0:
448,192,213486,128,4,213819:0:0:0:0:
192,192,213486,1,0,0:0:0:0:
320,192,213653,1,0,0:0:0:0:
192,192,213819,1,0,0:0:0:0:
64,192,213819,1,0,0:0:0:0:
320,192,213986,1,0,0:0:0:0:
448,192,214125,1,0,0:0:0:0:
64,192,214153,1,2,0:0:0:0:
64,192,214319,1,0,0:0:0:0:
192,192,214486,1,0,0:0:0:0:
448,192,214486,1,0,0:0:0:0:
320,192,214653,1,0,0:0:0:0:
64,192,214653,1,0,0:0:0:0:
192,192,214819,1,0,0:0:0:0:
320,192,214819,128,4,215153:0:0:0:0:
64,192,214986,1,0,0:0:0:0:
448,192,215153,1,0,0:0:0:0:
192,192,215153,1,0,0:0:0:0:
320,192,215319,1,0,0:0:0:0:
448,192,215486,1,0,0:0:0:0:
64,192,215486,128,0,215819:0:0:0:0:
192,192,215653,1,0,0:0:0:0:
320,192,215708,1,0,0:0:0:0:
448,192,215819,1,0,0:0:0:0:
192,192,215924,1,0,0:0:0:0:
320,192,215986,1,0,0:0:0:0:
192,192,216153,1,4,0:0:0:0:
320,192,216153,128,0,216486:0:0:0:0:
64,192,216319,1,0,0:0:0:0:
192,192,216347,1,0,0:0:0:0:
448,192,216486,1,0,0:0:0:0:
192,192,216597,1,0,0:0:0:0:
64,192,216653,1,0,0:0:0:0:
320,192,216819,1,2,0:0:0:0:
448,192,216819,1,0,0:0:0:0:
64,192,216847,1,0,0:0:0:0:
320,192,216986,1,0,0:0:0:0:
192,192,217153,1,0,0:0:0:0:
448,192,217153,1,0,0:0:0:0:
64,192,217319,1,0,0:0:0:0:
320,192,217319,1,0,0:0:0:0:
448,192,217486,128,4,217819:0:0:0:0:
64,192,217486,1,0,0:0:0:0:
320,192,217653,1,0,0:0:0:0:
64,192,217819,1,0,0:0:0:0:
192,192,217819,1,0,0:0:0:0:
320,192,217986,1,0,0:0:0:0:
64,192,218153,128,0,218486:0:0:0:0:
448,192,218153,1,0,0:0:0:0:
192,192,218319,1,0,0:0:0:0:
320,192,218486,1,0,0:0:0:0:
448,192,218486,1,0,0:0:0:0:
192,192,218653,1,0,0:0:0:0:
64,192,218653,1,0,0:0:0:0:
64,192,218819,1,0,0:0:0:0:
448,192,218819,128,4,219153:0:0:0:0:
320,192,218986,1,0,0:0:0:0:
192,192,219153,1,0,0:0:0:0:
64,192,219153,1,0,0:0:0:0:
320,192,219319,1,0,0:0:0:0:
448,192,219486,1,2,0:0:0:0:
64,192,219486,1,0,0:0:0:0:
64,192,219653,1,0,0:0:0:0:
448,192,219819,1,0,0:0:0:0:
320,192,219819,1,0,0:0:0:0:
192,192,219986,1,0,0:0:0:0:
64,192,219986,1,0,0:0:0:0:
192,192,220153,1,0,0:0:0:0:
320,192,220153,128,4,220486:0:0:0:0:
448,192,220319,1,0,0:0:0:0:
64,192,220486,1,0,0:0:0:0:
192,192,220486,1,0,0:0:0:0:
448,192,220653,1,0,0:0:0:0:
320,192,220819,1,0,0:0:0:0:
192,192,220819,128,0,221153:0:0:0:0:
64,192,220986,1,0,0:0:0:0:
320,192,220986,1,0,0:0:0:0:
64,192,221153,1,0,0:0:0:0:
448,192,221153,1,0,0:0:0:0:
192,192,221319,1,0,0:0:0:0:
320,192,221319,1,0,0:0:0:0:
448,192,221486,1,4,0:0:0:0:
320,192,221486,128,0,221819:0:0:0:0:
64,192,221653,1,0,0:0:0:0:
448,192,221708,1,0,0:0:0:0:
192,192,221819,1,0,0:0:0:0:
320,192,221944,1,0,0:0:0:0:
64,192,221986,1,0,0:0:0:0:
64,192,222153,1,0,0:0:0:0:
448,192,222153,1,2,0:0:0:0:
320,192,222194,1,0,0:0:0:0:
448,192,222486,1,0,0:0:0:0:
320,192,222569,1,0,0:0:0:0:
192,192,222653,1,0,0:0:0:0:
64,192,222736,1,0,0:0:0:0:
320,192,222819,128,0,223153:0:0:0:0:
448,192,222819,128,0,223153:0:0:0:0:
64,192,223153,1,0,0:0:0:0:
192,192,223236,1,0,0:0:0:0:
320,192,223319,1,0,0:0:0:0:
448,192,223403,1,0,0:0:0:0:
64,192,223486,128,0,223819:0:0:0:0:
192,192,223486,128,0,223819:0:0:0:0:
448,192,223819,1,0,0:0:0:0:
320,192,223903,1,0,0:0:0:0:
192,192,223986,1,0,0:0:0:0:
64,192,224069,1,0,0:0:0:0:
320,192,224153,128,0,224486:0:0:0:0:
448,192,224153,128,0,224486:0:0:0:0:
64,192,224486,1,0,0:0:0:0:
192,192,224569,1,0,0:0:0:0:
320,192,224653,1,0,0:0:0:0:
192,192,224736,1,0,0:0:0:0:
64,192,224819,1,2,0:0:0:0:
448,192,224819,1,0,0:0:0:0:
320,192,224986,1,0,0:0:0:0:
64,192,225153,1,0,0:0:0:0:
192,192,225153,1,0,0:0:0:0:
448,192,225236,1,0,0:0:0:0:
64,192,225319,1,0,0:0:0:0:
320,192,225319,1,0,0:0:0:0:
448,192,225403,1,0,0:0:0:0:
192,192,225486,1,0,0:0:0:0:
64,192,225486,1,0,0:0:0:0:
320,192,225653,1,0,0:0:0:0:
192,192,225819,1,0,0:0:0:0:
64,192,225819,1,0,0:0:0:0:
448,192,225903,1,0,0:0:0:0:
64,192,225986,1,0,0:0:0:0:
320,192,225986,1,0,0:0:0:0:
448,192,226069,1,0,0:0:0:0:
192,192,226153,1,0,0:0:0:0:
64,192,226153,1,0,0:0:0:0:
320,192,226319,1,0,0:0:0:0:
448,192,226319,1,0,0:0:0:0:
192,192,226403,1,0,0:0:0:0:
448,192,226486,1,0,0:0:0:0:
320,192,226486,1,0,0:0:0:0:
64,192,226569,1,0,0:0:0:0:
192,192,226653,1,0,0:0:0:0:
448,192,226653,1,0,0:0:0:0:
64,192,226736,1,0,0:0:0:0:
448,192,226819,1,0,0:0:0:0:
320,192,226819,1,0,0:0:0:0:
64,192,226986,1,0,0:0:0:0:
192,192,226986,1,0,0:0:0:0:
320,192,227153,1,0,0:0:0:0:
448,192,227153,1,0,0:0:0:0:
64,192,227319,1,0,0:0:0:0:
448,192,227319,1,0,0:0:0:0:
320,192,227319,1,0,0:0:0:0:
64,192,227486,1,0,0:0:0:0:
192,192,227486,1,0,0:0:0:0:
448,192,227486,1,0,0:0:0:0:
320,192,227819,1,0,0:0:0:0:
192,192,228153,1,0,0:0:0:0:
320,192,228465,1,0,0:0:0:0:
64,192,228861,1,0,0:0:0:0:
64,192,230153,1,0,0:0:0:0:
192,192,230507,1,0,0:0:0:0:
192,192,230819,1,0,0:0:0:0:
448,192,231153,1,0,0:0:0:0:
320,192,231542,1,0,0:0:0:0:
64,192,232819,1,0,0:0:0:0:
448,192,232819,1,0,0:0:0:0:
320,192,233174,1,0,0:0:0:0:
192,192,233528,1,0,0:0:0:0:
320,192,233819,1,0,0:0:0:0:
64,192,234208,1,0,0:0:0:0:
64,192,235486,1,0,0:0:0:0:
320,192,235486,1,0,0:0:0:0:
192,192,235847,1,0,0:0:0:0:
192,192,236194,1,0,0:0:0:0:
448,192,236528,1,0,0:0:0:0:
320,192,236958,1,0,0:0:0:0:
192,192,238153,1,0,0:0:0:0:
448,192,238153,1,0,0:0:0:0:
320,192,238542,1,0,0:0:0:0:
192,192,238819,1,0,0:0:0:0:
320,192,239153,1,0,0:0:0:0:
64,192,239486,1,0,0:0:0:0:
192,192,239597,1,0,0:0:0:0:
192,192,240819,1,0,0:0:0:0:
64,192,240819,1,0,0:0:0:0:
320,192,241132,1,0,0:0:0:0:
320,192,241507,1,0,0:0:0:0:
448,192,242174,1,0,0:0:0:0:
320,192,243486,1,0,0:0:0:0:
64,192,243486,1,0,0:0:0:0:
448,192,243819,1,0,0:0:0:0:
192,192,244194,1,0,0:0:0:0:
448,192,244486,1,0,0:0:0:0:
64,192,244819,1,0,0:0:0:0:
64,192,246153,1,0,0:0:0:0:
192,192,246153,1,0,0:0:0:0:
64,192,248819,1,0,0:0:0:0:
448,192,248819,1,0,0:0:0:0:
192,192,249153,1,0,0:0:0:0:
320,192,249319,1,0,0:0:0:0:
448,192,249486,1,0,0:0:0:0:
448,192,249819,1,0,0:0:0:0:
64,192,249819,1,0,0:0:0:0:
192,192,250153,1,0,0:0:0:0:
320,192,250319,1,0,0:0:0:0:
448,192,250486,1,0,0:0:0:0:
64,192,250486,1,0,0:0:0:0:
64,192,251486,1,0,0:0:0:0:
192,192,251486,1,0,0:0:0:0:
320,192,251653,1,0,0:0:0:0:
448,192,251819,1,0,0:0:0:0:
448,192,252153,1,0,0:0:0:0:
448,192,252486,1,0,0:0:0:0:
192,192,252819,1,0,0:0:0:0:
64,192,252819,1,0,0:0:0:0:
320,192,252986,1,0,0:0:0:0:
448,192,253153,1,0,0:0:0:0:
64,192,254153,1,0,0:0:0:0:
448,192,254153,1,0,0:0:0:0:
192,192,254486,1,0,0:0:0:0:
320,192,254653,1,0,0:0:0:0:
448,192,254819,1,0,0:0:0:0:
448,192,255153,1,0,0:0:0:0:
64,192,255153,1,0,0:0:0:0:
192,192,255486,1,0,0:0:0:0:
320,192,255653,1,0,0:0:0:0:
448,192,255819,1,0,0:0:0:0:
192,192,256819,1,0,0:0:0:0:
64,192,256819,1,0,0:0:0:0:
320,192,256986,1,0,0:0:0:0:
448,192,257153,1,0,0:0:0:0:
448,192,257486,1,0,0:0:0:0:
448,192,257819,1,0,0:0:0:0:
192,192,257819,1,0,0:0:0:0:
64,192,258153,1,0,0:0:0:0:
320,192,258319,1,0,0:0:0:0:
448,192,258486,1,0,0:0:0:0:
64,192,259486,1,0,0:0:0:0:
448,192,259486,1,0,0:0:0:0:
192,192,259819,1,0,0:0:0:0:
320,192,259986,1,0,0:0:0:0:
448,192,260153,1,0,0:0:0:0:
64,192,260153,1,0,0:0:0:0:
448,192,260486,1,0,0:0:0:0:
64,192,260486,1,0,0:0:0:0:
192,192,260819,1,0,0:0:0:0:
320,192,260986,1,0,0:0:0:0:
448,192,261153,1,0,0:0:0:0:
192,192,262153,1,0,0:0:0:0:
64,192,262153,1,0,0:0:0:0:
320,192,262319,1,0,0:0:0:0:
448,192,262486,1,0,0:0:0:0:
448,192,262819,1,0,0:0:0:0:
448,192,263153,1,0,0:0:0:0:
192,192,263153,1,0,0:0:0:0:
64,192,263486,1,0,0:0:0:0:
192,192,263486,1,0,0:0:0:0:
320,192,263653,1,0,0:0:0:0:
448,192,263819,1,0,0:0:0:0:
448,192,264819,1,0,0:0:0:0:
64,192,264819,1,0,0:0:0:0:
192,192,265153,1,0,0:0:0:0:
320,192,265319,1,0,0:0:0:0:
448,192,265486,1,0,0:0:0:0:
448,192,265819,1,0,0:0:0:0:
64,192,265819,1,0,0:0:0:0:
192,192,266153,1,0,0:0:0:0:
320,192,266319,1,0,0:0:0:0:
448,192,266486,1,0,0:0:0:0:
192,192,267486,1,0,0:0:0:0:
64,192,267486,1,0,0:0:0:0:
320,192,267653,1,0,0:0:0:0:
448,192,267819,1,0,0:0:0:0:
448,192,268153,1,0,0:0:0:0:
448,192,268486,1,0,0:0:0:0:
192,192,268486,1,0,0:0:0:0:
64,192,268819,1,0,0:0:0:0:
320,192,268986,1,0,0:0:0:0:
448,192,269153,1,0,0:0:0:0:
448,192,270153,1,0,0:0:0:0:
64,192,270153,1,0,0:0:0:0:
192,192,270486,1,0,0:0:0:0:
320,192,270653,1,0,0:0:0:0:
448,192,270819,1,0,0:0:0:0:
64,192,271153,1,0,0:0:0:0:
448,192,271153,1,0,0:0:0:0:
192,192,271486,1,0,0:0:0:0:
320,192,271653,1,0,0:0:0:0:
448,192,271819,1,0,0:0:0:0:
64,192,271819,1,0,0:0:0:0:
64,192,272819,1,0,0:0:0:0:
320,192,272986,1,0,0:0:0:0:
448,192,273153,1,0,0:0:0:0:
448,192,273486,1,0,0:0:0:0:
448,192,273819,1,0,0:0:0:0:
192,192,273819,1,0,0:0:0:0:
64,192,274153,1,0,0:0:0:0:
320,192,274319,1,0,0:0:0:0:
448,192,274486,1,0,0:0:0:0:
64,192,275486,1,0,0:0:0:0:
