osu file format v14

[General]
AudioFilename: audio.mp3
AudioLeadIn: 0
PreviewTime: 59927
Countdown: 0
SampleSet: Soft
StackLeniency: 0.7
Mode: 0
LetterboxInBreaks: 0
WidescreenStoryboard: 1

[Editor]
DistanceSpacing: 1
BeatDivisor: 2
GridSize: 4
TimelineZoom: 2.1

[Metadata]
Title:disillusion (TV Size)
TitleUnicode:disillusion(TVサイズ)
Artist:Tainaka Sachi
ArtistUnicode:タイナカサチ
Creator:Ora
Version:Normal
Source:Fate/stay night
Tags:Kenji Kawai opening Tainaka Sachi ora
BeatmapID:1088034
BeatmapSetID:511881

[Difficulty]
HPDrainRate:4
CircleSize:3.5
OverallDifficulty:4
ApproachRate:5
SliderMultiplier:0.999999999999999
SliderTickRate:1

[Events]
//Background and Video events
Video,1734,"video.mp4"
0,0,"687474703a2f2f692e696d6775722e636f6d2f41596b6e62684a2e6a7067.jpg",0,0
//Break Periods
//Storyboard Layer 0 (Background)
//Storyboard Layer 1 (Fail)
//Storyboard Layer 2 (Pass)
//Storyboard Layer 3 (Foreground)
//Storyboard Sound Samples

[TimingPoints]
7428,357.142857142857,4,2,1,40,1,0
60285,-90.9090909090909,4,2,1,40,0,1
70999,-90.9090909090909,4,2,1,40,0,0
71713,-90.9090909090909,4,2,1,40,0,1
82785,-90.9090909090909,4,2,1,40,0,0

[HitObjects]
216,276,8856,5,0,0:0:0:0:
358,324,9392,2,0,L|373:160,1,150
299,106,10284,2,0,P|248:115|194:100,1,99.9999999999999
115,53,10999,2,0,P|64:44|15:55,1,99.9999999999999,0|8,0:0|0:0,0:0:0:0:
66,140,11713,6,0,B|81:192|81:192|60:285,2,150
166,134,13142,2,0,P|216:133|264:149,1,99.9999999999999
296,243,13856,2,0,P|343:258|392:257,1,99.9999999999999
441,244,14392,1,0,0:0:0:0:
483,218,14570,6,0,P|497:170|495:117,1,99.9999999999999
481,72,15106,2,0,B|411:54|411:54|333:74,1,150
255,133,15999,2,0,P|235:201|270:312,2,150,0|0|8,0:0|0:0|0:0,0:0:0:0:
156,138,17427,6,0,P|100:139|55:119,1,99.9999999999999
22,89,17963,2,0,L|31:251,1,150
39,338,18856,2,0,P|83:335|136:309,1,99.9999999999999
205,242,19570,2,0,P|249:245|302:271,1,99.9999999999999,0|8,0:0|0:0,0:0:0:0:
371,336,20284,6,0,P|433:332|477:268,1,99.9999999999999
482,263,20820,2,0,B|494:230|489:201|489:201|441:159|473:76,1,150
396,46,21713,2,0,P|368:86|362:136,1,99.9999999999999
297,212,22427,2,0,P|269:171|263:121,1,99.9999999999999,0|8,0:0|0:0,0:0:0:0:
188,55,23141,6,0,L|67:66,1,99.9999999999999
53,100,23677,2,0,B|62:150|24:178|24:178|19:207|31:240,1,150
127,213,24570,2,0,P|200:215|241:242,1,99.9999999999999
285,149,25284,2,0,P|319:213|316:262,1,99.9999999999999,0|8,0:0|0:0,0:0:0:0:
297,336,25999,6,0,P|242:327|174:337,1,99.9999999999999
148,335,26534,2,0,P|104:285|158:211,1,150,0|8,0:0|0:0,0:0:0:0:
226,173,27427,6,0,P|281:164|349:174,1,99.9999999999999
375,172,27962,2,0,P|419:122|365:48,1,150,0|8,0:0|0:0,0:0:0:0:
285,60,28856,6,0,L|153:49,1,99.9999999999999
153,90,29391,2,0,L|52:97,1,99.9999999999999
21,135,29927,1,0,0:0:0:0:
34,234,30285,2,0,L|42:297,1,50
78,375,30820,2,0,P|114:341|135:296,1,99.9999999999999
146,247,31356,1,0,0:0:0:0:
245,251,31713,6,0,P|306:251|357:229,1,99.9999999999999
367,195,32249,2,0,P|336:140|292:108,1,99.9999999999999
259,120,32784,2,0,P|227:172|221:226,1,99.9999999999999
245,251,33320,2,0,P|306:251|357:229,1,99.9999999999999,12|0,0:0|0:0,0:0:0:0:
382,209,33856,2,0,L|404:146,1,50
386,113,34213,2,0,L|364:50,1,50
410,36,34570,6,0,P|340:30|284:44,1,99.9999999999999
265,56,35106,2,0,P|190:71|109:56,1,150,0|8,0:0|0:0,0:0:0:0:
23,55,35999,2,0,P|14:125|28:193,1,99.9999999999999
29,202,36534,2,0,P|104:217|185:202,1,150,0|8,0:0|0:0,0:0:0:0:
267,212,37427,6,0,B|278:268|278:268|249:366,2,150,0|0|8,0:0|0:0|0:0,0:0:0:0:
353,157,38856,2,0,L|369:91,2,50
352,206,39391,2,0,P|377:273|456:308,1,150,0|8,0:0|0:0,0:0:0:0:
451,207,40284,6,0,L|462:76,1,99.9999999999999
459,57,40820,2,0,B|419:42|387:54|387:54|346:69|311:58,1,150,0|8,0:0|0:0,0:0:0:0:
216,87,41713,2,0,P|211:62|212:37,2,50
237,132,42249,2,0,B|252:172|240:204|240:204|225:245|236:280,1,150,0|8,0:0|0:0,0:0:0:0:
292,360,43141,6,0,B|347:368|347:368|416:351,1,99.9999999999999
434,334,43677,2,0,B|451:281|451:281|439:179,1,150,0|8,0:0|0:0,0:0:0:0:
342,162,44570,2,0,P|282:167|237:187,1,99.9999999999999
152,219,45285,2,0,P|94:202|53:175,1,99.9999999999999,0|8,0:0|0:0,0:0:0:0:
94,87,45999,6,0,P|146:49|235:103,2,150,0|0|8,0:0|0:0|0:0,0:0:0:0:
150,171,47427,2,0,P|159:147|161:122,2,50
127,215,47963,2,0,P|108:307|140:365,1,150,0|8,0:0|0:0,0:0:0:0:
202,284,48856,6,0,P|283:294|269:361,1,150
396,250,49927,1,8,0:0:0:0:
477,307,50284,2,0,P|486:327|492:363,2,50
491,259,50820,2,0,P|468:180|390:153,1,150,0|8,0:0|0:0,0:0:0:0:
396,250,51713,6,0,P|332:253|276:208,1,99.9999999999999
265,202,52249,2,0,L|246:52,1,150,0|8,0:0|0:0,0:0:0:0:
173,122,53141,2,0,L|193:286,2,150,0|0|8,0:0|0:0|0:0,0:0:0:0:
108,46,54570,6,0,P|42:78|23:97,1,99.9999999999999
18,151,55106,2,0,P|83:183|112:272,1,150
197,304,55999,2,0,B|249:309|249:309|282:297|322:261,1,99.9999999999999
329,255,56535,1,0,0:0:0:0:
371,228,56713,2,0,B|380:218|414:209|414:209|466:218,2,99.9999999999999
316,146,57784,5,12,0:0:0:0:
165,146,58320,1,8,0:0:0:0:
165,296,58856,1,8,0:0:0:0:
165,296,59927,5,0,0:0:0:0:
243,234,60284,6,0,P|308:242|356:268,1,99.9999999999999,4|8,0:0|0:0,0:0:0:0:
385,287,60820,2,0,B|422:312|422:312|470:309|479:250,1,110.000003356934
484,222,61356,2,0,P|484:183|474:147,1,55.0000016784668,8|0,0:0|0:0,0:0:0:0:
455,118,61713,2,0,B|411:109|411:109|379:73|414:25,1,110.000003356934,0|8,0:0|0:0,0:0:0:0:
337,138,62427,2,0,P|320:77|330:17,1,110.000003356934,0|8,0:0|0:0,0:0:0:0:
215,39,63142,6,0,P|211:99|226:145,1,110.000003356934,0|8,0:0|0:0,0:0:0:0:
248,195,63677,2,0,B|265:240|265:240|246:323,1,110.000003356934
223,347,64213,1,8,0:0:0:0:
116,319,64570,2,0,P|113:358|121:389,2,55.0000016784668,0|0|8,0:0|0:0|0:0,0:0:0:0:
148,214,65284,2,0,P|148:175|137:140,2,55.0000016784668,0|0|8,0:0|0:0|0:0,0:0:0:0:
240,153,65999,6,0,P|310:166|347:192,1,110.000003356934,0|8,0:0|0:0,0:0:0:0:
381,224,66534,2,0,B|438:243|438:243|523:216,1,110.000003356934
492,173,67070,2,0,P|489:127|483:98,1,55.0000016784668,8|0,0:0|0:0,0:0:0:0:
469,66,67427,2,0,L|348:49,1,110.000003356934,0|8,0:0|0:0,0:0:0:0:
269,113,68142,2,0,L|148:130,1,110.000003356934,0|8,0:0|0:0,0:0:0:0:
65,72,68856,6,0,L|76:183,1,110.000003356934,0|8,0:0|0:0,0:0:0:0:
84,235,69391,2,0,B|89:260|129:277|129:277|166:258|220:279,1,110.000003356934
228,281,69927,1,8,0:0:0:0:
303,361,70285,2,0,P|348:369|424:358,1,110.000003356934
457,331,70820,2,0,B|488:275|454:167,1,165.0000050354
403,72,71713,6,0,P|339:83|275:77,1,110.000003356934,4|8,0:0|0:0,0:0:0:0:
241,65,72249,2,0,P|177:54|113:60,1,110.000003356934
80,73,72784,2,0,P|47:86|23:107,1,55.0000016784668,8|0,0:0|0:0,0:0:0:0:
26,152,73142,2,0,P|80:162|122:204,1,110.000003356934,0|8,0:0|0:0,0:0:0:0:
118,308,73856,2,0,P|172:298|214:256,1,110.000003356934,0|8,0:0|0:0,0:0:0:0:
315,228,74570,6,0,P|285:176|235:153,1,110.000003356934,0|8,0:0|0:0,0:0:0:0:
186,149,75106,2,0,P|173:95|196:37,1,110.000003356934
240,22,75642,1,8,0:0:0:0:
337,72,75999,2,0,P|347:43|349:10,2,55.0000016784668,0|0|8,0:0|0:0|0:0,0:0:0:0:
427,133,76713,2,0,P|457:127|486:112,2,55.0000016784668,0|0|8,0:0|0:0|0:0,0:0:0:0:
326,177,77427,6,0,P|301:236|308:302,1,110.000003356934,0|8,0:0|0:0,0:0:0:0:
313,335,77963,2,0,B|256:353|256:353|185:342,1,110.000003356934
160,332,78499,1,8,0:0:0:0:
51,347,78856,2,0,L|66:233,1,110.000003356934,0|8,0:0|0:0,0:0:0:0:
110,137,79570,2,0,L|95:22,1,110.000003356934,0|8,0:0|0:0,0:0:0:0:
198,68,80284,6,0,P|264:78|338:64,1,110.000003356934,0|8,0:0|0:0,0:0:0:0:
359,58,80820,2,0,B|375:114|375:114|359:186,1,110.000003356934
346,217,81356,1,8,0:0:0:0:
325,267,81534,2,0,L|205:279,1,110.000003356934
171,244,82070,2,0,P|152:209|149:176,1,55.0000016784668,8|0,0:0|0:0,0:0:0:0:
197,168,82427,2,0,P|216:133|219:100,1,55.0000016784668
220,62,82785,1,8,0:0:0:0:
326,89,83141,6,0,P|328:142|303:203,1,110.000003356934,4|8,0:0|0:0,0:0:0:0:
273,236,83677,2,0,B|267:255|276:280|276:280|303:295|331:338,1,110.000003356934
346,374,84213,1,8,0:0:0:0:
400,368,84392,2,0,P|450:335|465:279,1,110.000003356934
464,234,84927,2,8,L|445:107,2,110.000003356934
368,178,85999,5,0,0:0:0:0:
206,143,86534,2,0,B|174:166|159:201|159:201|169:225|168:261|144:286|144:286|184:278|224:240,1,220.000006713867
87,233,87606,1,0,0:0:0:0:
87,233,87784,2,0,P|72:200|67:172,1,55.0000016784668,8|0,0:0|0:0,0:0:0:0:
76,127,88141,2,8,P|103:105|130:93,2,55.0000016784668,8|8|0,0:0|0:0|0:0,0:0:0:0:
22,116,88677,5,8,0:0:0:0:
