osu file format v14

[General]
AudioFilename: audio.mp3
AudioLeadIn: 0
PreviewTime: 74246
Countdown: 0
SampleSet: Soft
StackLeniency: 0.7
Mode: 0
LetterboxInBreaks: 0
WidescreenStoryboard: 0

[Editor]
Bookmarks: 23175,48889,74604,100318,126032,151746,173710,177460,200318,200496,200675,200853,201032,201121,201478,201657,201835,202014,202193,202371,202550,202728,202907,203085,203264,203443,203621,203800,203889,204068,204246,204425,204603,204782,204960,205139,205318,205496,205675,205853,206032,206210,206389,206568,206746,206925,207193,207371,207550,207728,207907,208085,208264,208443,208710,208889,209068,209246,209514,209693,209960,210139,210318,210496,210585,236032
DistanceSpacing: 1.9
BeatDivisor: 4
GridSize: 32
TimelineZoom: 1.8

[Metadata]
Title:disillusion
TitleUnicode:disillusion
Artist:Tainaka Sachi
ArtistUnicode:タイナカサチ
Creator:Cami
Version:Grail
Source:Fate/Stay Night
Tags:fsn opening full version anime
BeatmapID:1975790
BeatmapSetID:945965

[Difficulty]
HPDrainRate:5
CircleSize:4
OverallDifficulty:6
ApproachRate:8
SliderMultiplier:1.1
SliderTickRate:1

[Events]
//Background and Video events
0,0,"Konachan.com - 7564 artoria_pendragon_(all) fate_(series) fate_stay_night saber type-moon.jpg",0,0
//Break Periods
2,200517,210460
//Storyboard Layer 0 (Background)
//Storyboard Layer 1 (Fail)
//Storyboard Layer 2 (Pass)
//Storyboard Layer 3 (Foreground)
//Storyboard Sound Samples

[TimingPoints]
318,357.142857142857,4,2,1,50,1,0
22818,-142.857142857143,4,2,1,50,0,0
23175,-100,4,2,1,50,0,0
48175,-125,4,2,1,50,0,0
48353,-125,4,2,1,40,0,0
69425,-111.111111111111,4,2,1,40,0,0
72103,-95.2380952380952,4,2,1,55,0,0
74603,-86.9565217391304,4,2,1,65,0,1
76300,-86.9565217391304,4,2,1,5,0,1
76389,-86.9565217391304,4,2,1,65,0,1
87728,-86.9565217391304,4,2,1,5,0,1
87817,-86.9565217391304,4,2,1,65,0,1
93442,-86.9565217391304,4,2,1,5,0,1
93532,-86.9565217391304,4,2,1,65,0,1
100317,-100,4,2,1,50,0,0
101121,-200,4,2,1,50,0,0
103532,-133.333333333333,4,2,1,50,0,0
103889,-153.846153846153,4,2,1,50,0,0
105317,-125,4,2,1,50,0,0
107460,-136.986301369863,4,2,1,50,0,0
108889,-125,4,2,1,50,0,0
111121,-100,4,2,1,50,0,0
111746,-111.111111111111,4,2,1,50,0,0
112460,-125,4,2,1,50,0,0
112817,-142.857142857143,4,2,1,50,0,0
113175,-166.666666666667,4,2,1,50,0,0
113889,-150.15015015015,4,2,1,50,0,0
114246,-130.548302872063,4,2,1,50,0,0
114603,-115.473441108545,4,2,1,50,0,0
116032,-130.548302872063,4,2,1,50,0,0
119603,-100,4,2,1,50,0,0
119960,-125,4,2,1,50,0,0
120317,-111.111111111111,4,2,1,50,0,0
122460,-125,4,2,1,50,0,0
123175,-113.636363636364,4,2,1,50,0,0
124603,-113.636363636364,4,2,1,5,0,0
125675,-113.636363636364,4,2,1,50,0,0
126032,-100,4,2,1,50,0,0
151032,-125,4,2,1,50,0,0
151210,-125,4,2,1,40,0,0
172282,-111.111111111111,4,2,1,40,0,0
174960,-95.2380952380952,4,2,1,40,0,0
177460,-86.9565217391304,4,2,1,65,0,1
179157,-86.9565217391304,4,2,1,5,0,1
179246,-86.9565217391304,4,2,1,65,0,1
190585,-86.9565217391304,4,2,1,5,0,1
190675,-86.9565217391304,4,2,1,65,0,1
200317,-100,4,2,1,50,0,0
211746,-83.3333333333333,4,2,1,70,0,1
213442,-83.3333333333333,4,2,1,5,0,1
213532,-83.3333333333333,4,2,1,70,0,1
223175,-100,4,2,1,57,0,0
228889,-90.9090909090909,4,2,1,57,0,0

[Colours]
Combo1 : 181,181,181
Combo2 : 225,200,162
Combo3 : 138,145,179
Combo4 : 255,182,91

[HitObjects]
256,192,14603,12,0,22460,0:0:0:0:
170,282,22818,6,0,L|167:233,1,38.4999988250733,2|0,0:0|0:0,0:0:0:0:
98,160,23175,6,0,P|154:161|192:111,1,110,2|8,1:2|0:0,0:0:0:0:
273,101,23710,2,0,P|310:62|363:64,1,110,2|8,1:2|0:0,0:0:0:0:
361,205,24246,2,0,P|347:158|343:131,1,55,2|0,0:1|1:0,0:0:0:0:
283,241,24603,6,0,P|340:249|363:298,1,110,2|0,1:2|0:0,0:0:0:0:
306,352,25139,1,2,1:2:0:0:
306,352,25318,2,0,P|272:335|257:309,1,55,8|0,0:0|0:0,0:0:0:0:
178,200,25675,2,0,L|173:273,1,55,8|0,0:1|1:0,0:0:0:0:
75,282,26032,6,0,P|94:243|51:174,1,110,2|8,1:2|1:2,0:0:0:0:
17,124,26568,2,0,P|79:139|133:133,1,110,2|8,1:2|0:0,0:0:0:0:
259,58,27103,2,0,P|275:25|286:9,1,55,2|0,0:1|1:0,0:0:0:0:
414,43,27460,6,0,P|375:44|336:118,1,110,2|0,1:2|0:0,0:0:0:0:
401,181,27996,2,0,L|411:122,2,55,2|0|0,1:2|1:0|0:0,0:0:0:0:
273,299,28532,2,0,L|263:240,1,55,8|0,0:1|1:0,0:0:0:0:
329,202,28889,6,0,P|273:201|223:178,1,110,2|2,1:2|0:3,0:0:0:0:
168,276,29425,2,0,P|224:277|274:300,1,110,2|8,1:2|0:0,0:0:0:0:
336,348,29960,2,0,P|368:356|401:352,1,55,2|0,0:0|1:0,0:0:0:0:
474,310,30317,6,0,P|498:264|481:205,1,110,2|2,1:2|0:3,0:0:0:0:
456,132,30853,2,0,P|418:147|345:124,1,110,2|0,1:2|0:0,0:0:0:0:
198,40,31389,2,0,L|186:114,1,55,8|0,0:1|1:0,0:0:0:0:
125,157,31746,6,0,P|90:165|45:246,1,110,2|2,1:2|1:3,0:0:0:0:
122,306,32282,2,0,P|157:298|202:217,1,110,2|10,1:2|0:0,0:0:0:0:
213,159,32817,2,0,P|241:138|278:138,1,55,2|0,0:0|1:0,0:0:0:0:
336,175,33175,6,0,L|325:252,1,55,2|0,1:2|1:0,0:0:0:0:
264,277,33532,2,0,L|275:354,1,55,2|0,0:2|1:0,0:0:0:0:
337,374,33889,2,0,P|349:348|341:305,1,55,2|0,1:2|0:0,0:0:0:0:
443,142,34246,2,0,L|439:215,1,55,8|0,0:1|1:0,0:0:0:0:
335,244,34603,6,0,B|398:238|381:278|452:274,1,110,2|8,1:2|0:0,0:0:0:0:
511,231,35139,2,0,P|485:278|509:325,1,110,2|8,1:2|0:0,0:0:0:0:
380,373,35675,2,0,P|368:348|352:325,1,55,2|0,0:1|1:0,0:0:0:0:
253,273,36032,6,0,B|185:268|210:301|143:309,1,110,2|0,1:2|0:0,0:0:0:0:
79,267,36567,1,2,1:2:0:0:
79,267,36746,2,0,P|98:245|135:235,1,55,0|0,1:0|0:0,0:0:0:0:
255,124,37103,2,0,L|265:179,1,55,8|0,0:1|1:0,0:0:0:0:
336,233,37460,6,0,P|347:172|359:117,1,110,2|8,1:2|0:0,0:0:0:0:
368,49,37996,2,0,P|382:95|455:118,1,110,2|8,1:2|0:0,0:0:0:0:
495,235,38532,2,0,P|450:241|429:250,1,55,2|0,0:1|1:0,0:0:0:0:
370,289,38889,6,0,P|333:324|263:320,1,110,2|8,1:2|0:0,0:0:0:0:
233,264,39425,1,2,1:2:0:0:
233,264,39603,2,0,P|262:247|290:249,1,55,0|0,1:2|0:0,0:0:0:0:
148,124,39960,2,0,L|142:199,1,55,8|0,0:1|1:0,0:0:0:0:
170,310,40317,6,0,P|142:264|91:247,1,110,2|2,1:2|0:3,0:0:0:0:
143,178,40853,2,0,L|253:168,1,110,2|8,1:2|0:0,0:0:0:0:
392,84,41389,2,0,L|382:156,1,55,8|0,0:1|1:0,0:0:0:0:
468,180,41746,6,0,P|469:123|490:68,1,110,2|2,1:2|0:3,0:0:0:0:
311,36,42282,2,0,P|310:93|289:148,1,110,2|0,1:2|0:0,0:0:0:0:
142,43,42817,6,0,L|152:115,1,55,8|0,0:1|1:0,0:0:0:0:
108,166,43175,6,0,P|153:142|223:160,1,110,2|2,1:2|1:3,0:0:0:0:
144,258,43710,2,0,P|90:267|42:242,1,110,2|2,1:2|1:2,0:0:0:0:
230,237,44246,6,0,L|220:309,1,55,8|0,0:1|1:0,0:0:0:0:
388,244,44603,5,8,0:1:0:0:
373,168,44782,1,2,1:2:0:0:
358,92,44960,2,0,P|304:113|235:104,1,110,2|8,1:1|0:0,0:0:0:0:
194,55,45496,1,2,1:2:0:0:
88,128,45675,6,0,L|101:191,1,55,8|8,0:1|0:0,0:0:0:0:
209,329,46032,6,0,P|175:292|110:265,1,110,2|2,1:0|0:3,0:0:0:0:
290,275,46567,2,0,P|322:228|368:189,1,110,2|2,1:0|0:3,0:0:0:0:
226,201,47103,2,0,P|220:127|201:72,1,110,6|2,1:0|1:3,0:0:0:0:
256,32,47639,5,6,0:0:0:0:
369,149,47996,5,8,0:1:0:0:
369,149,48085,1,8,0:1:0:0:
369,149,48175,2,0,L|359:206,1,44,8|4,0:1|0:3,0:0:0:0:
297,239,48532,2,0,L|289:282,1,44,4|8,0:3|0:1,0:0:0:0:
286,294,48800,1,8,0:1:0:0:
283,304,48889,6,0,P|218:296|152:324,1,132,4|2,1:0|1:2,0:0:0:0:
228,151,49960,2,0,L|221:212,1,44,8|0,0:1|0:0,0:0:0:0:
134,236,50317,6,0,P|144:179|143:102,1,132,2|2,1:2|1:2,0:0:0:0:
11,225,51389,2,0,L|18:286,1,44,8|0,0:1|0:0,0:0:0:0:
75,322,51746,6,0,B|156:310|133:351|218:349,1,132,2|2,1:2|1:2,0:0:0:0:
346,242,52817,2,0,L|359:198,1,44,8|0,0:1|0:0,0:0:0:0:
283,146,53175,6,0,P|281:167|282:194,2,44,2|0|2,1:2|1:0|0:0,0:0:0:0:
298,45,53710,2,0,P|271:61|215:52,1,88,2|0,1:0|0:0,0:0:0:0:
89,106,54246,2,0,P|87:132|92:159,1,44,10|0,0:1|1:0,0:0:0:0:
151,206,54603,6,0,P|248:192|302:189,1,132,2|2,1:2|1:2,0:0:0:0:
466,259,55675,2,0,L|463:312,1,44,10|0,0:1|1:0,0:0:0:0:
401,354,56032,6,0,B|330:336|366:304|280:286,1,132,2|2,1:2|1:2,0:0:0:0:
406,132,57103,2,0,L|416:188,1,44,8|0,0:1|0:0,0:0:0:0:
357,231,57460,5,2,1:2:0:0:
267,132,57996,1,2,1:2:0:0:
178,34,58532,2,0,L|162:92,1,44,8|0,0:1|0:0,0:0:0:0:
107,128,58889,6,0,P|164:125|241:125,1,132,2|0,1:3|1:0,0:0:0:0:
297,178,59603,1,2,0:3:0:0:
129,232,59960,2,0,L|134:287,1,44,8|0,0:1|0:0,0:0:0:0:
205,329,60317,6,0,B|282:334|252:364|332:379,1,132,2|2,1:2|1:2,0:0:0:0:
374,208,61389,2,0,L|366:262,1,44,8|0,0:1|0:0,0:0:0:0:
441,166,61746,6,0,P|411:126|326:128,1,132,2|2,1:2|1:2,0:0:0:0:
178,55,62817,2,0,L|168:109,1,44,8|0,0:1|0:0,0:0:0:0:
120,153,63175,6,0,P|193:140|251:103,1,132,2|2,1:2|1:2,0:0:0:0:
63,90,64246,2,0,L|36:140,1,44,8|0,0:1|0:0,0:0:0:0:
99,191,64603,6,0,L|119:152,2,44,2|0|2,1:2|1:2|0:0,0:0:0:0:
154,261,65139,2,0,P|208:240|253:251,1,88,2|0,1:0|0:0,0:0:0:0:
361,150,65675,2,0,P|349:179|344:199,1,44,10|0,0:1|0:0,0:0:0:0:
320,257,66032,6,0,B|319:183|284:210|286:126,1,132,2|2,1:2|1:2,0:0:0:0:
467,13,67103,2,0,P|481:40|489:67,1,44,8|0,0:1|1:0,0:0:0:0:
424,94,67460,6,0,P|354:76|319:70,1,88,2|0,1:2|0:0,0:0:0:0:
250,25,67996,2,0,P|244:67|191:98,1,88,2|0,1:2|0:0,0:0:0:0:
52,84,68532,2,0,P|61:121|65:144,1,44,8|0,0:1|1:0,0:0:0:0:
90,218,68889,6,0,P|113:188|172:178,1,88,2|0,1:3|0:0,0:0:0:0:
219,265,69425,2,0,P|196:295|137:305,1,98.9999969787599,2|0,1:3|0:0,0:0:0:0:
159,175,69960,2,0,P|150:212|151:237,1,49.4999984893799,8|0,0:1|1:0,0:0:0:0:
288,204,70317,6,0,P|271:151|221:133,1,98.9999969787599,2|0,1:0|0:0,0:0:0:0:
303,76,70853,2,0,P|344:78|410:69,1,98.9999969787599,2|0,1:2|0:0,0:0:0:0:
493,183,71389,2,0,P|482:227|479:252,1,49.4999984893799,8|0,0:1|1:0,0:0:0:0:
424,286,71746,5,2,1:2:0:0:
205,348,72103,6,0,P|184:299|124:259,1,115.49999647522,2|0,1:0|1:0,0:0:0:0:
286,290,72639,2,0,P|312:227|347:174,1,115.49999647522,6|0,1:0|0:0,0:0:0:0:
256,64,73175,5,6,1:2:0:0:
256,64,73264,1,8,0:1:0:0:
195,130,73442,1,8,0:1:0:0:
195,130,73532,2,0,L|202:166,1,28.874999118805,8|8,0:3|0:3,0:0:0:0:
92,60,73800,5,4,0:3:0:0:
92,60,73889,2,0,L|82:100,1,28.874999118805,4|8,0:3|0:3,0:0:0:0:
26,149,74157,5,4,0:3:0:0:
26,149,74246,2,0,L|36:189,1,28.874999118805,8|8,0:3|0:3,0:0:0:0:
64,269,74425,1,4,0:3:0:0:
64,269,74514,1,4,0:3:0:0:
64,269,74603,6,0,P|107:249|200:262,1,126.500002412796,6|8,1:2|0:1,0:0:0:0:
279,290,75139,2,0,P|264:195|258:151,1,126.500002412796,0|2,1:2|1:3,0:0:0:0:
359,75,75675,2,0,P|352:136|353:154,1,63.250001206398,8|8,0:1|0:3,0:0:0:0:
451,230,76032,6,0,P|418:237|371:296,1,94.8750018095971,2|0,1:2|0:0,0:0:0:0:
368,309,76389,2,0,P|379:351|384:380,1,63.250001206398,8|0,0:1|1:0,0:0:0:0:
279,290,76746,2,0,B|206:268|216:304|145:293,1,126.500002412796,2|8,0:0|0:1,0:0:0:0:
170,221,77282,1,0,1:0:0:0:
73,338,77460,6,0,P|69:300|48:240,1,94.8750018095971,2|2,1:2|0:0,0:0:0:0:
24,229,77817,1,8,0:1:0:0:
113,175,77996,2,0,P|122:214|156:298,1,126.500002412796,0|2,1:0|1:3,0:0:0:0:
256,192,78532,1,8,0:1:0:0:
313,248,78710,6,0,P|352:253|424:188,1,126.500002412796,2|0,1:3|1:0,0:0:0:0:
512,116,79246,2,0,P|506:163|507:207,1,63.250001206398,8|0,0:1|1:0,0:0:0:0:
309,116,79603,2,0,P|329:151|340:180,1,63.250001206398,2|0,1:2|0:0,0:0:0:0:
455,44,79960,2,0,P|439:79|428:118,1,63.250001206398,8|8,0:1|0:3,0:0:0:0:
418,203,80317,6,0,P|439:242|427:329,1,126.500002412796,2|10,1:2|0:1,0:0:0:0:
314,340,80853,2,0,P|293:301|305:214,1,126.500002412796,0|2,1:2|1:3,0:0:0:0:
165,130,81389,2,0,P|188:184|202:204,1,63.250001206398,8|8,0:1|0:3,0:0:0:0:
217,73,81746,6,0,P|170:92|74:95,1,126.500002412796,0|8,1:0|0:1,0:0:0:0:
30,64,82282,1,0,1:0:0:0:
36,160,82460,2,0,P|75:174|117:181,1,63.250001206398,2|0,0:0|0:0,0:0:0:0:
231,241,82817,1,8,0:1:0:0:
178,293,82996,6,0,P|185:240|184:153,1,126.500002412796,2|2,1:2|0:0,0:0:0:0:
330,88,83532,1,10,0:1:0:0:
326,167,83710,2,0,P|326:230|334:293,1,126.500002412796,0|2,1:2|1:2,0:0:0:0:
492,213,84246,1,8,0:1:0:0:
474,287,84425,6,0,P|417:256|406:185,1,126.500002412796,2|2,1:2|1:2,0:0:0:0:
328,50,84960,2,0,P|298:84|272:104,1,63.250001206398,4|0,1:0|0:0,0:0:0:0:
204,152,85317,2,0,P|221:159|233:172,2,31.625000603199,8|8|8,0:3|0:3|0:3,0:0:0:0:
317,202,85675,1,8,0:1:0:0:
315,186,85764,1,8,0:1:0:0:
318,171,85853,1,8,0:1:0:0:
407,279,86032,6,0,B|364:271|364:271|334:286|334:286|282:279,1,126.500002412796,6|10,1:2|0:1,0:0:0:0:
203,352,86567,2,0,P|283:364|331:376,1,126.500002412796,0|2,1:2|1:3,0:0:0:0:
123,290,87103,2,0,L|112:362,1,63.250001206398,8|8,0:1|0:3,0:0:0:0:
75,200,87460,6,0,P|121:199|163:177,1,94.8750018095971,2|0,1:2|0:0,0:0:0:0:
191,189,87817,2,0,L|202:261,1,63.250001206398,8|0,0:1|1:0,0:0:0:0:
287,290,88175,2,0,P|296:235|321:150,1,126.500002412796,2|8,1:2|0:1,0:0:0:0:
378,216,88710,1,8,0:3:0:0:
464,151,88889,6,0,P|484:207|494:260,1,94.8750018095971,2|2,1:2|0:0,0:0:0:0:
482,269,89246,2,0,B|409:261|437:304|352:293,1,126.500002412796,8|0,0:1|0:0,0:0:0:0:
287,290,89782,1,2,1:3:0:0:
242,132,89960,1,8,0:1:0:0:
190,189,90139,6,0,P|138:173|55:156,1,126.500002412796,2|2,1:2|1:2,0:0:0:0:
174,65,90675,2,0,P|225:52|262:36,1,63.250001206398,8|0,0:1|0:0,0:0:0:0:
297,161,91032,2,0,P|270:144|241:131,1,63.250001206398,2|0,0:0|0:0,0:0:0:0:
442,35,91389,2,0,L|433:112,1,63.250001206398,8|8,0:1|0:3,0:0:0:0:
491,163,91746,6,0,P|453:141|364:157,1,126.500002412796,2|8,1:2|0:1,0:0:0:0:
359,279,92282,2,0,P|397:301|486:285,1,126.500002412796,0|2,1:2|1:3,0:0:0:0:
293,215,92817,2,0,P|284:249|273:299,1,63.250001206398,8|8,0:1|0:3,0:0:0:0:
161,336,93175,6,0,P|154:270|142:231,1,94.8750018095971,2|0,1:2|0:0,0:0:0:0:
119,226,93532,2,0,P|76:208|54:195,1,63.250001206398,8|0,0:1|1:0,0:0:0:0:
220,152,93889,2,0,P|262:144|301:130,1,63.250001206398,2|0,1:2|0:0,0:0:0:0:
128,79,94246,2,0,L|115:154,1,63.250001206398,8|8,0:1|0:3,0:0:0:0:
220,152,94603,6,0,P|232:83|253:6,1,126.500002412796,2|8,1:2|0:1,0:0:0:0:
386,57,95139,2,0,P|374:126|353:203,1,126.500002412796,0|0,1:2|1:0,0:0:0:0:
293,322,95675,1,8,0:1:0:0:
260,246,95853,6,0,B|324:228|318:277|393:259,1,126.500002412796,2|0,1:2|1:0,0:0:0:0:
477,177,96389,2,0,L|493:258,1,63.250001206398,8|0,0:1|1:0,0:0:0:0:
394,323,96746,2,0,L|381:260,1,63.250001206398,0|0,1:2|0:0,0:0:0:0:
285,149,97103,1,8,0:1:0:0:
255,137,97192,1,2,0:0:0:0:
224,138,97281,1,8,0:3:0:0:
196,153,97370,1,4,0:3:0:0:
177,178,97460,6,0,B|170:232|170:232|176:257|176:257|168:316,1,126.500002412796,6|8,1:2|0:1,0:0:0:0:
85,246,97996,2,0,P|95:182|104:114,1,126.500002412796,0|2,1:0|1:3,0:0:0:0:
214,40,98532,1,8,0:1:0:0:
125,49,98710,6,0,P|137:88|218:131,1,126.500002412796,6|0,1:2|1:0,0:0:0:0:
352,149,99246,5,8,1:0:0:0:
320,153,99335,1,2,0:0:0:0:
292,166,99424,1,2,0:0:0:0:
268,187,99513,1,2,0:0:0:0:
251,214,99603,5,8,0:1:0:0:
272,225,99692,1,2,0:0:0:0:
291,239,99781,1,8,0:1:0:0:
308,256,99870,1,2,0:0:0:0:
321,275,99960,6,0,P|320:306|314:319,3,31.625000603199,8|2|8|2,0:1|0:0|0:3|0:0,0:0:0:0:
256,352,100317,5,6,0:1:0:0:
259,356,101032,1,2,0:0:0:0:
259,356,101121,2,0,B|254:284|224:274|175:266|172:206|233:118|317:162|303:241,1,316.25,2|2,0:0|0:3,0:0:0:0:
356,299,103353,1,2,0:0:0:0:
356,299,103532,2,0,P|386:287|413:280,1,41.2500015735627,2|2,0:0|0:1,0:0:0:0:
481,288,103889,6,0,B|358:267|426:206|281:194,1,214.49999018097,2|0,0:0|0:0,0:0:0:0:
226,157,105139,1,2,0:0:0:0:
172,236,105317,6,0,P|186:262|195:279,1,44,2|0,0:0|0:0,0:0:0:0:
108,318,105675,2,0,P|97:348|91:371,1,44,2|0,0:0|0:0,0:0:0:0:
93,359,106032,6,0,P|72:247|67:220,1,132,2|2,0:3|0:1,0:0:0:0:
111,133,106746,2,0,P|117:160|125:189,1,44,2|0,0:0|0:0,0:0:0:0:
198,91,107103,2,0,P|193:124|191:155,1,44,2|0,0:0|0:0,0:0:0:0:
248,202,107460,6,0,B|283:156|362:189|315:252|397:271,1,180.675004962387,2|0,0:0|0:0,0:0:0:0:
388,271,108353,2,0,P|348:280|316:294,1,60.2250016541291,2|2,0:0|0:0,0:0:0:0:
218,367,108889,6,0,B|192:355|184:335|196:286|263:277,2,132,2|2|0,0:3|0:1|0:0,0:0:0:0:
121,216,111121,6,0,P|113:237|109:263,2,27.5,2|0|0,0:0|0:0|0:0,0:0:0:0:
155,186,111389,2,0,P|151:172|145:160,3,27.5,2|0|2|2,0:0|0:0|0:0|0:0,0:0:0:0:
114,128,111746,6,0,P|175:136|280:136,1,148.49999546814,2|2,0:3|0:1,0:0:0:0:
269,145,112371,1,2,0:0:0:0:
269,145,112460,2,0,P|255:187|252:204,1,44,2|0,0:0|0:0,0:0:0:0:
311,244,112817,2,0,P|292:261|275:286,1,38.4999988250733,2|0,0:0|0:0,0:0:0:0:
244,340,113175,6,0,P|227:353|174:345,1,65.9999979858399,2|0,0:0|0:0,0:0:0:0:
146,290,113710,1,2,0:0:0:0:
70,289,113889,2,0,P|76:319|86:338,1,36.6300008942871,2|0,0:0|0:0,0:0:0:0:
148,212,114246,2,0,P|127:212|108:220,1,42.1299979171571,2|0,0:0|0:0,0:0:0:0:
98,216,114514,1,2,0:0:0:0:
86,212,114603,6,0,B|166:204|147:254|232:260,1,142.889998800819,2|2,0:3|0:1,0:0:0:0:
225,266,115228,1,2,0:0:0:0:
225,266,115317,2,0,P|258:262|291:252,1,47.6299996002731,2|0,0:0|0:0,0:0:0:0:
363,186,115675,2,0,P|373:150|382:124,1,47.6299996002731,2|0,0:0|0:0,0:0:0:0:
466,97,116032,6,0,P|472:128|476:139,2,42.1299979171571,2|0|0,0:0|0:0|0:0,0:0:0:0:
399,59,116567,2,0,B|300:57|331:102|237:113,1,168.519991668628,2|2,0:0|0:0,0:0:0:0:
138,79,117460,5,2,0:3:0:0:
67,167,117728,1,2,0:0:0:0:
144,268,117996,1,2,0:1:0:0:
157,255,118175,5,2,0:0:0:0:
37,256,118442,1,2,0:0:0:0:
2,370,118710,1,2,0:0:0:0:
19,376,118889,5,2,0:3:0:0:
122,314,119157,1,2,0:0:0:0:
249,364,119425,1,2,0:1:0:0:
238,374,119603,6,0,P|231:338|228:311,1,55,2|0,0:0|0:0,0:0:0:0:
313,269,119960,2,0,P|315:308|318:325,1,44,2|0,0:0|0:0,0:0:0:0:
415,257,120317,6,0,B|443:241|449:225|428:191|394:183|336:187,2,148.49999546814,2|2|0,0:3|0:1|0:0,0:0:0:0:
243,203,121925,6,0,B|195:168|217:108,1,98.9999969787599,2|2,0:0|0:1,0:0:0:0:
146,66,122460,2,0,P|141:99|133:118,1,44,2|0,0:0|0:0,0:0:0:0:
83,157,122817,2,0,P|88:190|96:209,1,44,2|0,0:0|0:0,0:0:0:0:
46,260,123175,6,0,B|115:226|107:283|191:262,2,145.200004431152,2|2|0,0:3|0:1|0:0,0:0:0:0:
164,179,124425,6,0,P|176:131|182:110,1,48.4000014770508,6|0,0:1|0:0,0:0:0:0:
399,338,125675,1,8,0:3:0:0:
399,338,126032,6,0,P|334:308|282:317,1,110,4|8,1:0|0:0,0:0:0:0:
224,281,126567,2,0,P|169:281|122:254,1,110,2|8,1:2|0:0,0:0:0:0:
217,150,127103,2,0,P|236:106|241:78,1,55,2|0,0:1|1:0,0:0:0:0:
126,127,127460,5,2,1:2:0:0:
126,127,127639,2,0,P|141:157|147:192,1,55,0|0,1:0|0:0,0:0:0:0:
122,254,127996,2,0,P|165:225|235:236,1,110,2|2,1:2|0:0,0:0:0:0:
363,200,128532,2,0,L|351:270,1,55,8|0,0:1|1:0,0:0:0:0:
298,157,128889,6,0,P|353:153|411:122,1,110,2|8,1:2|0:0,0:0:0:0:
279,77,129425,2,0,P|224:81|166:112,1,110,2|8,1:2|0:0,0:0:0:0:
97,184,129960,2,0,P|68:148|46:127,1,55,2|0,0:1|1:0,0:0:0:0:
70,256,130317,6,0,P|114:223|187:232,1,110,2|0,1:2|0:0,0:0:0:0:
237,279,130853,1,2,1:2:0:0:
237,279,131032,2,0,P|223:328|219:354,1,55,0|0,1:0|0:0,0:0:0:0:
353,240,131389,2,0,L|373:314,1,55,8|0,0:1|1:0,0:0:0:0:
390,172,131746,6,0,P|346:197|282:178,1,110,2|2,1:2|0:3,0:0:0:0:
346,103,132282,2,0,P|398:90|445:115,1,110,0|8,1:2|0:0,0:0:0:0:
489,184,132817,2,0,P|483:211|478:248,1,55,2|0,0:0|1:0,0:0:0:0:
498,323,133175,6,0,B|438:336|447:299|376:314,1,110,2|2,1:2|0:3,0:0:0:0:
313,256,133710,2,0,P|307:318|304:366,1,110,2|0,1:2|0:0,0:0:0:0:
197,291,134246,2,0,L|210:351,1,55,8|0,0:1|1:0,0:0:0:0:
112,244,134603,6,0,P|137:220|219:216,1,110,2|2,1:2|0:3,0:0:0:0:
294,158,135139,2,0,P|248:144|222:130,1,55,2|0,1:2|0:0,0:0:0:0:
187,83,135496,2,0,L|196:28,2,55,10|0|2,0:0|0:0|1:2,0:0:0:0:
120,141,136032,2,0,L|129:195,2,55,2|0|2,1:2|1:2|0:2,0:0:0:0:
49,106,136567,1,2,0:0:0:0:
49,106,136746,2,0,L|38:185,1,55,0|0,1:2|0:0,0:0:0:0:
185,84,137103,2,0,L|207:156,1,55,8|0,0:1|1:0,0:0:0:0:
260,183,137460,6,0,P|301:160|368:167,1,110,2|8,1:2|0:0,0:0:0:0:
431,200,137996,2,0,P|422:259|416:322,1,110,2|8,1:2|0:0,0:0:0:0:
512,198,138532,2,0,P|499:164|488:145,1,55,2|0,0:1|1:0,0:0:0:0:
484,73,138889,5,2,1:2:0:0:
484,73,139067,2,0,P|435:84|417:82,1,55,0|0,1:0|0:0,0:0:0:0:
312,80,139425,2,0,P|342:94|360:167,1,110,2|0,1:2|0:0,0:0:0:0:
218,109,139960,2,0,L|208:181,1,55,8|0,0:1|1:0,0:0:0:0:
143,225,140317,6,0,P|131:177|105:100,1,110,2|8,1:2|0:0,0:0:0:0:
46,184,140853,2,0,P|58:232|84:309,1,110,2|8,1:3|0:0,0:0:0:0:
191,327,141389,2,0,P|225:315|260:305,1,55,2|0,0:1|1:0,0:0:0:0:
326,312,141746,6,0,P|290:299|265:235,1,110,2|0,1:2|0:0,0:0:0:0:
287,162,142282,1,0,1:0:0:0:
287,162,142460,2,0,P|315:175|332:210,1,55,2|0,1:2|0:0,0:0:0:0:
458,135,142817,2,0,L|448:215,1,55,8|0,0:1|1:0,0:0:0:0:
492,263,143175,6,0,P|458:292|385:283,1,110,2|2,1:2|1:3,0:0:0:0:
316,275,143710,2,0,P|259:266|206:306,1,110,2|8,1:2|0:0,0:0:0:0:
95,185,144246,2,0,L|87:256,1,55,8|0,0:1|1:0,0:0:0:0:
69,114,144603,6,0,P|100:146|177:135,1,110,2|2,1:2|1:3,0:0:0:0:
224,100,145139,1,0,1:0:0:0:
275,157,145317,2,0,P|271:189|260:228,1,55,10|0,0:0|0:0,0:0:0:0:
389,80,145675,2,0,L|400:144,1,55,8|0,0:1|1:0,0:0:0:0:
462,215,146032,6,0,P|406:212|336:202,1,110,2|10,1:2|0:0,0:0:0:0:
304,284,146567,2,0,P|249:286|194:293,1,110,2|2,1:2|1:2,0:0:0:0:
88,214,147103,2,0,L|74:281,1,55,8|0,0:1|0:0,0:0:0:0:
164,150,147460,2,0,L|178:217,1,55,8|0,0:1|1:0,0:0:0:0:
244,242,147817,6,0,P|314:250|365:264,1,110,2|8,0:3|0:0,0:0:0:0:
469,103,148532,2,0,L|483:161,1,55,8|8,0:1|0:0,0:0:0:0:
425,225,148889,6,0,P|403:199|395:113,1,110,2|2,1:0|0:3,0:0:0:0:
308,24,149425,2,0,P|296:56|226:105,1,110,6|2,1:0|0:3,0:0:0:0:
180,226,149960,2,0,L|303:212,1,110,6|2,1:0|1:3,0:0:0:0:
152,113,150496,5,6,1:2:0:0:
152,113,150853,1,8,0:1:0:0:
152,113,150942,1,8,0:1:0:0:
152,113,151032,2,0,L|140:167,1,44,8|8,0:1|0:3,0:0:0:0:
73,196,151389,2,0,L|61:250,1,44,2|8,1:2|0:3,0:0:0:0:
60,253,151657,1,4,0:3:0:0:
56,266,151746,6,0,P|91:256|198:240,1,132,4|2,1:0|1:2,0:0:0:0:
362,189,152817,2,0,L|371:243,1,44,8|0,0:1|0:0,0:0:0:0:
405,295,153175,6,0,B|412:223|442:253|448:173,1,132,2|2,1:2|1:2,0:0:0:0:
292,64,154246,2,0,L|277:120,1,44,8|0,0:1|0:0,0:0:0:0:
224,158,154603,6,0,P|169:184|103:152,1,132,2|2,1:2|1:2,0:0:0:0:
10,10,155675,2,0,L|0:64,1,44,8|0,0:1|0:0,0:0:0:0:
77,80,156032,6,0,P|97:49|102:34,2,44,2|0|2,1:2|1:0|0:0,0:0:0:0:
22,138,156567,2,0,P|46:163|42:225,1,88,2|0,1:0|0:0,0:0:0:0:
215,175,157103,2,0,L|223:239,1,44,10|0,0:1|0:0,0:0:0:0:
282,264,157460,6,0,B|351:247|340:282|415:281,1,132,2|2,1:2|1:2,0:0:0:0:
352,87,158532,2,0,L|339:139,1,44,8|0,0:1|0:0,0:0:0:0:
262,156,158889,6,0,B|236:131|231:87|293:33,1,132,2|2,1:2|1:2,0:0:0:0:
453,172,159960,2,0,L|459:226,1,44,8|0,0:1|0:0,0:0:0:0:
410,281,160317,5,2,1:2:0:0:
256,256,160853,1,2,1:2:0:0:
102,281,161389,2,0,L|109:336,1,44,8|0,0:1|0:0,0:0:0:0:
168,235,161746,6,0,P|176:182|122:126,1,132,2|0,1:3|1:0,0:0:0:0:
51,148,162460,1,2,0:3:0:0:
102,281,162817,2,0,L|109:336,1,44,8|0,0:1|0:0,0:0:0:0:
181,356,163175,6,0,B|248:335|240:376|318:363,1,132,2|2,1:2|1:2,0:0:0:0:
420,199,164246,2,0,L|431:252,1,44,8|0,0:1|0:0,0:0:0:0:
341,203,164603,6,0,P|373:182|391:94,1,132,2|2,1:2|1:2,0:0:0:0:
221,37,165675,2,0,L|216:99,1,44,8|0,0:1|0:0,0:0:0:0:
177,141,166032,6,0,B|248:123|214:100|315:81,1,132,2|2,1:2|1:2,0:0:0:0:
127,231,167103,2,0,L|137:286,1,44,8|0,0:1|0:0,0:0:0:0:
49,220,167460,6,0,P|59:183|61:161,2,44,2|0|2,1:2|1:0|0:0,0:0:0:0:
10,116,167996,2,0,P|44:102|109:118,1,88,2|0,1:2|0:0,0:0:0:0:
206,162,168532,2,0,L|201:222,1,44,8|0,0:1|0:0,0:0:0:0:
248,272,168889,6,0,P|271:242|360:212,1,132,2|0,1:2|1:2,0:0:0:0:
302,39,169960,2,0,L|305:99,1,44,8|0,0:1|0:0,0:0:0:0:
248,141,170317,6,0,P|216:162|152:146,1,88,2|0,1:2|0:0,0:0:0:0:
64,94,170853,2,0,L|76:193,1,88,2|0,1:2|0:0,0:0:0:0:
171,279,171389,2,0,L|162:331,1,44,8|0,0:1|0:0,0:0:0:0:
261,252,171746,6,0,P|307:238|365:231,1,88,2|0,1:2|0:0,0:0:0:0:
398,121,172282,2,0,P|352:135|294:142,1,98.9999969787599,2|0,1:2|0:0,0:0:0:0:
166,51,172817,2,0,L|155:110,1,49.4999984893799,8|0,0:1|0:0,0:0:0:0:
192,173,173175,6,0,P|140:192|115:238,1,98.9999969787599,2|0,1:2|0:0,0:0:0:0:
186,306,173710,2,0,P|238:287|263:241,1,98.9999969787599,2|0,1:2|0:0,0:0:0:0:
397,121,174246,2,0,L|386:182,1,49.4999984893799,8|0,0:1|0:0,0:0:0:0:
368,245,174603,5,2,1:2:0:0:
186,306,174960,6,0,P|178:277|109:213,1,115.49999647522,2|0,1:0|1:0,0:0:0:0:
277,234,175496,2,0,P|304:170|335:127,1,115.49999647522,6|0,1:0|1:0,0:0:0:0:
256,32,176032,5,6,1:2:0:0:
256,32,176121,1,8,0:1:0:0:
333,58,176300,1,8,0:1:0:0:
333,58,176389,2,0,L|378:47,1,28.874999118805,8|8,0:3|0:3,0:0:0:0:
442,125,176657,5,4,0:3:0:0:
442,125,176746,2,0,L|394:115,1,28.874999118805,4|4,0:3|0:3,0:0:0:0:
382,205,177014,5,8,0:3:0:0:
382,205,177103,2,0,L|431:197,1,28.874999118805,2|0,1:2|0:0,0:0:0:0:
498,200,177282,1,4,0:3:0:0:
498,200,177371,1,4,0:3:0:0:
498,200,177460,6,0,P|506:236|448:297,1,126.500002412796,6|8,1:2|0:1,0:0:0:0:
331,339,177996,2,0,P|323:303|291:210,1,126.500002412796,2|0,1:2|1:0,0:0:0:0:
216,118,178532,2,0,P|197:172|194:198,1,63.250001206398,8|8,0:1|0:3,0:0:0:0:
106,239,178889,6,0,P|144:249|177:308,1,94.8750018095971,0|0,1:2|0:0,0:0:0:0:
182,315,179246,2,0,P|168:359|164:394,1,63.250001206398,8|0,0:1|1:0,0:0:0:0:
38,291,179603,2,0,P|63:221|71:145,1,126.500002412796,2|8,0:0|0:1,0:0:0:0:
36,101,180139,1,8,0:3:0:0:
157,63,180317,6,0,B|208:51|195:26|257:16,1,94.8750018095971,2|2,1:2|0:0,0:0:0:0:
265,38,180675,2,0,P|257:93|247:173,1,126.500002412796,8|2,0:1|0:0,0:0:0:0:
352,186,181210,2,0,P|344:134|340:107,1,63.250001206398,2|8,1:2|0:1,0:0:0:0:
310,257,181567,6,0,P|359:219|419:232,1,126.500002412796,2|0,1:2|0:0,0:0:0:0:
394,364,182103,2,0,P|386:329|372:292,1,63.250001206398,8|0,0:1|1:0,0:0:0:0:
204,345,182460,2,0,P|228:289|247:263,1,63.250001206398,2|0,0:2|1:0,0:0:0:0:
248,163,182817,2,0,P|217:169|187:181,1,63.250001206398,8|8,0:1|0:3,0:0:0:0:
110,96,183175,6,0,P|156:88|219:36,1,126.500002412796,2|10,1:2|0:1,0:0:0:0:
300,102,183710,2,0,L|287:248,1,126.500002412796,0|2,1:2|1:3,0:0:0:0:
204,329,184246,1,8,0:1:0:0:
144,277,184425,6,0,B|75:263|94:304|17:297,1,126.500002412796,2|0,1:2|1:0,0:0:0:0:
43,182,184960,2,0,P|84:196|119:203,1,63.250001206398,8|0,0:1|1:0,0:0:0:0:
209,121,185317,2,0,P|196:163|178:196,1,63.250001206398,2|0,0:2|1:0,0:0:0:0:
272,301,185675,2,0,P|285:259|303:226,1,63.250001206398,8|8,0:1|0:3,0:0:0:0:
385,238,186032,6,0,P|361:291|334:380,1,126.500002412796,2|10,1:2|0:1,0:0:0:0:
170,303,186567,2,0,P|194:250|221:161,1,126.500002412796,0|2,1:2|1:2,0:0:0:0:
162,49,187103,1,8,0:1:0:0:
117,109,187282,6,0,P|173:94|267:77,1,126.500002412796,2|0,1:2|1:0,0:0:0:0:
393,134,187817,2,0,P|367:107|350:67,1,63.250001206398,8|0,0:1|0:0,0:0:0:0:
385,238,188175,1,8,0:1:0:0:
399,230,188264,1,8,0:1:0:0:
414,227,188353,1,8,0:1:0:0:
305,176,188532,1,8,0:1:0:0:
305,176,188710,2,0,L|278:211,1,31.625000603199,8|4,0:3|0:3,0:0:0:0:
213,269,188889,6,0,B|152:249|172:221|90:200,1,126.500002412796,6|8,1:2|0:1,0:0:0:0:
22,146,189425,2,0,P|87:124|160:97,1,126.500002412796,0|2,1:0|1:3,0:0:0:0:
229,196,189960,2,0,P|287:208|307:216,1,63.250001206398,8|8,0:1|0:3,0:0:0:0:
375,245,190317,6,0,P|367:176|357:124,1,94.8750018095971,0|0,1:2|0:0,0:0:0:0:
339,131,190675,2,0,P|287:116|255:103,1,63.250001206398,8|0,0:1|1:0,0:0:0:0:
192,36,191032,2,0,P|244:32|341:14,1,126.500002412796,2|8,0:0|0:1,0:0:0:0:
382,67,191567,1,8,0:3:0:0:
278,112,191746,6,0,B|258:165|285:156|264:215,1,94.8750018095971,2|2,1:2|0:0,0:0:0:0:
244,232,192103,2,0,P|157:236|97:241,1,126.500002412796,8|0,0:1|0:0,0:0:0:0:
69,296,192639,1,2,1:2:0:0:
164,364,192817,1,8,0:1:0:0:
234,327,192996,6,0,P|250:263|273:185,1,126.500002412796,2|2,1:2|1:2,0:0:0:0:
192,110,193532,2,0,P|184:150|170:181,1,63.250001206398,8|0,0:1|1:0,0:0:0:0:
64,101,193889,2,0,P|75:58|87:34,1,63.250001206398,2|0,0:0|1:0,0:0:0:0:
218,17,194246,2,0,L|224:90,1,63.250001206398,8|8,0:1|0:3,0:0:0:0:
294,129,194603,6,0,B|366:110|317:83|416:59,1,126.500002412796,2|8,1:2|0:1,0:0:0:0:
458,17,195139,2,0,P|437:85|427:162,1,126.500002412796,0|2,1:2|1:3,0:0:0:0:
339,234,195675,2,0,P|347:264|356:294,1,63.250001206398,8|8,0:1|0:3,0:0:0:0:
223,308,196032,6,0,P|240:264|249:217,1,94.8750018095971,2|0,1:2|0:0,0:0:0:0:
230,188,196389,2,0,P|195:177|161:160,1,63.250001206398,8|0,0:1|1:0,0:0:0:0:
339,85,196746,2,0,P|374:74|408:57,1,63.250001206398,2|0,0:0|1:0,0:0:0:0:
218,42,197103,2,0,L|227:125,1,63.250001206398,8|8,0:1|0:3,0:0:0:0:
127,231,197460,6,0,P|133:171|95:106,1,126.500002412796,2|8,1:2|0:1,0:0:0:0:
5,133,197996,2,0,P|-1:193|37:258,1,126.500002412796,0|0,1:2|1:0,0:0:0:0:
136,309,198532,1,8,0:1:0:0:
204,262,198710,6,0,B|275:260|256:294|325:295,1,126.500002412796,2|0,1:2|1:0,0:0:0:0:
441,212,199246,2,0,P|430:238|418:281,1,63.250001206398,8|2,0:1|1:2,0:0:0:0:
333,124,199603,2,0,P|344:163|350:187,1,63.250001206398,8|8,0:1|0:3,0:0:0:0:
322,271,199960,1,4,0:3:0:0:
322,271,200050,1,4,0:3:0:0:
322,271,200139,1,4,0:3:0:0:
256,160,200317,5,4,1:0:0:0:
245,217,211210,5,8,0:3:0:0:
245,217,211300,2,0,L|239:267,1,27.5,8|0,0:3|1:0,0:0:0:0:
259,275,211478,1,0,0:0:0:0:
256,302,211567,1,4,0:3:0:0:
253,329,211656,1,4,0:3:0:0:
250,357,211746,6,0,B|324:345|288:318|373:301,1,131.99999597168,6|8,1:2|0:1,0:0:0:0:
412,368,212282,2,0,P|416:302|425:229,1,131.99999597168,0|2,1:0|1:3,0:0:0:0:
357,132,212817,2,0,P|354:167|344:216,1,65.9999979858399,8|8,0:1|0:3,0:0:0:0:
245,217,213175,6,0,P|180:194|131:191,1,98.9999969787599,2|0,1:2|0:0,0:0:0:0:
127,202,213532,2,0,P|140:249|144:274,1,65.9999979858399,8|0,0:1|1:0,0:0:0:0:
16,188,213889,2,0,P|62:162|91:82,1,131.99999597168,2|8,0:2|0:1,0:0:0:0:
188,46,214425,6,0,B|257:67|251:28|322:54,1,131.99999597168,2|2,1:2|0:0,0:0:0:0:
393,172,214960,2,0,P|354:183|285:116,1,131.99999597168,8|0,0:1|0:0,0:0:0:0:
210,147,215496,1,2,1:3:0:0:
280,255,215675,1,8,0:1:0:0:
199,240,215853,6,0,P|157:248|106:323,1,131.99999597168,2|2,1:2|1:2,0:0:0:0:
41,242,216389,2,0,P|38:192|26:160,1,65.9999979858399,8|0,0:1|1:0,0:0:0:0:
152,147,216746,2,0,B|78:135|109:100|34:94,1,131.99999597168,2|8,0:0|0:1,0:0:0:0:
158,68,217282,1,8,0:1:0:0:
158,68,217371,1,0,0:0:0:0:
158,68,217460,6,0,P|231:57|306:38,1,131.99999597168,6|8,1:2|0:1,0:0:0:0:
370,110,217996,2,0,P|309:122|240:144,1,131.99999597168,0|2,1:0|1:3,0:0:0:0:
189,239,218532,1,8,0:1:0:0:
282,293,218710,5,4,1:0:0:0:
347,260,218889,2,0,P|362:213|368:185,1,65.9999979858399,2|0,1:2|1:0,0:0:0:0:
466,322,219246,2,0,P|453:275|448:240,1,65.9999979858399,8|0,0:1|1:0,0:0:0:0:
512,166,219603,2,0,L|438:176,1,65.9999979858399,2|0,0:0|1:0,0:0:0:0:
279,115,219960,2,0,L|290:200,1,65.9999979858399,8|8,0:1|0:3,0:0:0:0:
317,39,220317,6,0,B|263:31|263:31|232:45|232:45|184:40,1,131.99999597168,4|8,1:0|0:1,0:0:0:0:
97,24,220853,2,0,P|141:54|156:138,1,131.99999597168,2|2,1:2|1:2,0:0:0:0:
98,211,221389,1,8,0:1:0:0:
192,269,221567,6,0,B|272:260|229:231|323:222,1,131.99999597168,4|8,1:0|0:3,0:0:0:0:
375,281,222103,2,0,L|359:351,1,65.9999979858399,8|0,0:3|1:0,0:0:0:0:
438,362,222460,2,0,L|452:297,1,65.9999979858399,0|8,1:0|0:3,0:0:0:0:
512,193,222817,1,8,0:3:0:0:
481,205,222906,1,2,0:0:0:0:
448,205,222995,1,8,0:3:0:0:
419,191,223084,1,2,0:0:0:0:
397,167,223175,6,0,B|334:134|350:179|265:152,1,110,6|8,1:2|0:1,0:0:0:0:
233,106,223710,2,0,P|236:154|234:227,1,110,2|0,1:2|1:0,0:0:0:0:
162,318,224246,2,0,L|176:384,1,55,8|8,0:1|0:3,0:0:0:0:
85,310,224603,6,0,P|94:258|107:242,1,55,2|0,1:2|1:0,0:0:0:0:
98,161,224960,2,0,P|72:181|26:189,1,55,8|0,0:1|1:0,0:0:0:0:
160,99,225317,2,0,L|224:112,1,55,2|0,1:2|1:0,0:0:0:0:
295,180,225675,1,12,0:1:0:0:
352,127,225853,1,8,0:3:0:0:
352,127,226032,6,0,P|375:178|385:223,1,82.5,2|2,1:2|0:0,0:0:0:0:
373,233,226389,1,8,0:1:0:0:
390,309,226567,2,0,B|326:316|346:280|257:294,1,110,2|0,1:2|1:0,0:0:0:0:
191,218,227103,2,0,L|181:285,1,55,8|8,0:1|0:3,0:0:0:0:
125,170,227460,6,0,P|170:170|238:132,1,110,2|8,1:2|0:1,0:0:0:0:
290,72,227996,1,2,1:2:0:0:
311,177,228175,1,8,0:1:0:0:
332,282,228353,1,8,0:1:0:0:
378,220,228532,6,0,L|420:213,1,27.5,10|2,0:1|0:0,0:0:0:0:
454,223,228710,1,8,0:1:0:0:
454,223,228800,1,8,0:1:0:0:
454,223,228889,6,0,P|442:168|465:95,1,121.000003692627,6|8,1:2|0:1,0:0:0:0:
357,26,229425,2,0,B|284:21|311:62|223:77,1,121.000003692627,6|2,0:1|1:2,0:0:0:0:
138,45,229960,2,0,P|111:35|90:29,2,40.333334564209,8|2|2,0:1|0:0|0:0,0:0:0:0:
164,77,230317,6,0,P|160:150|143:209,1,121.000003692627,6|8,1:2|0:1,0:0:0:0:
75,281,230853,2,0,P|155:274|217:271,1,121.000003692627,6|2,1:0|1:2,0:0:0:0:
195,271,231300,1,2,0:0:0:0:
195,271,231389,1,8,0:1:0:0:
269,323,231567,2,0,L|303:319,1,30.2500009231568,8|4,0:3|0:3,0:0:0:0:
334,297,231746,6,0,B|398:311|386:270|468:285,1,121.000003692627,6|8,1:2|0:1,0:0:0:0:
499,195,232282,2,0,P|421:181|404:141,1,121.000003692627,6|2,1:0|1:2,0:0:0:0:
317,57,232817,2,0,L|305:104,1,30.2500009231568,8|2,0:1|0:0,0:0:0:0:
281,113,232996,2,0,L|269:160,1,30.2500009231568,8|2,0:3|0:0,0:0:0:0:
240,173,233175,6,0,P|184:186|140:119,1,121.000003692627,6|8,1:2|0:1,0:0:0:0:
36,243,233710,2,0,B|154:229|91:308|223:299,1,181.500005538941,6|4,1:0|0:3,0:0:0:0:
256,192,235139,12,6,236032,0:1:0:0:
