osu file format v14

[General]
AudioFilename: audio.mp3
AudioLeadIn: 0
PreviewTime: 57956
Countdown: 0
SampleSet: Soft
StackLeniency: 0.4
Mode: 0
LetterboxInBreaks: 0
WidescreenStoryboard: 0

[Editor]
Bookmarks: 29062,60367,96888,110793,142106
DistanceSpacing: 1
BeatDivisor: 8
GridSize: 16
TimelineZoom: 2.7

[Metadata]
Title:Akio
TitleUnicode:秋绪
Artist:Tainaka Sachi
ArtistUnicode:タイナカ彩智
Creator:Shurelia
Version:Life is so sweet!
Source:明日方舟
Tags:Arknights アークナイツ Studio Montagne Beginning Autumn Angelina Ajimu Croissant Penguin Logistic Rhodes Island Japanese Video Game gacha Juno Yamakawa Etsuko 山川恵津子 Yostar Hypergryph Pop Aeril ScubDomino Keqing Iljaaz Nines Tsuchimikado Kalibe Glaze Ducky- Kirylln -_Heatwave_-
BeatmapID:2672123
BeatmapSetID:1287052

[Difficulty]
HPDrainRate:6.4
CircleSize:4.5
OverallDifficulty:8
ApproachRate:8.5
SliderMultiplier:3.59999990463257
SliderTickRate:1

[Events]
//Background and Video events
0,0,"angelinanewbg.jpg",0,0
//Break Periods
//Storyboard Layer 0 (Background)
//Storyboard Layer 1 (Fail)
//Storyboard Layer 2 (Pass)
//Storyboard Layer 3 (Foreground)
//Storyboard Layer 4 (Overlay)
//Storyboard Sound Samples

[TimingPoints]
179,461.538461538462,4,2,1,44,1,0
640,588.235294117647,4,2,1,72,1,0
640,-50,4,2,1,72,0,0
934,666.666666666667,4,2,1,72,1,0
934,-41.6666666666667,4,2,1,72,0,0
1267,600,4,2,1,72,1,0
1267,-55.5555555555556,4,2,1,72,0,0
1567,545.454545454546,4,2,1,72,1,0
1567,-62.5,4,2,1,72,0,0
2112,428.571428571429,4,2,1,60,1,0
2112,-166.666666666667,4,2,1,60,0,0
2165,-166.666666666667,4,2,1,30,0,0
3397,-166.666666666667,4,2,1,35,0,0
3451,-166.666666666667,4,2,1,40,0,0
3504,-166.666666666667,4,2,1,45,0,0
3558,-166.666666666667,4,2,1,50,0,0
3612,-166.666666666667,4,2,1,55,0,0
3665,-166.666666666667,4,2,1,60,0,0
3719,-166.666666666667,4,2,1,65,0,0
3826,434.782608695652,4,2,1,77,1,0
5565,-100,4,2,1,60,0,1
6108,-100,4,2,1,5,0,1
6217,-166.666666666667,4,2,1,60,0,1
6325,-166.666666666667,4,2,1,5,0,1
6434,-100,4,2,1,60,0,1
6978,-100,4,2,1,5,0,1
7086,-166.666666666667,4,2,1,60,0,1
7195,-166.666666666667,4,2,1,5,0,1
7304,-166.666666666667,4,2,1,60,0,1
7739,-166.666666666667,4,2,1,60,0,1
8391,-166.666666666667,4,2,1,60,0,1
8825,-100,4,2,1,60,0,1
10565,-1000,4,2,1,60,0,1
11869,-125,4,2,1,60,0,1
12521,-100,4,2,1,60,0,1
13608,-500,4,2,1,60,0,1
14260,-100,4,2,1,60,0,1
16434,-500,4,2,1,60,0,1
19369,-500,4,2,1,60,0,1
19478,-166.666666666667,4,2,1,60,0,1
27739,-55.5555555555556,4,2,99,60,0,1
28173,-166.666666666667,4,2,1,53,0,0
42086,-250.000000000001,4,2,1,47,0,0
55999,-166.666666666667,4,2,1,36,0,0
59478,-100,4,2,1,60,0,1
60021,-100,4,2,1,5,0,1
60130,-166.666666666667,4,2,1,60,0,1
60239,-166.666666666667,4,2,1,5,0,1
60347,-100,4,2,1,60,0,1
60891,-100,4,2,1,5,0,1
60999,-166.666666666667,4,2,1,60,0,1
61108,-166.666666666667,4,2,1,5,0,1
61217,-100,4,2,1,60,0,1
62304,-166.666666666667,4,2,1,60,0,1
62739,-100,4,2,1,60,0,1
64478,-500,4,2,1,60,0,1
65782,-125,4,2,1,60,0,1
66434,-100,4,2,1,60,0,1
67521,-500,4,2,1,60,0,1
68173,-100,4,2,1,60,0,1
69912,-500,4,2,1,60,0,1
71652,-1000,4,2,1,60,0,1
72086,-166.666666666667,4,2,1,60,0,1
72521,-100,4,2,1,60,0,1
72956,-71.4285714285714,4,2,1,60,0,1
73282,-71.4285714285714,4,2,1,60,0,0
73391,-100,4,2,1,60,0,1
73934,-100,4,2,1,5,0,1
74043,-166.666666666667,4,2,1,60,0,1
74152,-166.666666666667,4,2,1,5,0,1
74260,-100,4,2,1,60,0,1
74804,-100,4,2,1,5,0,1
74912,-166.666666666667,4,2,1,60,0,1
75021,-166.666666666667,4,2,1,5,0,1
75130,-100,4,2,1,60,0,1
76217,-166.666666666667,4,2,1,60,0,1
76652,-100,4,2,1,60,0,1
78391,-500,4,2,1,60,0,1
79695,-125,4,2,1,60,0,1
80347,-100,4,2,1,60,0,1
84260,-500,4,2,1,60,0,1
87195,-500,4,2,1,60,0,1
87304,-500,4,2,1,60,0,1
89043,-166.666666666667,4,2,1,60,0,1
94478,-71.4285714285714,4,2,1,60,0,0
94695,-500,4,2,1,60,0,0
95021,-500,4,2,1,5,0,0
95130,-50,4,2,1,60,0,0
95184,-50,4,2,1,5,0,0
95347,-50,4,2,1,60,0,0
95999,-100,4,2,1,60,0,0
96869,-66.6666666666667,4,2,1,60,0,0
97304,-125,4,2,1,60,0,0
99043,-200,4,2,1,60,0,0
99478,-100,4,2,1,60,0,0
100347,-66.6666666666667,4,2,1,60,0,0
100782,-125,4,2,1,60,0,0
102195,-83.3333333333333,4,2,1,5,0,0
102304,-83.3333333333333,4,2,1,60,0,0
102412,-83.3333333333333,4,2,1,5,0,0
102521,-83.3333333333333,4,2,1,60,0,0
102630,-83.3333333333333,4,2,1,5,0,0
102739,-83.3333333333333,4,2,1,60,0,0
102847,-83.3333333333333,4,2,1,5,0,0
102956,-100,4,2,1,60,0,0
103825,-66.6666666666667,4,2,1,60,0,0
104152,-111.111111111111,4,2,1,60,0,0
108391,-142.857142857143,4,2,1,60,0,0
109912,-166.666666666667,4,2,1,53,0,0
123825,-250.000000000001,4,2,1,47,0,0
141217,-100,4,2,1,60,0,1
141760,-100,4,2,1,5,0,1
141869,-166.666666666667,4,2,1,60,0,1
141978,-100,4,2,1,5,0,1
142086,-100,4,2,1,60,0,1
142630,-100,4,2,1,5,0,1
142739,-166.666666666667,4,2,1,60,0,1
142847,-100,4,2,1,5,0,1
142956,-100,4,2,1,60,0,1
144043,-166.666666666667,4,2,1,60,0,1
144369,-100,4,2,1,5,0,1
144478,-100,4,2,1,60,0,1
145021,-100,4,2,1,5,0,1
145130,-100,4,2,1,60,0,1
145239,-100,4,2,1,5,0,1
145347,-100,4,2,1,60,0,1
146108,-100,4,2,1,5,0,1
146217,-250,4,2,1,60,0,1
147521,-125,4,2,1,60,0,1
148173,-100,4,2,1,60,0,1
148717,-100,4,2,1,5,0,1
148825,-100,4,2,1,60,0,1
150456,-100,4,2,1,5,0,1
150565,-100,4,2,1,60,0,1
151652,-500,4,2,1,60,0,1
151978,-500,4,2,1,5,0,1
152086,-100,4,2,1,60,0,1
152521,-500,4,2,1,60,0,1
152847,-500,4,2,1,5,0,1
152956,-100,4,2,1,60,0,1
153391,-500,4,2,1,60,0,1
153717,-500,4,2,1,5,0,1
153825,-166.666666666667,4,2,1,60,0,1
154152,-500,4,2,1,5,0,1
154260,-100,4,2,1,60,0,1
154586,-500,4,2,1,5,0,1
154695,-71.4285714285714,4,2,1,60,0,1
155021,-71.4285714285714,4,2,1,60,0,0
155130,-100,4,2,1,60,0,1
155673,-500,4,2,1,5,0,1
155782,-166.666666666667,4,2,1,60,0,1
155891,-500,4,2,1,5,0,1
155999,-100,4,2,1,60,0,1
156543,-500,4,2,1,5,0,1
156652,-166.666666666667,4,2,1,60,0,1
156760,-500,4,2,1,5,0,1
156869,-100,4,2,1,60,0,1
157956,-166.666666666667,4,2,1,60,0,1
158282,-500,4,2,1,5,0,1
158391,-100,4,2,1,60,0,1
159152,-500,4,2,1,5,0,1
159260,-100,4,2,1,60,0,1
160021,-500,4,2,1,5,0,1
160130,-250,4,2,1,60,0,1
161434,-125,4,2,1,60,0,1
162086,-100,4,2,1,60,0,1
162630,-500,4,2,1,5,0,1
162739,-100,4,2,1,60,0,1
164369,-500,4,2,1,5,0,1
164478,-100,4,2,1,60,0,1
165565,-500,4,2,1,60,0,1
165891,-500,4,2,1,5,0,1
165999,-100,4,2,1,60,0,1
166434,-500,4,2,1,60,0,1
166760,-500,4,2,1,5,0,1
166869,-100,4,2,1,60,0,1
167304,-500,4,2,1,60,0,1
167630,-500,4,2,1,5,0,1
167739,-125,4,2,1,60,0,1
169043,-100,4,2,1,60,0,0
170999,-166.666666666667,4,2,1,60,0,0
171108,-500,4,2,1,5,0,0
171217,-100,4,2,1,60,0,0
174586,-500,4,2,1,5,0,0
174695,-100,4,2,1,60,0,0
174804,-500,4,2,1,5,0,0
174912,-100,4,2,1,60,0,0
177956,-166.666666666667,4,2,1,60,0,0
178065,-500,4,2,1,5,0,1
178173,-100,4,2,1,60,0,0
182956,555.555555555556,4,2,1,60,1,0
183233,666.666666666667,4,2,1,60,1,0
183233,-50,4,2,1,77,0,0
183566,631.578947368421,4,2,1,77,1,0
183566,-50,4,2,1,77,0,0
183881,600,4,2,1,77,1,0
183881,-55.5555555555556,4,2,1,77,0,0
184781,659.340659340659,4,2,1,77,1,0
187418,631.578947368421,4,2,98,77,1,0
187575,-100,4,2,1,77,0,0

[Colours]
Combo1 : 250,180,240
Combo2 : 120,200,230
Combo3 : 255,230,130
Combo4 : 160,230,150

[HitObjects]
176,64,179,5,4,0:3:0:0:
178,71,236,1,4,0:3:0:0:
180,78,294,1,4,0:3:0:0:
182,85,352,1,4,0:3:0:0:
70,103,640,6,0,P|160:98|269:149,1,179.999995231629,14|0,0:1|0:0,0:0:0:0:
465,140,934,2,0,P|345:158|263:244,1,215.999987686158,14|0,0:1|0:0,0:0:0:0:
161,276,1267,2,0,P|234:290|311:371,1,161.999990764618,14|0,1:0|0:0,0:0:0:0:
45,333,1567,2,0,P|88:281|168:279,1,143.999996185303,14|0,0:1|0:0,0:0:0:0:
161,276,1839,2,0,P|231:272|277:219,1,143.999996185303,14|0,0:1|0:0,0:0:0:0:
288,48,2112,6,0,L|281:3,30,26.9999984607697,14|0|0|0|0|0|0|0|0|0|0|0|0|0|0|0|0|0|0|0|0|0|0|0|0|0|0|0|0|0|0,0:1|0:0|0:0|0:0|0:0|0:0|0:0|0:0|0:0|0:0|0:0|0:0|0:0|0:0|0:0|0:0|0:0|0:0|0:0|0:0|0:0|0:0|0:0|0:0|0:0|0:0|0:0|0:0|0:0|0:0|0:0,0:0:0:0:
360,24,3826,1,8,0:0:0:0:
445,264,5130,5,4,0:3:0:0:
445,264,5565,6,0,P|445:154|359:242,1,269.999992847443,6|0,3:2|0:0,0:0:0:0:
299,278,5999,2,0,L|314:398,1,89.9999976158143,8|0,0:0|0:0,0:0:0:0:
228,357,6217,2,0,L|219:289,1,53.9999969215394
65,281,6434,6,0,P|65:171|150:259,1,269.999992847443,2|0,3:2|0:0,0:0:0:0:
140,382,6869,2,0,L|229:371,1,89.9999976158143,8|0,0:0|0:0,0:0:0:0:
280,275,7086,2,0,L|218:282,1,53.9999969215394
0,104,7304,5,2,3:2:0:0:
56,32,7521,1,0,0:0:0:0:
69,29,7630,1,4,3:0:0:0:
83,26,7739,2,0,L|147:34,1,53.9999969215394,8|0,0:0|0:0,0:0:0:0:
306,90,7956,1,2,3:2:0:0:
512,64,8391,6,2,P|427:45|400:121,1,161.999990764618,2|0,0:1|0:1,0:1:0:0:
396,100,8825,2,2,L|283:88,1,89.9999976158143,2|0,3:2|0:0,0:1:0:0:
370,279,9043,6,0,P|455:298|410:154,1,269.999992847443,6|0,3:2|0:0,0:0:0:0:
208,208,9478,2,0,L|94:195,1,89.9999976158143,8|0,0:0|0:0,0:0:0:0:
32,208,9695,1,0,3:0:0:0:
294,198,9912,1,0,3:0:0:0:
66,128,10130,5,0,0:0:0:0:
60,102,10238,1,0,3:0:0:0:
55,77,10347,2,0,L|168:89,1,89.9999976158143,8|0,0:0|0:0,0:0:0:0:
260,278,10565,6,0,L|263:308,1,26.9999992847443,0|0,3:0|0:0,0:0:0:0:
336,384,10999,5,2,0:0:0:0:
338,349,11107,1,0,3:0:0:0:
341,314,11216,1,8,0:0:0:0:
420,373,11434,5,2,0:0:0:0:
421,354,11542,1,0,3:0:0:0:
422,336,11651,1,0,3:0:0:0:
506,314,11869,6,2,L|488:138,2,143.999996185303,2|10|2,0:0|0:0|0:0,0:1:0:0:
448,80,12521,6,0,P|367:134|347:6,1,269.999992847443,2|0,3:2|0:0,0:0:0:0:
341,9,12956,1,8,0:0:0:0:
96,176,13173,6,0,P|193:182|146:61,1,269.999992847443,2|0,3:2|0:0,0:0:0:0:
152,61,13608,2,0,L|157:94,1,17.9999995231628,0|0,3:0|0:0,0:0:0:0:
68,84,13825,1,8,0:0:0:0:
506,314,14260,6,0,P|395:258|250:289,1,269.999992847443,2|0,3:2|3:0,0:0:0:0:
256,284,14695,1,8,0:0:0:0:
453,78,14912,2,0,P|431:122|377:98,1,89.9999976158143,2|0,3:2|0:0,0:0:0:0:
352,16,15130,1,0,0:0:0:0:
395,120,15347,5,0,3:0:0:0:
352,16,15564,1,10,0:0:0:0:
176,144,15782,1,8,0:0:0:0:
245,159,15891,1,8,0:0:0:0:
293,107,15999,1,8,0:0:0:0:
216,16,16434,6,2,P|191:17|193:29,1,35.9999990463257,4|0,0:3|0:1,0:1:0:0:
208,47,16869,1,2,0:0:0:0:
336,304,17304,6,2,P|347:282|335:278,1,35.9999990463257,4|0,0:3|0:0,0:1:0:0:
313,281,17739,1,2,0:0:0:0:
26,263,18173,6,2,P|39:283|48:275,1,35.9999990463257,4|0,0:3|0:1,0:1:0:0:
58,255,18608,1,8,0:3:0:0:
64,192,18898,1,8,0:3:0:0:
32,144,19188,1,4,0:3:0:0:
256,112,19478,5,4,0:0:0:0:
282,54,19695,1,0,0:0:0:0:
334,28,19912,1,8,0:0:0:0:
188,44,20130,1,0,3:0:0:0:
392,31,20347,1,0,3:0:0:0:
406,156,20564,5,2,0:0:0:0:
393,129,20673,1,2,0:0:0:0:
368,114,20782,1,8,0:0:0:0:
164,137,20999,1,2,3:2:0:0:
164,137,21217,1,0,3:0:0:0:
144,258,21434,2,2,L|142:323,1,53.9999969215394,0|0,3:0|0:1,0:1:0:0:
416,384,21651,2,2,L|418:319,1,53.9999969215394,8|0,0:0|0:1,0:1:0:0:
336,320,22086,5,2,0:0:0:0:
224,322,22376,1,2,0:0:0:0:
279,320,22666,1,2,0:0:0:0:
420,188,22956,5,4,0:0:0:0:
468,140,23173,1,0,0:0:0:0:
485,74,23391,1,8,0:0:0:0:
500,220,23608,1,0,3:0:0:0:
466,8,23825,1,0,3:0:0:0:
321,49,24043,5,2,0:0:0:0:
351,66,24151,1,2,0:0:0:0:
368,96,24260,1,8,0:0:0:0:
224,160,24478,1,2,3:2:0:0:
224,160,24695,1,0,3:0:0:0:
128,112,24912,2,2,L|46:103,1,53.9999969215394,0|0,3:0|0:1,0:1:0:0:
170,316,25130,2,2,L|251:324,1,53.9999969215394,8|0,0:0|0:1,0:1:0:0:
368,368,25564,5,2,0:0:0:0:
365,341,25672,1,2,0:0:0:0:
362,314,25782,2,0,L|370:232,1,53.9999969215394,0|0,3:0|0:0,0:0:0:0:
351,66,25999,1,8,0:0:0:0:
382,163,26217,6,8,L|415:150,3,26.9999984607697
363,151,26434,5,8,0:0:0:0:
323,181,26543,1,8,0:0:0:0:
273,186,26651,1,8,0:0:0:0:
227,165,26760,1,8,0:3:0:0:
215,101,26869,5,8,0:0:0:0:
167,62,26978,1,8,0:0:0:0:
137,74,27086,1,8,0:3:0:0:
138,103,27195,1,8,0:0:0:0:
109,153,27304,1,8,0:0:0:0:
47,154,27412,1,4,0:3:0:0:
59,142,27521,1,8,0:0:0:0:
77,137,27630,1,8,0:0:0:0:
95,139,27739,6,0,L|82:35,1,80.9999953823091,6|0,0:0|0:0,0:0:0:0:
95,139,28173,5,2,3:0:0:0:
174,19,28391,2,0,L|188:135,1,107.999993843079,0|8,0:0|0:0,0:0:0:0:
378,0,28825,2,0,P|291:60|273:163,1,215.999987686158,2|0,3:0|3:0,0:0:0:0:
382,293,29478,1,8,0:0:0:0:
290,349,29695,1,0,0:0:0:0:
169,212,29912,6,0,L|186:319,1,107.999993843079,2|0,3:0|0:0,0:0:0:0:
45,286,30347,1,8,0:0:0:0:
118,125,30565,2,0,P|221:107|277:19,1,215.999987686158,2|0,3:0|3:0,0:0:0:0:
264,182,31108,1,0,0:0:0:0:
264,182,31217,2,0,P|253:234|247:288,1,107.999993843079,8|0,0:0|0:0,0:0:0:0:
461,34,31652,5,2,3:0:0:0:
376,60,31869,2,0,P|361:112|350:164,1,107.999993843079,0|8,0:0|0:0,0:0:0:0:
481,332,32304,2,0,P|460:226|443:119,1,215.999987686158,2|0,3:0|3:0,0:0:0:0:
342,311,32956,2,0,P|314:264|283:220,1,107.999993843079,8|0,0:0|0:0,0:0:0:0:
47,203,33391,5,2,3:0:0:0:
23,112,33608,2,0,P|12:59|3:5,1,107.999993843079,0|8,0:0|0:0,0:0:0:0:
142,206,34043,2,0,P|194:216|248:225,1,107.999993843079,2|0,3:0|0:0,0:0:0:0:
20,360,34478,2,2,P|12:334|3:308,1,53.9999969215394,0|0,3:0|0:0,0:1:0:0:
93,336,34695,2,2,P|88:309|85:282,1,53.9999969215394,8|0,0:0|0:0,0:1:0:0:
167,357,34912,1,0,3:0:0:0:
342,313,35130,6,0,L|449:308,1,107.999993843079,2|0,3:0|0:0,0:0:0:0:
492,140,35565,1,8,0:0:0:0:
342,15,35782,2,0,P|364:120|383:227,1,215.999987686158,2|0,3:0|3:0,0:0:0:0:
235,53,36434,1,8,0:0:0:0:
188,195,36652,1,0,0:0:0:0:
106,19,36869,6,0,P|111:73|114:126,1,107.999993843079,2|0,3:0|0:0,0:0:0:0:
124,346,37304,1,8,0:0:0:0:
321,292,37521,2,0,P|268:286|214:279,1,107.999993843079,2|0,3:0|0:0,0:0:0:0:
8,202,37956,1,2,3:0:0:0:
18,148,38065,1,2,0:0:0:0:
31,96,38173,2,0,L|193:114,1,161.999990764618,10|0,0:0|0:0,0:0:0:0:
201,197,38608,5,2,3:0:0:0:
274,60,38825,2,0,P|327:48|380:35,1,107.999993843079,0|8,0:0|0:0,0:0:0:0:
414,269,39260,2,0,P|386:170|285:150,1,215.999987686158,2|0,3:0|3:0,0:0:0:0:
319,349,39912,2,0,L|322:241,1,107.999993843079,8|0,0:0|0:0,0:0:0:0:
338,31,40347,5,2,3:0:0:0:
406,103,40565,2,0,P|458:114|510:128,1,107.999993843079,0|8,0:0|0:0,0:0:0:0:
239,56,40999,2,0,P|186:67|134:81,1,107.999993843079,2|0,3:0|0:0,0:0:0:0:
192,299,41434,5,0,3:0:0:0:
179,246,41543,1,0,0:0:0:0:
183,192,41652,1,8,0:0:0:0:
215,149,41760,1,8,0:0:0:0:
264,127,41869,1,0,3:0:0:0:
406,201,42086,6,0,B|431:195|341:213|274:231,1,143.999996185303,4|0,3:2|0:0,0:0:0:0:
101,323,42739,1,0,3:0:0:0:
101,323,42956,2,0,P|132:339|143:372,1,71.9999980926514,2|0,3:2|0:0,0:0:0:0:
0,346,43391,1,8,0:0:0:0:
132,18,43825,5,2,3:2:0:0:
498,18,44260,1,2,3:2:0:0:
416,20,44478,1,0,3:0:0:0:
365,79,44695,2,0,P|363:102|370:174,1,71.9999980926514,2|0,3:2|0:0,0:0:0:0:
420,377,45130,2,0,P|410:345|376:338,1,71.9999980926514,10|0,0:0|0:0,0:0:0:0:
312,367,45456,1,0,0:0:0:0:
312,367,45565,6,0,B|255:381|212:342|170:355,1,143.999996185303,2|0,3:2|0:0,0:0:0:0:
0,291,46217,2,0,P|71:293|140:274,1,143.999996185303,2|0,3:2|0:0,0:0:0:0:
203,178,46869,1,8,0:0:0:0:
203,178,47086,1,0,0:0:0:0:
36,57,47304,6,0,P|47:128|57:199,1,143.999996185303,2|0,3:2|0:0,0:0:0:0:
224,35,47956,2,0,P|212:106|202:177,1,143.999996185303,2|0,3:2|0:0,0:0:0:0:
399,38,48608,1,8,0:0:0:0:
163,349,49043,6,0,P|92:347|24:369,1,143.999996185303,4|0,3:2|0:0,0:0:0:0:
254,371,49695,1,0,3:0:0:0:
339,323,49912,2,0,P|320:253|309:182,1,143.999996185303,2|8,3:2|0:0,0:0:0:0:
0,0,50782,5,2,3:2:0:0:
27,258,51217,1,0,0:0:0:0:
79,239,51434,1,0,3:0:0:0:
132,286,51652,1,2,3:2:0:0:
169,97,52086,1,8,0:0:0:0:
208,128,52304,1,2,0:0:0:0:
220,133,52412,1,2,0:0:0:0:
231,132,52521,1,0,3:0:0:0:
485,363,52956,5,0,0:0:0:0:
407,298,53173,2,0,P|336:306|286:355,1,143.999996185303,2|0,3:2|3:0,0:0:0:0:
471,227,53825,2,0,P|480:191|486:156,1,71.9999980926514,8|0,0:0|0:0,0:0:0:0:
218,100,54260,2,0,P|250:164|279:230,1,143.999996185303,2|0,3:2|0:0,0:0:0:0:
10,186,54912,2,0,P|81:187|153:196,1,143.999996185303,2|0,3:2|0:0,0:0:0:0:
6,364,55565,1,8,0:0:0:0:
96,303,55782,1,8,0:0:0:0:
119,319,55891,1,8,0:0:0:0:
150,312,55999,1,0,3:0:0:0:
223,376,56217,5,8,0:3:0:0:
288,203,56434,2,0,P|296:150|303:97,1,107.999993843079,4|0,0:3|0:0,0:0:0:0:
150,312,56869,1,8,0:3:0:0:
115,116,57086,1,8,0:3:0:0:
266,290,57304,1,8,0:3:0:0:
392,69,57521,1,14,0:0:0:0:
392,69,58173,5,2,0:0:0:0:
439,142,58608,1,2,0:0:0:0:
385,336,59043,1,4,0:3:0:0:
392,323,59478,6,0,P|256:333|146:234,1,269.999992847443,6|0,3:2|0:0,0:0:0:0:
144,152,59912,2,0,L|160:64,1,89.9999976158143,8|0,0:0|0:0,0:0:0:0:
74,66,60130,2,0,L|64:121,1,53.9999969215394
156,253,60347,6,0,P|287:215|356:85,1,269.999992847443,2|0,3:2|0:0,0:0:0:0:
261,66,60782,2,0,L|172:50,1,89.9999976158143,8|0,0:0|0:0,0:0:0:0:
73,131,60999,2,0,L|139:142,1,53.9999969215394
364,272,61217,5,2,3:2:0:0:
448,184,61434,1,0,0:0:0:0:
445,172,61543,1,4,3:0:0:0:
442,160,61652,2,0,L|439:265,1,89.9999976158143,8|0,0:0|0:0,0:0:0:0:
464,368,61869,1,2,3:2:0:0:
44,283,62304,6,2,P|116:300|106:373,1,161.999990764618,2|0,0:1|0:1,0:1:0:0:
106,373,62739,2,2,L|96:256,1,89.9999976158143,2|0,3:2|0:0,0:1:0:0:
0,152,62956,2,0,L|306:178,1,269.999992847443,6|0,3:2|0:0,0:0:0:0:
412,184,63391,6,0,L|422:66,1,89.9999976158143,8|0,0:0|0:0,0:0:0:0:
492,56,63608,1,0,3:0:0:0:
339,222,63825,1,0,3:0:0:0:
268,175,64043,1,0,0:0:0:0:
265,148,64152,1,0,3:0:0:0:
263,121,64260,2,0,L|273:3,1,89.9999976158143,8|0,0:0|0:0,0:0:0:0:
64,64,64478,6,0,L|0:69,1,53.9999985694885,0|0,3:0|0:0,0:0:0:0:
112,160,64912,5,2,0:0:0:0:
74,156,65020,1,0,3:0:0:0:
36,152,65130,1,8,0:0:0:0:
127,257,65347,5,2,0:0:0:0:
104,251,65455,1,0,3:0:0:0:
82,245,65565,1,0,3:0:0:0:
228,287,65782,6,2,L|52:305,2,143.999996185303,2|10|2,0:0|0:0|0:0,0:1:0:0:
440,321,66434,6,0,P|338:269|349:123,1,269.999992847443,2|0,3:2|0:0,0:0:0:0:
344,128,66869,1,8,0:0:0:0:
228,287,67086,2,0,P|330:235|319:89,1,269.999992847443,2|0,3:2|0:0,0:0:0:0:
323,94,67521,2,0,L|295:93,1,17.9999995231628,0|0,3:0|0:0,0:0:0:0:
324,24,67739,1,8,0:0:0:0:
100,385,68173,6,0,P|206:321|360:375,1,269.999992847443,2|0,3:2|3:0,0:0:0:0:
340,356,68608,1,8,0:0:0:0:
112,207,68825,2,0,P|71:213|49:150,1,89.9999976158143,2|0,3:2|0:0,0:0:0:0:
176,80,69043,1,0,0:0:0:0:
43,178,69260,5,0,3:0:0:0:
256,112,69478,1,10,0:0:0:0:
176,80,69695,1,8,0:0:0:0:
432,0,69912,6,0,L|490:-3,1,35.9999990463257,12|0,0:0|0:0,0:0:0:0:
352,32,70347,1,10,0:0:0:0:
352,32,70565,1,0,3:0:0:0:
96,48,70782,6,0,L|38:45,1,35.9999990463257,4|0,0:0|3:0,0:0:0:0:
176,80,71217,1,8,0:0:0:0:
176,80,71434,1,0,3:0:0:0:
416,240,71652,6,0,L|418:259,1,17.9999995231628,12|0,0:0|0:0,0:0:0:0:
499,307,72086,2,0,L|298:280,1,161.999990764618,12|0,0:0|0:0,0:0:0:0:
417,257,72521,2,0,L|93:300,1,269.999992847443,4|0,3:2|0:0,0:0:0:0:
229,321,72956,2,0,L|43:296,1,125.999992816925,12|0,0:0|0:0,0:0:0:0:
0,96,73173,1,8,0:0:0:0:
48,128,73282,1,8,0:0:0:0:
73,179,73391,6,0,P|205:140|279:32,1,269.999992847443,6|0,3:2|0:0,0:0:0:0:
380,24,73825,2,0,P|382:68|404:108,1,89.9999976158143,8|0,0:0|0:0,0:0:0:0:
479,69,74043,2,0,P|475:39|458:15,1,53.9999969215394
277,35,74260,6,0,P|244:164|298:285,1,269.999992847443,2|0,3:2|0:0,0:0:0:0:
480,368,74695,2,0,P|501:329|504:285,1,89.9999976158143,8|0,0:0|0:0,0:0:0:0:
404,332,74913,2,0,P|408:299|425:272,1,53.9999969215394
144,352,75130,5,2,3:2:0:0:
16,272,75347,1,0,0:0:0:0:
12,261,75456,1,4,3:0:0:0:
8,250,75565,2,0,L|134:272,1,89.9999976158143,8|0,0:0|0:0,0:0:0:0:
234,361,75782,1,2,3:2:0:0:
305,194,76217,6,2,L|274:21,1,161.999990764618,2|0,0:1|0:1,0:1:0:0:
276,34,76652,2,2,P|281:80|256:140,1,89.9999976158143,2|0,3:2|0:0,0:1:0:0:
96,265,76869,6,0,L|46:-11,1,269.999992847443,4|0,3:2|0:0,0:0:0:0:
40,86,77304,2,0,P|35:40|60:-19,1,89.9999976158143,8|0,0:0|0:0,0:0:0:0:
128,16,77521,1,0,3:0:0:0:
188,104,77739,1,0,3:0:0:0:
165,248,77956,1,2,0:0:0:0:
132,262,78064,1,0,3:0:0:0:
96,265,78173,2,0,P|60:236|35:175,1,89.9999976158143,8|0,0:0|0:0,0:0:0:0:
268,121,78391,6,0,P|273:97|293:72,1,53.9999985694885,0|0,3:0|0:0,0:0:0:0:
384,128,78825,5,2,0:0:0:0:
416,101,78933,1,0,3:0:0:0:
457,94,79043,1,8,0:0:0:0:
448,192,79260,5,2,0:0:0:0:
473,187,79368,1,0,3:0:0:0:
497,196,79478,1,0,3:0:0:0:
393,338,79695,6,2,P|435:270|419:193,2,143.999996185303,2|10|2,0:0|0:0|0:0,0:1:0:0:
0,320,80347,6,0,L|289:306,1,269.999992847443,2|0,3:2|0:0,0:0:0:0:
269,306,80782,1,8,0:0:0:0:
32,160,80999,2,0,L|321:174,1,269.999992847443,2|0,3:2|0:0,0:0:0:0:
301,173,81434,2,0,P|253:191|187:188,1,89.9999976158143,2|0,3:2|0:0,0:0:0:0:
0,80,81652,1,8,0:0:0:0:
80,64,81869,1,0,0:0:0:0:
328,248,82086,6,0,P|409:192|513:28,1,269.999992847443,2|0,3:2|3:0,0:0:0:0:
505,52,82521,1,8,0:0:0:0:
448,352,82739,2,0,P|461:313|469:246,1,89.9999976158143,2|0,3:2|0:0,0:0:0:0:
336,368,82956,1,0,0:0:0:0:
469,265,83173,5,0,3:0:0:0:
192,336,83391,1,10,0:0:0:0:
336,368,83608,1,8,0:0:0:0:
326,364,83717,1,8,0:0:0:0:
316,360,83825,1,8,0:0:0:0:
16,176,84260,6,2,P|6:164|17:169,1,35.9999990463257,4|0,0:3|0:1,0:1:0:0:
16,80,84695,1,2,0:0:0:0:
320,0,85130,6,2,P|314:14|313:2,1,35.9999990463257,4|0,0:3|0:0,0:1:0:0:
236,48,85565,1,2,0:0:0:0:
160,320,85999,6,2,P|150:308|161:313,1,35.9999990463257,4|0,0:3|0:1,0:1:0:0:
160,223,86434,1,8,0:3:0:0:
240,208,86724,1,8,0:3:0:0:
292,269,87014,1,4,0:3:0:0:
368,160,87304,5,4,0:0:0:0:
448,175,87521,1,0,0:0:0:0:
500,114,87739,1,8,0:0:0:0:
375,172,87956,5,0,3:0:0:0:
471,190,88173,1,0,3:0:0:0:
473,38,88391,1,2,0:0:0:0:
447,29,88499,1,2,0:0:0:0:
422,41,88608,1,8,0:0:0:0:
336,64,88825,1,2,3:2:0:0:
336,64,89043,1,0,3:0:0:0:
128,192,89260,6,2,P|105:192|63:153,1,53.9999969215394,0|0,3:0|0:1,0:1:0:0:
208,0,89478,2,2,P|231:0|273:39,1,53.9999969215394,8|0,0:0|0:1,0:1:0:0:
160,272,89912,5,2,0:0:0:0:
112,320,90202,1,2,0:0:0:0:
96,384,90492,1,2,0:0:0:0:
310,301,90782,5,4,0:0:0:0:
370,241,90999,1,0,0:0:0:0:
390,161,91217,1,8,0:0:0:0:
321,317,91434,5,0,3:0:0:0:
392,245,91651,1,0,3:0:0:0:
367,81,91869,1,2,0:0:0:0:
352,60,91978,1,2,0:0:0:0:
349,33,92086,1,8,0:0:0:0:
472,24,92304,1,2,3:2:0:0:
472,24,92521,1,0,3:0:0:0:
208,128,92739,6,2,P|193:99|193:47,1,53.9999969215394,0|0,3:0|0:1,0:1:0:0:
480,112,92956,2,2,P|495:141|495:193,1,53.9999969215394,8|0,0:0|0:1,0:1:0:0:
173,220,93391,1,2,0:0:0:0:
154,216,93499,1,2,0:0:0:0:
143,201,93608,1,2,0:0:0:0:
97,165,93717,1,0,3:0:0:0:
48,160,93825,5,8,0:0:0:0:
56,159,93934,1,8,0:0:0:0:
61,152,94043,1,8,0:3:0:0:
51,139,94478,6,0,L|202:129,1,125.999992816925,8|0,0:3|0:0,0:0:0:0:
418,20,94695,2,0,L|484:24,1,53.9999985694885,12|0,0:3|0:0,0:0:0:0:
488,34,95130,6,0,L|329:23,1,89.9999976158143,8|0,0:3|0:0,0:0:0:0:
336,208,95347,5,8,0:0:0:0:
337,220,95456,1,8,0:0:0:0:
338,232,95565,1,8,0:0:0:0:
352,320,95782,5,8,0:0:0:0:
319,311,95891,1,8,0:0:0:0:
283,302,95999,6,0,B|239:243|161:263|161:263|196:345|260:335,1,269.999992847443,2|0,3:1|0:0,0:0:0:0:
329,297,96434,2,0,B|372:238|450:258|450:258|415:340|351:330,1,269.999992847443,10|0,0:1|0:0,0:0:0:0:
281,240,96869,2,0,B|239:198|304:118|304:118|365:196|325:237,1,270.000003147125,2|0,3:1|0:0,0:0:0:0:
302,73,97195,1,0,3:0:0:0:
301,26,97304,1,8,0:0:0:0:
126,8,97521,1,0,3:0:0:0:
18,117,97739,5,0,3:0:0:0:
70,192,97956,2,0,L|78:335,1,143.999996185303,2|8,0:1|0:0,0:0:0:0:
140,150,98391,2,0,P|238:156|246:254,1,215.999994277954,2|0,0:1|0:0,0:0:0:0:
222,286,98825,1,0,3:0:0:0:
347,384,99043,2,0,P|343:317|339:250,1,134.999996423721,8|0,0:0|0:0,0:0:0:0:
289,234,99478,6,0,B|225:244|190:162|190:162|268:142|312:201,1,269.999992847443,2|0,3:1|0:0,0:0:0:0:
380,229,99913,2,0,B|444:239|479:157|479:157|401:137|358:196,1,269.999992847443,10|0,0:1|0:0,0:0:0:0:
310,139,100348,2,0,B|268:97|333:17|333:17|394:95|354:136,1,270.000003147125,2|0,3:1|0:0,0:0:0:0:
257,51,100674,1,0,3:0:0:0:
207,57,100782,1,8,0:0:0:0:
81,95,101000,1,0,3:0:0:0:
104,270,101218,5,0,3:0:0:0:
236,250,101434,1,2,0:1:0:0:
331,378,101652,1,8,0:0:0:0:
449,384,101870,2,0,P|399:291|405:184,1,215.999994277954,2|0,0:1|0:0,0:0:0:0:
470,131,102304,6,0,B|468:103|472:77|472:77|464:101|447:124,1,107.999993843079,0|0,3:0|0:0,0:0:0:0:
375,62,102521,2,0,B|365:35|362:9|362:9|361:34|350:61,1,107.999993843079,8|0,0:0|0:0,0:0:0:0:
229,78,102739,2,0,B|213:54|203:30|203:30|208:55|205:83,1,107.999993843079,0|0,3:0|0:0,0:0:0:0:
141,135,102956,6,0,B|79:114|31:188|31:188|104:221|157:171,1,269.999992847443,2|0,3:1|0:0,0:0:0:0:
230,155,103391,2,0,B|294:156|314:243|314:243|234:249|202:183,1,269.999992847443,10|0,0:1|0:0,0:0:0:0:
146,232,103826,2,0,B|97:266|147:356|147:356|221:289|188:242,1,270.000003147125,2|0,3:1|0:0,0:0:0:0:
225,335,104152,5,0,3:0:0:0:
260,341,104260,1,8,0:0:0:0:
423,329,104478,1,0,3:0:0:0:
348,248,104695,1,0,3:0:0:0:
343,136,104912,2,0,P|422:120|502:106,1,161.999990764618,2|8,0:1|0:0,0:0:0:0:
194,71,105347,2,0,P|114:55|34:41,1,161.999990764618,2|0,0:1|0:0,0:0:0:0:
181,167,105782,1,0,3:0:0:0:
90,196,105999,1,8,0:0:0:0:
94,219,106108,1,8,0:0:0:0:
97,237,106217,1,8,0:0:0:0:
255,364,106434,5,10,0:0:0:0:
278,236,106652,1,2,0:0:0:0:
232,114,106869,1,2,0:0:0:0:
423,316,107086,5,10,0:0:0:0:
396,222,107304,1,2,0:0:0:0:
336,145,107521,1,2,0:0:0:0:
512,180,107739,5,10,0:0:0:0:
466,133,107957,1,2,0:0:0:0:
406,108,108173,1,2,0:0:0:0:
467,25,108391,6,0,B|473:1|473:1|378:30|282:58|282:58|305:72,1,251.999985633851,6|0,0:0|0:0,0:0:0:0:
234,268,109043,2,0,L|216:143,1,125.999992816925,8|0,0:0|0:0,0:0:0:0:
108,83,109478,1,8,0:0:0:0:
103,132,109586,1,8,0:0:0:0:
97,182,109695,1,8,0:0:0:0:
92,232,109804,1,8,0:0:0:0:
97,282,109912,5,2,3:0:0:0:
249,256,110130,2,0,L|375:278,1,107.999993843079,0|8,0:0|0:0,0:0:0:0:
480,352,110565,2,0,L|436:231,1,107.999993843079,2|0,3:0|0:0,0:0:0:0:
392,348,110999,1,0,3:0:0:0:
448,104,111217,2,0,L|365:202,1,107.999993843079,8|0,0:0|0:0,0:0:0:0:
252,84,111652,6,0,L|131:127,1,107.999993843079,2|0,3:0|0:0,0:0:0:0:
124,148,111978,2,0,L|146:21,1,107.999993843079,2|0,0:0|0:0,0:0:0:0:
132,5,112304,2,0,L|230:87,2,107.999993843079,2|0|0,3:0|0:0|3:0,0:0:0:0:
32,32,112956,1,8,0:0:0:0:
32,32,113173,1,0,0:0:0:0:
48,256,113391,5,2,3:0:0:0:
224,252,113608,2,0,P|172:259|130:292,1,107.999993843079,0|8,0:0|0:0,0:0:0:0:
288,320,114043,2,0,P|386:348|485:274,1,215.999987686158,2|0,3:0|3:0,0:0:0:0:
512,159,114695,2,0,P|453:215|465:312,1,161.999990764618,8|0,0:0|0:0,0:0:0:0:
467,274,115130,1,2,3:0:0:0:
371,133,115347,2,0,P|319:80|284:68,1,107.999993843079,0|8,0:0|0:0,0:0:0:0:
195,62,115782,1,2,3:0:0:0:
16,224,116217,6,2,P|25:249|30:296,1,53.9999969215394,0|0,3:0|0:0,0:1:0:0:
113,291,116434,2,2,P|123:266|128:240,1,53.9999969215394,8|0,0:0|0:0,0:1:0:0:
178,346,116652,1,0,3:0:0:0:
454,292,116869,5,2,3:0:0:0:
384,224,117086,2,0,L|364:113,1,107.999993843079,0|8,0:0|0:0,0:0:0:0:
448,48,117521,2,0,L|341:29,1,107.999993843079,2|0,3:0|0:0,0:0:0:0:
272,96,117956,1,0,3:0:0:0:
128,64,118173,2,0,L|21:82,1,107.999993843079,8|0,0:0|0:0,0:0:0:0:
219,236,118608,6,0,P|176:205|122:205,1,107.999993843079,2|0,3:0|0:0,0:0:0:0:
92,257,118934,2,0,P|139:230|192:236,1,107.999993843079,2|0,0:0|0:0,0:0:0:0:
167,248,119260,2,0,P|118:270|92:316,2,107.999993843079,2|0|0,3:0|0:0|3:0,0:0:0:0:
352,320,119912,1,10,0:0:0:0:
352,320,120130,1,0,0:0:0:0:
512,192,120347,5,2,3:0:0:0:
432,128,120565,2,0,P|378:133|333:106,1,107.999993843079,0|8,0:0|0:0,0:0:0:0:
240,32,120999,2,0,P|144:99|37:68,1,215.999987686158,2|0,3:0|3:0,0:0:0:0:
224,176,121652,2,0,P|297:199|361:280,1,161.999990764618,8|0,0:0|0:0,0:0:0:0:
336,256,122086,1,2,3:0:0:0:
128,224,122304,2,0,P|52:227|3:189,1,107.999993843079,0|8,0:0|0:0,0:0:0:0:
240,352,122739,2,0,P|316:349|365:387,1,107.999993843079,2|0,3:0|0:0,0:0:0:0:
427,373,123173,5,0,3:0:0:0:
453,364,123282,1,8,0:0:0:0:
486,361,123391,1,8,0:0:0:0:
477,352,123499,1,8,0:0:0:0:
472,337,123608,1,0,3:0:0:0:
503,269,123825,6,0,P|468:232|461:130,1,143.999996185303,6|0,0:0|0:0,0:0:0:0:
350,33,124478,1,0,3:0:0:0:
304,160,124695,2,0,P|339:123|346:21,1,143.999996185303,2|8,3:2|0:0,0:0:0:0:
112,191,125565,6,0,P|69:173|31:169,1,71.9999980926514,2|0,3:2|0:0,0:0:0:0:
48,256,125999,1,2,0:0:0:0:
48,256,126217,2,0,P|75:279|95:308,1,71.9999980926514,0|0,3:0|0:0,0:0:0:0:
48,384,126652,1,0,0:0:0:0:
176,352,126869,2,0,P|208:336|235:313,1,71.9999980926514,8|0,0:0|0:0,0:0:0:0:
320,336,127304,1,2,3:2:0:0:
512,192,127739,5,0,0:0:0:0:
356,152,127956,2,0,P|383:175|416:192,1,71.9999980926514,2|0,3:2|0:0,0:0:0:0:
512,192,128391,1,0,0:0:0:0:
462,261,128608,1,10,0:0:0:0:
112,96,129043,6,0,P|55:60|-7:53,1,107.999997138977,2|0,3:2|0:0,0:0:0:0:
15,52,129478,1,0,0:0:0:0:
50,156,129695,2,0,P|107:120|226:204,1,215.999994277954,2|8,0:0|0:0,0:0:0:0:
495,338,130782,6,0,P|425:341|330:376,1,143.999996185303,2|0,3:2|0:0,0:0:0:0:
131,295,131434,1,0,3:0:0:0:
272,320,131652,2,0,P|202:317|107:282,1,143.999996185303,2|8,0:0|0:0,0:0:0:0:
418,52,132521,6,0,P|424:101|436:128,1,71.9999980926514,2|0,3:2|0:0,0:0:0:0:
335,117,132956,1,8,0:0:0:0:
335,117,133173,2,0,P|308:93|288:64,1,71.9999980926514,0|2,0:3|3:2,0:0:0:0:
0,128,133825,5,8,0:0:0:0:
89,156,134043,1,0,0:0:0:0:
111,223,134260,2,0,P|104:187|88:155,1,71.9999980926514,2|0,3:2|0:0,0:0:0:0:
64,304,134695,1,2,0:0:0:0:
192,288,134912,2,0,P|198:252|214:220,1,71.9999980926514,2|0,3:2|0:0,0:0:0:0:
144,384,135347,1,0,3:0:0:0:
421,223,135565,6,0,P|350:232|294:270,1,107.999997138977,8|0,0:0|0:0,0:0:0:0:
318,248,135999,1,2,3:2:0:0:
320,64,136434,5,0,0:0:0:0:
497,93,136652,2,0,P|446:81|398:38,1,107.999997138977,2|0,3:2|0:0,0:0:0:0:
240,32,137086,2,0,P|189:44|141:87,1,107.999997138977,2|0,0:0|0:0,0:0:0:0:
129,99,137521,1,8,0:0:0:0:
98,99,137630,1,8,0:0:0:0:
78,78,137739,1,0,0:0:0:0:
80,51,137956,5,4,0:3:0:0:
48,240,138173,2,0,L|64:334,1,71.9999980926514,8|0,0:3|0:0,0:0:0:0:
0,160,138608,1,4,3:0:0:0:
144,272,138825,1,4,3:0:0:0:
256,128,139043,1,4,3:0:0:0:
400,352,139260,1,14,0:0:0:0:
404,336,139912,5,2,0:0:0:0:
384,256,140347,1,2,0:0:0:0:
435,143,140782,5,4,0:3:0:0:
327,28,141217,6,0,P|196:15|90:93,1,269.999992847443,6|0,3:2|0:0,0:0:0:0:
95,218,141652,2,0,P|112:259|129:301,1,89.9999976158143,8|0,0:0|0:0,0:0:0:0:
204,266,141869,2,0,P|194:241|183:216,1,53.9999969215394
89,93,142086,6,0,P|219:84|303:183,1,269.999992847443,2|0,3:2|0:0,0:0:0:0:
309,277,142521,2,0,P|302:322|297:367,1,89.9999976158143,8|0,0:0|0:0,0:0:0:0:
210,352,142739,2,0,P|214:325|218:298,1,53.9999969215394
303,183,142956,5,2,3:2:0:0:
472,330,143173,1,0,0:0:0:0:
473,312,143282,1,4,3:0:0:0:
475,294,143391,2,0,L|481:205,1,89.9999976158143,8|0,0:0|0:0,0:0:0:0:
404,65,143608,1,2,3:2:0:0:
404,65,144043,2,2,P|330:55|302:125,1,161.999990764618,2|0,0:1|0:1,0:1:0:0:
302,125,144478,2,2,L|219:88,1,89.9999976158143,2|0,3:2|0:0,0:1:0:0:
32,25,144695,6,0,P|103:132|41:244,1,269.999992847443,6|0,3:2|0:0,0:0:0:0:
8,357,145130,2,0,P|52:350|97:345,1,89.9999976158143,8|0,0:0|0:0,0:0:0:0:
293,320,145347,1,0,3:0:0:0:
41,244,145565,1,0,3:0:0:0:
202,188,145782,1,0,0:0:0:0:
219,193,145891,1,0,3:0:0:0:
235,199,145999,2,0,P|278:211|321:224,1,89.9999976158143,8|0,0:0|0:0,0:0:0:0:
485,329,146217,6,0,P|432:314|380:300,1,107.999997138977,0|0,3:0|0:0,0:0:0:0:
490,197,146652,5,2,0:0:0:0:
455,186,146760,1,0,3:0:0:0:
419,182,146869,1,8,0:0:0:0:
495,70,147086,5,2,0:0:0:0:
473,65,147195,1,0,3:0:0:0:
451,65,147304,1,0,3:0:0:0:
308,81,147521,6,2,L|321:224,2,143.999996185303,2|10|2,0:0|0:0|0:0,0:1:0:0:
94,176,148173,6,0,P|219:142|321:224,1,269.999992847443,0|0,3:0|0:0,0:0:0:0:
254,284,148608,2,0,B|164:296,1,89.9999976158143,8|0,0:0|0:0,0:0:0:0:
0,319,148825,1,2,3:2:0:0:
0,319,149260,1,0,3:0:0:0:
69,234,149478,1,8,0:0:0:0:
259,186,149695,1,0,0:0:0:0:
365,226,149912,6,0,P|275:134|154:175,1,269.999992847443,2|0,3:2|3:0,0:0:0:0:
191,260,150347,2,0,L|278:279,1,89.9999976158143,8|0,0:0|0:0,0:0:0:0:
441,315,150565,1,2,3:2:0:0:
441,315,150999,1,0,3:0:0:0:
478,181,151217,1,10,0:0:0:0:
310,36,151434,1,8,0:0:0:0:
241,41,151543,1,8,0:0:0:0:
172,46,151652,6,0,L|118:50,1,53.9999985694885,12|0,0:0|0:0,0:0:0:0:
118,49,152086,2,0,P|156:73|175:114,1,89.9999976158143,10|0,0:0|0:0,0:0:0:0:
42,196,152304,1,0,3:0:0:0:
189,284,152521,6,0,L|242:280,1,53.9999985694885,4|0,0:0|0:0,0:0:0:0:
242,279,152956,2,0,P|212:248|211:204,1,89.9999976158143,8|0,0:0|0:0,0:0:0:0:
333,64,153173,1,0,3:0:0:0:
380,276,153391,6,0,L|386:329,1,53.9999985694885,12|0,0:0|0:0,0:0:0:0:
335,381,153825,6,0,L|363:221,1,161.999990764618,12|0,0:0|0:0,0:0:0:0:
386,329,154260,2,0,L|334:65,1,269.999992847443,4|0,3:2|0:0,0:0:0:0:
383,151,154695,2,0,L|259:127,1,125.999992816925,12|0,0:0|0:0,0:0:0:0:
65,92,154912,1,8,0:0:0:0:
90,27,155021,1,8,0:0:0:0:
137,81,155130,6,0,P|150:215|164:349,1,269.999992847443,6|0,3:2|0:0,0:0:0:0:
248,329,155565,2,0,P|251:284|253:239,1,89.9999976158143,8|0,0:0|0:0,0:0:0:0:
335,348,155782,2,0,P|332:321|329:294,1,53.9999969215394
417,310,155999,6,0,P|403:175|389:41,1,269.999992847443,2|0,3:2|0:0,0:0:0:0:
306,62,156434,2,0,P|302:106|300:151,1,89.9999976158143,8|0,0:0|0:0,0:0:0:0:
219,43,156652,2,0,P|220:69|222:96,1,53.9999969215394
138,84,156869,5,2,3:2:0:0:
130,309,157086,1,0,0:0:0:0:
149,311,157195,1,4,3:0:0:0:
173,312,157304,2,0,L|262:299,1,89.9999976158143,8|0,0:0|0:0,0:0:0:0:
431,274,157521,1,2,3:2:0:0:
431,274,157956,6,2,P|431:199|505:192,1,161.999990764618,2|0,0:1|0:1,0:1:0:0:
503,191,158391,2,2,L|417:162,1,89.9999976158143,2|0,3:2|0:0,0:1:0:0:
314,137,158608,6,0,L|44:149,1,269.999992847443,6|0,3:2|0:0,0:0:0:0:
91,234,159043,2,0,P|135:232|180:228,1,89.9999976158143,8|0,0:0|0:0,0:0:0:0:
316,218,159260,1,0,3:0:0:0:
94,334,159478,1,0,3:0:0:0:
371,354,159695,1,0,0:0:0:0:
379,333,159804,1,0,3:0:0:0:
387,312,159912,2,0,P|430:313|459:345,1,89.9999976158143,8|0,0:0|0:0,0:0:0:0:
488,230,160130,6,0,P|468:179|455:127,1,107.999997138977,0|0,3:0|0:0,0:0:0:0:
324,49,160565,5,2,0:0:0:0:
320,84,160673,1,0,3:0:0:0:
321,120,160782,1,8,0:0:0:0:
187,20,160999,5,2,0:0:0:0:
187,41,161108,1,0,3:0:0:0:
192,61,161217,1,0,3:0:0:0:
5,162,161434,6,2,P|76:171|147:181,2,143.999996185303,2|10|2,0:0|0:0|0:0,0:1:0:0:
197,250,162086,6,0,P|327:243|391:130,1,269.999992847443,2|0,3:2|0:0,0:0:0:0:
307,17,162521,2,0,L|302:106,1,89.9999976158143,8|0,0:0|0:0,0:0:0:0:
287,260,162739,2,0,P|159:231|99:114,1,269.999992847443,2|0,3:2|0:0,0:0:0:0:
110,31,163174,1,0,3:0:0:0:
30,158,163391,1,8,0:0:0:0:
73,303,163608,1,0,0:0:0:0:
147,351,163825,6,0,P|273:339|311:217,1,269.999992847443,2|0,3:2|3:0,0:0:0:0:
315,130,164260,2,0,L|404:126,1,89.9999976158143,8|0,0:0|0:0,0:0:0:0:
492,13,164478,2,0,P|364:13|315:131,1,269.999992847443,2|0,3:2|0:0,0:0:0:0:
311,217,164913,1,0,3:0:0:0:
365,344,165130,1,10,0:0:0:0:
120,384,165347,1,8,0:0:0:0:
100,319,165456,1,8,0:0:0:0:
76,253,165565,6,0,L|23:239,1,53.9999985694885,8|0,0:0|0:0,0:0:0:0:
23,239,165999,2,2,B|50:201|50:201|41:158,1,89.9999976158143,4|0,0:3|0:1,0:1:0:0:
26,12,166217,1,0,0:0:0:0:
232,22,166434,6,0,L|285:25,1,53.9999985694885,2|0,0:0|0:0,0:0:0:0:
285,25,166869,2,2,B|306:63|306:63|293:108,1,89.9999976158143,4|0,0:3|0:0,0:1:0:0:
267,243,167086,1,0,0:0:0:0:
383,346,167304,6,0,L|446:342,1,53.9999985694885,2|0,0:0|0:0,0:0:0:0:
436,342,167739,2,0,P|427:280|490:286,1,143.999996185303,4|0,0:3|0:0,0:0:0:0:
488,95,168173,5,8,0:3:0:0:
368,90,168463,1,8,0:3:0:0:
266,30,168753,1,4,0:3:0:0:
157,165,169043,5,4,0:0:0:0:
80,205,169260,1,0,0:0:0:0:
57,289,169478,1,8,0:0:0:0:
157,146,169695,5,0,3:0:0:0:
85,313,169912,1,0,3:0:0:0:
237,359,170130,1,2,0:0:0:0:
281,356,170239,1,2,0:0:0:0:
311,331,170347,1,8,0:0:0:0:
262,237,170565,1,2,3:2:0:0:
296,138,170782,1,0,3:0:0:0:
391,97,170999,6,2,L|444:103,1,53.9999969215394,0|0,3:0|0:1,0:1:0:0:
221,69,171217,2,2,L|131:59,1,89.9999976158143,8|0,0:0|0:1,0:1:0:0:
221,69,171652,5,2,0:0:0:0:
125,75,171941,1,2,0:0:0:0:
51,137,172231,1,2,0:0:0:0:
105,309,172521,5,4,0:0:0:0:
187,253,172739,1,0,0:0:0:0:
279,272,172956,1,8,0:0:0:0:
105,348,173173,5,0,3:0:0:0:
284,312,173391,1,0,3:0:0:0:
432,366,173608,1,2,0:0:0:0:
419,336,173717,1,2,0:0:0:0:
419,299,173825,1,8,0:0:0:0:
481,207,174043,1,2,3:2:0:0:
420,99,174260,1,0,3:0:0:0:
305,82,174478,6,2,L|265:1,1,89.9999976158143,0|0,3:0|0:1,0:1:0:0:
235,240,174695,2,2,L|274:320,1,89.9999976158143,8|0,0:0|0:1,0:1:0:0:
176,371,174912,1,0,0:0:0:0:
18,358,175130,5,8,0:3:0:0:
144,289,175420,1,8,0:3:0:0:
126,145,175710,1,4,0:3:0:0:
18,70,175999,5,4,0:0:0:0:
107,15,176217,1,0,0:0:0:0:
201,38,176434,1,8,0:0:0:0:
25,98,176652,5,0,3:0:0:0:
202,63,176869,1,0,3:0:0:0:
280,124,177086,1,2,0:0:0:0:
316,128,177195,1,2,0:0:0:0:
349,118,177304,1,8,0:0:0:0:
418,44,177521,1,2,3:2:0:0:
494,122,177739,1,0,3:0:0:0:
421,198,177956,6,2,P|422:224|425:251,1,53.9999969215394,0|0,3:0|0:1,0:1:0:0:
254,350,178173,2,2,L|247:260,1,89.9999976158143,8|0,0:0|0:1,0:1:0:0:
234,144,178391,1,0,0:0:0:0:
144,216,178608,5,2,0:0:0:0:
82,134,178898,1,2,0:0:0:0:
70,37,179188,1,2,0:0:0:0:
154,303,179478,5,4,0:0:0:0:
75,234,179695,1,0,0:0:0:0:
64,133,179912,1,8,0:0:0:0:
178,293,180130,5,0,3:0:0:0:
90,116,180347,1,0,3:0:0:0:
182,52,180565,1,2,0:0:0:0:
212,57,180673,1,2,0:0:0:0:
238,80,180782,1,8,0:0:0:0:
284,174,180999,1,2,3:2:0:0:
263,288,181217,1,0,3:0:0:0:
352,356,181434,5,8,0:0:0:0:
370,324,181543,1,8,0:0:0:0:
372,288,181652,1,8,0:0:0:0:
358,254,181760,1,8,0:0:0:0:
340,222,181869,1,8,0:0:0:0:
311,199,181978,1,8,0:0:0:0:
356,179,182086,5,8,0:0:0:0:
363,143,182195,1,8,0:0:0:0:
379,110,182304,1,8,0:0:0:0:
406,86,182412,1,8,0:0:0:0:
441,80,182521,1,8,0:0:0:0:
200,110,182739,6,0,P|177:113|155:116,2,44.9999988079071,8|8|8,0:0|0:0|0:0,0:0:0:0:
240,48,182956,1,8,0:0:0:0:
240,48,183233,6,0,P|153:37|80:86,1,179.999995231629,14|0,0:1|0:0,0:0:0:0:
0,254,183566,2,0,P|86:252|140:321,1,179.999995231629,14|0,0:1|0:0,0:0:0:0:
327,366,183881,6,0,P|406:363|461:306,1,161.999990764618,14|0,0:1|0:0,0:0:0:0:
491,179,184181,2,0,P|418:198|371:138,1,161.999990764618,14|0,0:1|0:0,0:0:0:0:
231,305,184481,2,0,P|291:258|267:186,1,161.999990764618,14|0,0:1|0:0,0:0:0:0:
32,374,184781,1,14,0:1:0:0:
256,192,184945,12,0,187253,0:0:0:0:
256,192,187418,6,0,L|256:147,2,44.9999988079071,4|0|8,3:2|3:0|3:0,0:0:0:0:
258,273,187654,1,4,0:0:0:0:
