osu file format v14

[General]
AudioFilename: audio.mp3
AudioLeadIn: 0
PreviewTime: 57956
Countdown: 0
SampleSet: Soft
StackLeniency: 0.3
Mode: 0
LetterboxInBreaks: 0
WidescreenStoryboard: 0

[Editor]
Bookmarks: 1019,20365,42974,60367,74280,88193,110801,124714,142106,156019,169930,183843,188626
DistanceSpacing: 0.4
BeatDivisor: 4
GridSize: 16
TimelineZoom: 2.4

[Metadata]
Title:Akio
TitleUnicode:秋绪
Artist:Tainaka Sachi
ArtistUnicode:タイナカ彩智
Creator:Shurelia
Version:Aeril x ScubDomino's Insane
Source:明日方舟
Tags:Arknights アークナイツ Studio Montagne Beginning Autumn Angelina Ajimu Croissant Penguin Logistic Rhodes Island Japanese Video Game gacha Juno Yamakawa Etsuko 山川恵津子 Yostar Hypergryph Pop Aeril ScubDomino Keqing Iljaaz Nines Tsuchimikado Kalibe Glaze Ducky- Kirylln -_Heatwave_-
BeatmapID:2687288
BeatmapSetID:1287052

[Difficulty]
HPDrainRate:6.4
CircleSize:4.7
OverallDifficulty:7
ApproachRate:8.5
SliderMultiplier:1.4
SliderTickRate:1

[Events]
//Background and Video events
0,0,"ceobebgbg.jpg",0,0
//Break Periods
//Storyboard Layer 0 (Background)
//Storyboard Layer 1 (Fail)
//Storyboard Layer 2 (Pass)
//Storyboard Layer 3 (Foreground)
//Storyboard Layer 4 (Overlay)
//Storyboard Sound Samples

[TimingPoints]
179,461.538461538462,4,2,1,44,1,0
179,-50,4,2,1,44,0,0
640,588.235294117647,4,2,1,72,1,0
640,-26.3157894736842,4,2,1,72,0,0
934,666.666666666667,4,2,1,72,1,0
934,-26.3157894736842,4,2,1,72,0,0
1267,600,4,2,1,72,1,0
1267,-66.6666666666667,4,2,1,72,0,0
1567,545.454545454546,4,2,1,72,1,0
2112,428.571428571429,4,2,1,60,1,0
2112,-133.333333333333,4,2,1,60,0,0
3719,-166.666666666667,4,2,1,65,0,0
3826,434.782608695652,4,2,1,77,1,0
3826,-58.8235294117647,4,2,1,77,0,0
4260,-200,4,2,1,77,0,0
4695,-133.333333333333,4,2,1,77,0,0
5130,-149.253731343284,4,2,1,77,0,0
5456,-149.253731343284,4,2,1,5,0,0
5565,-100,4,2,1,60,0,0
5891,-100,4,2,1,5,0,0
5999,-100,4,2,1,60,0,0
6760,-100,4,2,1,5,0,0
6869,-100,4,2,1,60,0,0
8391,-58.8235294117647,4,2,1,60,0,0
9043,-66.6666666666667,4,2,1,60,0,0
9369,-66.6666666666667,4,2,1,5,0,0
9478,-100,4,2,1,60,0,0
11869,-58.8235294117647,4,2,1,60,0,0
12521,-100,4,2,1,60,0,0
16000,-50,4,2,1,60,0,0
16760,-50,4,2,1,5,0,0
16869,-50,4,2,1,60,0,0
17630,-50,4,2,1,5,0,0
17739,-50,4,2,1,60,0,0
18499,-50,4,2,1,5,0,0
18608,-100,4,2,1,60,0,0
19478,-66.6666666666667,4,2,1,60,0,0
19804,-66.6666666666667,4,2,1,5,0,0
19912,-66.6666666666667,4,2,1,60,0,0
20347,-100,4,2,1,60,0,0
22086,-66.6666666666667,4,2,1,60,0,0
22521,-100,4,2,1,60,0,0
23282,-100,4,2,1,5,0,0
23391,-100,4,2,1,60,0,0
24152,-100,4,2,1,5,0,0
24260,-100,4,2,1,60,0,0
27739,-100,4,2,99,60,0,0
28173,-100,4,2,1,53,0,0
28499,-100,4,2,1,5,0,0
28608,-100,4,2,1,53,0,0
31543,-100,4,2,1,5,0,0
31652,-100,4,2,1,53,0,0
32630,-100,4,2,1,5,0,0
32739,-100,4,2,1,53,0,0
33282,-100,4,2,1,5,0,0
33391,-100,4,2,1,53,0,0
34369,-100,4,2,1,5,0,0
34478,-58.8235294117647,4,2,1,53,0,0
35130,-100,4,2,1,53,0,0
37847,-100,4,2,1,5,0,0
37956,-100,4,2,1,53,0,0
38499,-100,4,2,1,5,0,0
38608,-100,4,2,1,53,0,0
40239,-100,4,2,1,5,0,0
40347,-100,4,2,1,53,0,0
42086,-133.333333333333,4,2,1,47,0,0
45565,-83.3333333333333,4,2,1,47,0,0
46217,-200,4,2,1,47,0,0
46543,-200,4,2,1,5,0,0
46652,-200,4,2,1,47,0,0
46869,-133.333333333333,4,2,1,47,0,0
47195,-133.333333333333,4,2,1,5,0,0
47304,-133.333333333333,4,2,1,47,0,0
48499,-133.333333333333,4,2,1,5,0,0
48608,-133.333333333333,4,2,1,47,0,0
52521,-83.3333333333333,4,2,1,47,0,0
53173,-200,4,2,1,47,0,0
53499,-200,4,2,1,5,0,0
53608,-200,4,2,1,47,0,0
53825,-133.333333333333,4,2,1,47,0,0
54152,-133.333333333333,4,2,1,5,0,0
54260,-133.333333333333,4,2,1,47,0,0
55999,-133.333333333333,4,2,1,36,0,0
56434,-83.3333333333333,4,2,1,36,0,0
56760,-83.3333333333333,4,2,1,5,0,0
56869,-83.3333333333333,4,2,1,36,0,0
58173,-200,4,2,1,36,0,0
58607,-133.333333333333,4,2,1,36,0,0
59042,-150.01500150015,4,2,1,36,0,0
59369,-150.01500150015,4,2,1,5,0,0
59477,-100,4,2,1,60,0,0
59804,-100,4,2,1,5,0,0
59912,-100,4,2,1,60,0,0
60673,-100,4,2,1,5,0,0
60782,-100,4,2,1,60,0,0
62630,-100,4,2,1,5,0,0
62739,-100,4,2,1,60,0,0
62955,-66.6666666666667,4,2,1,60,0,0
63282,-66.6666666666667,4,2,1,5,0,0
63390,-100,4,2,1,60,0,0
65673,-100,4,2,1,5,0,0
65781,-58.8235294117647,4,2,1,60,0,0
66434,-100,4,2,1,60,0,0
69912,-100,4,2,1,60,0,0
70239,-100,4,2,1,5,0,0
70347,-66.6666666666667,4,2,1,60,0,0
70781,-100,4,2,1,60,0,0
71108,-100,4,2,1,5,0,0
71216,-66.6666666666667,4,2,1,60,0,0
71651,-100,4,2,1,60,0,0
71978,-100,4,2,1,5,0,0
72086,-66.6666666666667,4,2,1,60,0,0
73390,-100,4,2,1,60,0,0
73717,-100,4,2,1,5,0,0
73825,-100,4,2,1,60,0,0
74586,-100,4,2,1,5,0,0
74695,-100,4,2,1,60,0,0
76216,-58.8235294117647,4,2,1,60,0,0
76868,-66.6666666666667,4,2,1,60,0,0
77195,-66.6666666666667,4,2,1,5,0,0
77303,-100,4,2,1,60,0,0
79694,-58.8235294117647,4,2,1,60,0,0
80347,-100,4,2,1,60,0,0
83825,-100,4,2,1,60,0,0
84152,-100,4,2,1,5,0,0
84260,-66.6666666666667,4,2,1,60,0,0
84694,-100,4,2,1,60,0,0
85021,-100,4,2,1,5,0,0
85129,-66.6666666666667,4,2,1,60,0,0
85564,-100,4,2,1,60,0,0
85891,-100,4,2,1,5,0,0
85999,-66.6666666666667,4,2,1,60,0,0
87303,-100,4,2,1,60,0,0
87630,-100,4,2,1,5,0,0
87739,-100,4,2,1,60,0,0
89804,-100,4,2,1,5,0,0
89912,-100,4,2,1,60,0,0
91108,-100,4,2,1,5,0,0
91217,-100,4,2,1,60,0,0
95564,-66.6666666666667,4,2,1,60,0,0
99042,-100,4,2,1,60,0,0
99369,-100,4,2,1,5,0,0
99477,-66.6666666666667,4,2,1,60,0,0
102195,-66.6666666666667,4,2,1,5,0,0
102304,-66.6666666666667,4,2,1,60,0,0
108390,-83.3333333333333,4,2,1,60,0,0
109912,-100,4,2,1,53,0,0
110891,-100,4,2,1,5,0,0
110999,-100,4,2,1,53,0,0
114369,-100,4,2,1,5,0,0
114478,-100,4,2,1,53,0,0
116108,-100,4,2,1,5,0,0
116216,-58.8235294117647,4,2,1,53,0,0
116868,-100,4,2,1,53,0,0
121978,-100,4,2,1,5,0,0
122086,-100,4,2,1,53,0,0
123825,-100,4,2,1,47,0,0
124694,-133.333333333333,4,2,1,47,0,0
134260,-83.3333333333333,4,2,1,47,0,0
134912,-200,4,2,1,47,0,0
135239,-200,4,2,1,5,0,0
135347,-200,4,2,1,47,0,0
135564,-133.333333333333,4,2,1,47,0,0
135891,-133.333333333333,4,2,1,5,0,0
135999,-133.333333333333,4,2,1,47,0,0
136978,-133.333333333333,4,2,1,5,0,0
137086,-133.333333333333,4,2,1,47,0,0
138499,-133.333333333333,4,2,1,5,0,0
138608,-133.333333333333,4,2,1,47,0,0
139260,-57.1428571428571,4,2,1,47,0,0
139477,-79.9999999999999,4,2,1,47,0,0
140781,-150.01500150015,4,2,1,47,0,0
141108,-150.01500150015,4,2,1,5,0,0
141216,-100,4,2,1,60,0,0
141543,-100,4,2,1,5,0,0
141652,-100,4,2,1,60,0,0
142412,-100,4,2,1,5,0,0
142521,-100,4,2,1,60,0,0
144042,-58.8235294117647,4,2,1,60,0,0
144694,-66.6666666666667,4,2,1,60,0,0
145021,-66.6666666666667,4,2,1,5,0,0
145129,-100,4,2,1,60,0,0
147521,-58.8235294117647,4,2,1,60,0,0
148173,-100,4,2,1,60,0,0
148499,-100,4,2,1,5,0,0
148608,-100,4,2,1,60,0,0
151651,-100,4,2,1,60,0,0
151978,-100,4,2,1,5,0,0
152086,-66.6666666666667,4,2,1,60,0,0
152521,-100,4,2,1,60,0,0
152847,-100,4,2,1,5,0,0
152955,-66.6666666666667,4,2,1,60,0,0
153390,-100,4,2,1,60,0,0
153717,-100,4,2,1,5,0,0
153825,-66.6666666666667,4,2,1,60,0,0
155456,-66.6666666666667,4,2,1,5,0,0
155565,-66.6666666666667,4,2,1,60,0,0
156325,-66.6666666666667,4,2,1,5,0,0
156434,-66.6666666666667,4,2,1,60,0,0
158934,-66.6666666666667,4,2,1,5,0,0
159043,-66.6666666666667,4,2,1,60,0,0
159477,-100,4,2,1,60,0,0
160999,-66.6666666666667,4,2,1,60,0,0
161325,-66.6666666666667,4,2,1,5,0,0
161434,-58.8235294117647,4,2,1,60,0,0
162086,-100,4,2,1,60,0,0
165999,-66.6666666666667,4,2,1,60,0,0
169477,-100,4,2,1,60,0,0
171543,-100,4,2,1,5,0,0
171651,-66.6666666666667,4,2,1,60,0,0
172086,-100,4,2,1,60,0,0
175021,-100,4,2,1,5,0,0
175130,-100,4,2,1,60,0,0
178499,-100,4,2,1,5,0,0
178607,-66.6666666666667,4,2,1,60,0,0
179042,-100,4,2,1,60,0,0
182956,555.555555555556,4,2,1,60,1,0
182962,-200,4,2,1,60,0,0
183233,666.666666666667,4,2,1,77,1,0
183233,-44.4444444444445,4,2,1,77,0,0
183566,631.578947368421,4,2,1,77,1,0
183566,-44.4444444444445,4,2,1,77,0,0
183881,600,4,2,1,77,1,0
183881,-44.4444444444445,4,2,1,77,0,0
184781,659.340659340659,4,2,1,77,1,0
184781,-108.695652173913,4,2,1,77,0,0
187418,631.578947368421,4,2,97,77,1,0
187418,-50,4,2,97,77,0,0
187575,-50,4,2,1,77,0,0

[Colours]
Combo1 : 250,180,240
Combo2 : 120,200,230
Combo3 : 255,230,130
Combo4 : 160,230,150

[HitObjects]
83,299,179,6,0,L|74:261,3,35,4|4|4|4,0:3|0:3|0:3|0:3,0:0:0:0:
75,306,640,6,0,P|109:249|188:261,1,132.999996448517,14|0,0:1|0:0,0:0:0:0:
194,71,934,2,0,P|251:104|239:183,1,132.999996448517,14|0,0:1|0:0,0:0:0:0:
259,161,1267,5,14,1:0:0:0:
391,148,1567,1,14,0:1:0:0:
480,246,1839,1,14,0:1:0:0:
454,0,2112,6,0,B|425:288|425:288|419:348|463:385,1,393.750015020371,14|0,0:1|0:0,0:0:0:0:
462,182,3826,2,0,L|447:128,1,29.7500005674362,8|0,0:0|0:0,0:0:0:0:
470,87,4260,5,0,0:0:0:0:
470,86,4695,5,0,0:0:0:0:
470,86,5130,6,0,L|484:0,1,70.3499966722871,4|0,0:3|0:0,0:0:0:0:
474,350,5565,6,0,P|482:310|425:241,1,105,6|0,3:2|0:0,0:0:0:0:
303,300,5999,2,0,P|345:290|371:264,1,70,8|0,0:0|0:0,0:0:0:0:
460,305,6434,6,0,P|447:266|363:235,1,105,2|0,3:2|0:0,0:0:0:0:
286,347,6869,2,0,P|317:317|326:281,1,70,8|0,0:0|0:0,0:0:0:0:
178,103,7304,5,2,3:2:0:0:
3,68,7521,1,0,0:0:0:0:
7,78,7630,1,4,3:0:0:0:
11,88,7739,1,8,0:0:0:0:
186,83,7956,1,2,3:2:0:0:
92,136,8173,1,0,0:0:0:0:
40,359,8391,6,2,B|11:381|-2:370|-2:370|1:242|153:244,1,238.00000453949,2|2,0:1|3:2,0:1:0:0:
335,286,9043,6,0,B|395:279|449:317|449:317|448:285|406:267,1,157.500006008148,6|0,3:2|0:0,0:0:0:0:
488,236,9478,2,0,P|442:213|397:223,1,70,8|0,0:0|3:0,0:0:0:0:
411,62,9912,2,0,P|368:90|354:134,1,70,0|0,3:0|0:0,0:0:0:0:
221,42,10239,1,0,3:0:0:0:
221,42,10347,2,0,P|224:93|255:127,1,70,8|0,0:0|3:0,0:0:0:0:
298,163,10782,5,0,0:0:0:0:
133,309,10999,2,0,L|144:384,1,70,2|8,0:0|0:0,0:0:0:0:
361,223,11434,2,0,L|350:298,1,70,2|0,0:0|3:0,0:0:0:0:
53,349,11869,6,2,P|115:354|164:185,1,238.00000453949,2|2,0:0|0:0,0:1:0:0:
105,76,12521,6,0,P|44:64|10:-18,1,140,2|8,3:2|0:0,0:0:0:0:
44,115,13173,1,2,3:2:0:0:
44,115,13608,1,0,3:0:0:0:
105,76,13825,1,8,0:0:0:0:
175,94,14043,1,0,0:0:0:0:
340,148,14260,6,0,P|401:136|435:54,1,140,2|8,3:2|0:0,0:0:0:0:
350,66,14912,1,2,3:2:0:0:
350,66,15347,5,0,3:0:0:0:
373,232,15565,1,10,0:0:0:0:
413,345,15782,5,8,0:0:0:0:
411,354,15891,1,8,0:0:0:0:
409,363,15999,5,8,0:0:0:0:
409,363,16434,2,2,P|394:283|520:161,1,210,4|0,0:3|0:0,0:1:0:0:
508,238,16869,5,2,0:0:0:0:
508,238,17304,2,2,P|431:210|388:40,1,210,4|0,0:3|0:0,0:1:0:0:
449,90,17739,5,2,0:0:0:0:
449,90,18173,2,2,P|386:142|217:94,1,210,4|0,0:3|0:0,0:1:0:0:
23,32,18608,5,8,0:3:0:0:
89,44,18898,1,8,0:3:0:0:
155,57,19188,1,4,0:3:0:0:
221,70,19478,6,0,P|228:136|150:190,1,157.500006008148,4|0,0:0|0:0,0:0:0:0:
223,252,19912,5,8,0:0:0:0:
80,185,20130,1,0,3:0:0:0:
280,207,20347,2,0,P|296:256|283:304,1,70,0|2,3:0|0:0,0:0:0:0:
208,267,20782,5,8,0:0:0:0:
87,165,20999,1,2,3:2:0:0:
274,238,21217,2,0,P|276:289|251:332,1,70,0|0,3:0|3:0,0:0:0:0:
444,172,21652,2,2,L|515:188,1,70,8|0,0:0|0:0,0:1:0:0:
420,357,22086,6,0,P|396:311|321:285,1,105.000004005432,2|0,0:0|0:0,0:0:0:0:
270,306,22412,1,0,0:0:0:0:
270,306,22521,2,0,L|252:398,1,70
45,295,22956,6,0,P|14:232|27:173,1,105,4|0,0:0|0:0,0:0:0:0:
6,126,23391,5,8,0:0:0:0:
135,188,23608,1,0,3:0:0:0:
123,41,23825,2,0,P|68:40|1:71,1,105,0|2,3:0|0:0,0:0:0:0:
16,63,24260,6,0,L|35:-8,1,70,8|2,0:0|3:2,0:0:0:0:
204,142,24695,2,0,L|218:225,1,70,0|0,3:0|3:0,0:0:0:0:
321,71,25130,5,8,0:0:0:0:
219,221,25347,1,0,0:0:0:0:
316,45,25565,5,2,0:0:0:0:
319,57,25673,1,2,0:0:0:0:
394,67,25891,5,0,0:0:0:0:
397,79,25999,1,8,0:0:0:0:
471,99,26217,6,8,L|475:121,2,17.5
512,192,26434,6,0,L|448:192,1,35,8|8,0:0|0:0,0:0:0:0:
400,224,26652,5,8,0:0:0:0:
400,224,26760,6,0,L|336:224,1,35,8|8,0:3|0:0,0:0:0:0:
272,192,26978,6,0,L|208:192,1,35,8|8,0:0|0:3,0:0:0:0:
160,224,27195,5,8,0:0:0:0:
160,224,27304,6,0,L|96:224,1,35,8|4,0:0|0:3,0:0:0:0:
48,192,27521,6,0,L|-16:192,1,35,8|8,0:0|0:0,0:0:0:0:
0,80,27739,5,6,0:0:0:0:
83,366,28173,6,0,P|117:336|199:338,1,105,2|0,3:0|0:0,0:0:0:0:
188,332,28608,1,8,0:0:0:0:
104,312,28825,2,0,P|71:256|-21:258,1,140,2|0,3:0|3:0,0:0:0:0:
154,249,29478,2,0,P|149:204|170:164,1,70,8|0,0:0|0:0,0:0:0:0:
313,230,29912,6,0,P|317:295|259:351,1,140,2|8,3:0|0:0,0:0:0:0:
410,193,30565,2,0,P|401:242|434:197,1,140,2|0,3:0|3:0,0:0:0:0:
449,132,31108,1,0,0:0:0:0:
449,132,31217,2,0,P|452:95|507:41,1,105,8|0,0:0|0:0,0:0:0:0:
410,193,31652,6,0,P|407:230|308:277,1,140,2|8,3:0|0:0,0:0:0:0:
290,112,32304,2,0,P|289:159|352:207,1,105,2|0,3:0|0:0,0:0:0:0:
335,207,32739,1,0,3:0:0:0:
399,351,32956,2,0,P|435:337|503:361,1,105,8|0,0:0|0:0,0:0:0:0:
497,362,33391,6,0,L|516:280,2,70,2|0|8,3:0|0:0|0:0,0:0:0:0:
392,285,34043,2,0,P|386:334|318:370,1,105,2|0,3:0|0:0,0:0:0:0:
245,354,34478,2,2,B|274:359|285:308|285:308|239:269|163:285|149:366,1,238.00000453949,0|0,3:0|3:0,0:1:0:0:
42,250,35130,6,0,P|112:264|145:337,1,140,2|8,3:0|0:0,0:0:0:0:
139,122,35782,2,0,P|115:164|132:259,1,140,2|0,3:0|3:0,0:0:0:0:
28,94,36434,2,0,P|28:152|43:180,1,70,8|0,0:0|0:0,0:0:0:0:
200,212,36869,6,0,L|348:186,1,140,2|8,3:0|0:0,0:0:0:0:
512,223,37521,2,0,L|403:242,1,105,2|0,3:0|0:0,0:0:0:0:
401,242,37956,1,2,3:0:0:0:
446,323,38173,2,0,B|475:310|475:310|452:409,1,105,10|0,0:0|0:0,0:0:0:0:
401,242,38608,6,0,P|383:279|270:277,1,140,2|8,3:0|0:0,0:0:0:0:
308,93,39260,2,0,P|326:56|439:58,1,140,2|0,3:0|3:0,0:0:0:0:
357,174,39912,2,0,P|317:142|307:92,1,105,8|0,0:0|0:0,0:0:0:0:
257,37,40347,5,2,3:0:0:0:
198,155,40565,2,0,P|143:144|113:122,1,70,0|8,0:0|0:0,0:0:0:0:
60,63,40999,1,2,3:0:0:0:
255,347,41434,1,0,3:0:0:0:
313,229,41652,2,0,P|348:232|366:243,2,35,8|8|0,0:0|0:0|3:0,0:0:0:0:
452,321,42086,6,0,B|400:307|401:334|334:311,1,105.000004005432,4|0,3:2|0:0,0:0:0:0:
348,315,42739,1,0,3:0:0:0:
348,315,42956,6,0,B|400:328|385:351|455:365,1,105.000004005432,2|8,3:2|0:0,0:0:0:0:
490,261,43608,1,0,0:0:0:0:
481,148,43825,6,0,P|503:111|492:49,1,105.000004005432,2|2,3:2|3:2,0:0:0:0:
429,92,44478,1,0,3:0:0:0:
491,127,44695,2,0,P|447:126|399:166,1,105.000004005432,2|10,3:2|0:0,0:0:0:0:
400,162,45565,6,0,P|305:163|270:74,1,167.999994873047,2|0,3:2|0:0,0:0:0:0:
226,315,46217,6,0,L|215:379,1,52.5,2|0,3:2|0:0,0:0:0:0:
215,378,46652,1,0,0:0:0:0:
78,282,46869,6,0,P|111:278|147:233,1,78.7500030040742,8|0,0:0|0:0,0:0:0:0:
115,307,47304,6,0,P|115:256|68:207,1,105.000004005432,2|0,3:2|0:0,0:0:0:0:
154,51,47956,2,0,P|109:25|29:53,1,131.25000500679,2|0,3:2|0:0,0:0:0:0:
91,106,48608,5,8,0:0:0:0:
91,106,49043,6,0,B|143:119|128:142|198:156,1,105.000004005432,4|0,3:2|0:0,0:0:0:0:
184,152,49695,1,0,3:0:0:0:
184,152,49912,6,0,B|132:137|133:164|66:141,1,105.000004005432,2|8,3:2|0:0,0:0:0:0:
195,69,50565,1,0,0:0:0:0:
318,129,50782,6,0,P|361:108|430:130,1,105.000004005432,2|0,3:2|0:0,0:0:0:0:
375,192,51434,1,0,3:0:0:0:
364,49,51652,2,0,P|360:96|307:145,1,105.000004005432,2|8,3:2|0:0,0:0:0:0:
324,138,52521,6,0,P|267:182|273:300,1,167.999994873047,0|0,3:0|0:0,0:0:0:0:
435,368,53173,6,0,L|493:361,1,52.5,2|0,3:2|0:0,0:0:0:0:
498,361,53608,1,0,3:0:0:0:
335,273,53825,2,0,L|421:283,1,78.7500030040742,8|0,0:0|0:0,0:0:0:0:
373,336,54260,6,0,P|352:312|374:231,1,105.000004005432,2|0,3:2|0:0,0:0:0:0:
411,45,54912,2,0,P|442:38|501:98,1,105.000004005432,2|0,3:2|0:0,0:0:0:0:
345,3,55565,5,8,0:0:0:0:
447,135,55782,1,8,0:0:0:0:
448,144,55891,1,8,0:0:0:0:
449,153,55999,1,0,3:0:0:0:
449,153,56217,5,8,0:3:0:0:
251,250,56434,2,0,L|239:386,1,125.999996154785,4|0,0:3|0:0,0:0:0:0:
119,315,56869,5,8,0:3:0:0:
370,337,57086,1,8,0:3:0:0:
392,86,57304,1,8,0:3:0:0:
141,64,57521,1,14,0:0:0:0:
73,85,58173,5,2,0:0:0:0:
73,84,58608,5,2,0:0:0:0:
73,84,59043,6,0,L|59:-2,1,69.9930009847038,4|0,0:3|0:0,0:0:0:0:
357,127,59478,6,0,P|369:193|348:242,1,105,6|0,3:2|0:0,0:0:0:0:
349,240,59912,1,8,0:0:0:0:
505,97,60130,1,0,0:0:0:0:
497,270,60347,6,0,P|485:336|506:385,1,105,2|0,3:2|0:0,0:0:0:0:
505,383,60782,1,8,0:0:0:0:
349,240,60999,1,0,0:0:0:0:
185,328,61217,6,0,P|234:324|281:348,1,70,2|0,3:2|0:0,0:0:0:0:
502,258,61652,2,0,P|455:274|413:263,1,70,8|2,0:0|3:2,0:0:0:0:
374,228,61978,1,0,0:0:0:0:
374,228,62086,1,0,0:0:0:0:
136,249,62304,6,2,P|123:293|55:324,1,105,2|0,0:1|0:1,0:1:0:0:
62,250,62739,1,2,3:2:0:0:
240,378,62956,6,0,B|304:356|304:356|317:329|317:329|408:300,1,157.500006008148,6|0,3:2|0:0,0:0:0:0:
442,292,63391,2,0,P|456:241|446:208,1,70,8|0,0:0|3:0,0:0:0:0:
219,242,63825,2,0,P|205:293|215:326,1,70,0|0,3:0|0:0,0:0:0:0:
410,373,64260,5,8,0:0:0:0:
328,225,64478,1,0,3:0:0:0:
328,225,64586,1,0,0:0:0:0:
328,225,64695,6,0,L|305:131,1,70,0|2,0:0|0:0,0:0:0:0:
467,18,65130,1,8,0:0:0:0:
317,151,65347,6,0,L|345:262,1,105,2|0,0:0|0:0,0:0:0:0:
423,175,65782,2,2,P|309:183|222:56,1,238.00000453949,2|2,0:0|0:0,0:1:0:0:
0,176,66434,6,0,P|52:181|101:254,1,140,2|8,3:2|0:0,0:0:0:0:
103,259,67086,1,2,3:2:0:0:
45,104,67304,6,0,P|69:76|105:57,2,70,0|0|8,0:0|3:0|0:0,0:0:0:0:
103,259,67956,1,0,0:0:0:0:
144,343,68173,6,0,P|137:256|194:213,1,140,2|8,3:2|0:0,0:0:0:0:
8,346,68825,2,0,P|59:368|97:366,1,70,2|0,3:2|0:0,0:0:0:0:
254,186,69260,5,0,3:0:0:0:
139,221,69478,1,10,0:0:0:0:
289,341,69695,5,8,0:0:0:0:
122,225,69912,6,0,P|112:203|142:228,1,105,12|0,0:0|0:0,0:0:0:0:
163,282,70347,2,0,B|153:347|183:327|172:401,1,105.000004005432,10|0,0:0|3:0,0:0:0:0:
155,114,70782,6,0,P|150:90|173:123,1,105,4|0,0:0|0:0,0:0:0:0:
179,180,71217,2,0,B|152:240|187:228|157:297,1,105.000004005432,8|0,0:0|3:0,0:0:0:0:
243,25,71652,6,0,P|248:2|255:41,1,105,12|0,0:0|0:0,0:0:0:0:
236,93,72086,2,0,B|186:136|222:140|166:190,1,105.000004005432,12|0,0:0|0:0,0:0:0:0:
273,315,72521,6,0,B|229:265|225:301|175:245,1,105.000004005432,4|0,3:2|0:0,0:0:0:0:
51,354,72956,6,0,B|100:310|64:306|120:256,1,105.000004005432,12|8,0:0|0:0,0:0:0:0:
179,180,73282,1,8,0:0:0:0:
179,180,73391,6,0,P|145:145|141:86,1,105,6|0,3:2|0:0,0:0:0:0:
44,176,73825,2,0,P|69:159|129:166,1,70,8|0,0:0|0:0,0:0:0:0:
383,173,74260,6,0,P|335:184|282:158,1,105,2|0,3:2|0:0,0:0:0:0:
312,287,74695,2,0,P|310:256|345:208,1,70,8|0,0:0|0:0,0:0:0:0:
415,35,75130,5,2,3:2:0:0:
399,104,75347,1,0,0:0:0:0:
404,109,75456,1,4,3:0:0:0:
409,114,75565,1,8,0:0:0:0:
432,278,75782,1,2,3:2:0:0:
416,347,75999,1,0,0:0:0:0:
335,60,76217,6,2,B|310:22|247:16|219:66|219:66|252:121|307:94,1,238.00000453949,2|2,0:1|3:2,0:1:0:0:
134,107,76869,6,0,B|93:139|50:116|50:116|94:119|134:62,1,157.500006008148,4|0,3:2|0:0,0:0:0:0:
134,107,77304,2,0,P|132:159|107:198,1,70,8|0,0:0|3:0,0:0:0:0:
215,154,77739,1,0,3:0:0:0:
27,271,77956,1,2,0:0:0:0:
27,271,78065,1,0,3:0:0:0:
27,271,78173,2,0,P|61:263|90:244,1,70,8|0,0:0|3:0,0:0:0:0:
31,168,78608,5,0,0:0:0:0:
114,22,78825,2,0,L|104:113,1,70,2|8,0:0|0:0,0:0:0:0:
192,301,79260,2,0,L|184:231,1,70,2|0,0:0|3:0,0:0:0:0:
59,343,79695,6,2,P|100:260|243:271,1,238.00000453949,2|2,0:0|0:0,0:1:0:0:
41,121,80347,6,0,P|64:137|58:67,1,140,2|8,3:2|0:0,0:0:0:0:
223,62,80999,2,0,P|263:44|311:49,1,70,2|0,3:2|0:0,0:0:0:0:
41,121,81434,2,0,P|45:77|115:17,1,140,2|0,3:2|0:0,0:0:0:0:
277,128,82086,6,0,P|280:196|329:243,1,140,2|8,3:2|0:0,0:0:0:0:
363,160,82739,1,2,3:2:0:0:
512,85,83173,5,0,3:0:0:0:
363,160,83391,1,10,0:0:0:0:
445,343,83608,5,8,0:0:0:0:
447,351,83717,1,8,0:0:0:0:
449,359,83825,6,0,P|426:331|472:343,1,105,8|0,0:0|0:0,0:0:0:0:
449,359,84260,2,2,B|438:299|469:324|456:252,1,105.000004005432,4|0,0:3|0:1,0:1:0:0:
227,328,84695,6,0,P|221:292|254:325,1,105,2|0,0:0|0:0,0:0:0:0:
227,328,85130,2,2,B|247:270|261:307|286:238,1,105.000004005432,4|0,0:3|0:0,0:1:0:0:
50,190,85565,6,0,P|62:155|74:200,1,105,2|0,0:0|0:0,0:0:0:0:
50,190,85999,2,2,B|96:150|90:189|146:142,1,105.000004005432,4|0,0:3|0:1,0:1:0:0:
430,186,86434,5,8,0:3:0:0:
431,177,86489,1,0,0:0:0:0:
416,252,86724,1,8,0:3:0:0:
403,318,87014,1,4,0:3:0:0:
390,384,87304,6,0,P|383:338|348:272,1,105,4|0,0:0|0:0,0:0:0:0:
300,246,87739,5,8,0:0:0:0:
313,77,87956,1,0,3:0:0:0:
445,175,88173,2,0,P|405:197|350:196,1,70,0|2,3:0|0:0,0:0:0:0:
298,198,88608,5,8,0:0:0:0:
354,38,88825,1,2,3:2:0:0:
457,167,89043,2,0,P|412:177|359:162,1,70,0|0,3:0|3:0,0:0:0:0:
154,85,89478,2,2,P|216:88|277:118,1,105,8|0,0:0|0:0,0:1:0:0:
186,66,89912,6,0,P|185:28|210:-15,1,70,2|0,0:0|0:0,0:0:0:0:
320,158,90239,1,0,0:0:0:0:
320,158,90347,2,0,L|388:174,1,70
177,333,90782,6,0,P|219:303|234:254,1,105,4|0,0:0|0:0,0:0:0:0:
204,188,91217,5,8,0:0:0:0:
91,300,91434,1,0,3:0:0:0:
243,343,91652,2,0,P|255:292|250:253,1,70,0|2,3:0|0:0,0:0:0:0:
185,224,92086,5,8,0:0:0:0:
47,303,92304,1,2,3:2:0:0:
183,384,92521,2,0,P|207:337|213:298,1,70,0|0,3:0|3:0,0:0:0:0:
66,122,92956,2,2,P|76:151|55:235,1,105,8|0,0:0|0:0,0:1:0:0:
65,228,93391,6,0,P|88:207|104:197,2,35,2|2|2,0:0|0:0|0:0,0:0:0:0:
91,50,93717,1,0,3:0:0:0:
91,50,93825,2,0,P|118:65|132:77,1,35,8|8,0:0|0:0,0:0:0:0:
184,0,94043,1,8,0:3:0:0:
356,167,94478,5,8,0:3:0:0:
290,384,94695,5,12,0:3:0:0:
356,167,95130,5,8,0:3:0:0:
512,0,95565,6,0,B|509:18|509:18|449:37|449:37|450:31|450:31|396:48|396:48|393:77,1,157.500006008148,8|8,0:0|0:0,0:0:0:0:
451,110,95999,6,0,B|481:129|472:160|472:160|438:149|447:109,1,105.000004005432,2|0,3:1|0:0,0:0:0:0:
294,79,96434,2,0,B|304:113|277:131|277:131|258:101|292:76,1,105.000004005432,10|0,0:1|0:0,0:0:0:0:
212,4,96869,2,0,B|198:37|165:33|165:33|170:-1|212:0,1,105.000004005432,2|0,3:1|0:0,0:0:0:0:
98,57,97195,1,0,3:0:0:0:
98,57,97304,5,8,0:0:0:0:
56,213,97521,2,0,P|68:280|105:315,1,105.000004005432,0|0,3:0|3:0,0:0:0:0:
1,129,97956,5,2,0:1:0:0:
223,267,98173,1,8,0:0:0:0:
56,213,98391,2,0,B|167:208|129:127|252:123,1,210.000008010865,2|0,0:1|3:0,0:0:0:0:
230,336,99043,6,0,P|270:380|343:370,1,105,8|0,0:0|0:0,0:0:0:0:
356,321,99478,6,0,B|339:305|339:305|246:321,1,105.000004005432,2|0,3:1|0:0,0:0:0:0:
474,200,99912,2,0,B|450:198|450:198|397:266,1,105.000004005432,10|0,0:1|0:0,0:0:0:0:
496,31,100347,2,0,B|477:44|477:44|479:131,1,105.000004005432,2|0,3:1|0:0,0:0:0:0:
474,203,100673,1,0,3:0:0:0:
474,203,100782,5,8,0:0:0:0:
315,63,100999,2,0,P|286:107|228:124,1,105.000004005432,0|0,3:0|3:0,0:0:0:0:
188,184,101325,1,0,0:0:0:0:
188,184,101434,5,2,0:1:0:0:
32,124,101652,1,8,0:0:0:0:
166,271,101869,2,0,P|174:251|79:165,1,157.500006008148,2|0,0:1|0:0,0:0:0:0:
32,124,102304,5,0,3:0:0:0:
85,40,102521,5,8,0:0:0:0:
222,0,102739,5,0,3:0:0:0:
391,35,102956,6,0,B|361:61|375:99|375:99|383:76|401:68,1,105.000004005432,2|0,3:1|0:0,0:0:0:0:
467,163,103391,2,0,B|428:173|425:214|425:214|442:196|462:197,1,105.000004005432,10|0,0:1|0:0,0:0:0:0:
512,282,103825,2,0,B|472:275|452:310|452:310|475:302|493:310,1,105.000004005432,2|0,3:1|0:0,0:0:0:0:
478,384,104152,1,0,3:0:0:0:
478,384,104260,5,8,0:0:0:0:
254,316,104478,2,0,L|132:281,1,105.000004005432,0|0,3:0|3:0,0:0:0:0:
35,100,104912,6,0,P|26:50|49:3,1,105.000004005432,2|8,0:1|0:0,0:0:0:0:
251,221,105347,2,0,B|257:198|243:175|243:175|303:224|287:283|254:315,1,210.000008010865,2|0,0:1|3:0,0:0:0:0:
82,267,105999,5,8,0:0:0:0:
82,267,106108,1,8,0:0:0:0:
82,267,106217,1,8,0:0:0:0:
105,61,106434,5,10,0:0:0:0:
129,182,106652,1,2,0:0:0:0:
155,304,106869,1,2,0:0:0:0:
54,133,107086,5,10,0:0:0:0:
129,182,107304,1,2,0:0:0:0:
204,231,107521,1,2,0:0:0:0:
7,208,107739,5,10,0:0:0:0:
129,182,107956,1,2,0:0:0:0:
252,156,108173,1,2,0:0:0:0:
129,182,108391,6,0,B|85:267|139:262|90:368,1,167.999994873047,6|0,0:0|0:0,0:0:0:0:
98,87,109043,2,0,B|140:108|137:82|189:106,1,83.9999974365235,8|0,0:0|0:0,0:0:0:0:
8,112,109478,1,8,0:0:0:0:
11,102,109586,1,8,0:0:0:0:
11,92,109695,1,8,0:0:0:0:
12,81,109804,1,8,0:0:0:0:
16,72,109912,6,0,P|76:72|107:-6,1,140,2|8,3:0|0:0,0:0:0:0:
174,145,110565,2,0,P|204:93|175:34,1,105,2|0,3:0|0:0,0:0:0:0:
183,44,110999,1,0,3:0:0:0:
114,197,111217,2,0,P|127:235|119:279,1,70,8|0,0:0|0:0,0:0:0:0:
174,145,111652,6,0,P|205:111|310:120,1,140,2|0,3:0|0:0,0:0:0:0:
475,10,112304,1,2,3:0:0:0:
475,10,112521,2,0,P|464:51|475:79,1,70,0|0,0:0|3:0,0:0:0:0:
349,169,112847,1,0,0:0:0:0:
349,169,112956,2,0,P|379:199|408:203,1,70,8|0,0:0|0:0,0:0:0:0:
404,203,113391,6,0,P|374:187|319:269,1,140,2|8,3:0|0:0,0:0:0:0:
183,356,114043,2,0,P|128:358|82:303,1,105,2|0,3:0|0:0,0:0:0:0:
87,314,114478,1,0,3:0:0:0:
301,324,114695,2,0,P|313:378|264:340,1,140,8|2,0:0|3:0,0:0:0:0:
237,279,115347,6,0,P|249:242|245:197,1,70,0|8,0:0|0:0,0:0:0:0:
157,103,115782,2,0,P|149:71|76:20,1,105,2|0,3:0|0:0,0:0:0:0:
96,24,116217,6,2,B|57:52|75:112|142:133|210:101|235:26,1,238.00000453949,0|0,3:0|3:0,0:1:0:0:
405,68,116869,6,0,P|343:68|310:-9,1,140,2|8,3:0|0:0,0:0:0:0:
423,137,117521,2,0,P|454:75|449:6,1,140,2|0,3:0|3:0,0:0:0:0:
374,191,118173,2,0,L|384:270,1,70,8|0,0:0|0:0,0:0:0:0:
423,137,118608,6,0,P|360:163|269:133,1,140,2|0,3:0|0:0,0:0:0:0:
72,204,119260,1,2,3:0:0:0:
72,204,119478,2,0,P|65:168|85:126,1,70,0|0,0:0|3:0,0:0:0:0:
181,248,119804,1,0,0:0:0:0:
181,248,119912,2,0,P|208:223|255:220,1,70,10|0,0:0|0:0,0:0:0:0:
239,217,120347,6,0,P|193:234|136:171,1,140,2|8,3:0|0:0,0:0:0:0:
179,6,120999,2,0,P|210:80|206:163,1,140,2|0,3:0|3:0,0:0:0:0:
80,356,121652,2,0,P|85:308|105:350,1,105,8|0,0:0|0:0,0:0:0:0:
112,342,122086,5,2,3:0:0:0:
0,209,122304,2,0,P|46:216|78:243,1,70,0|8,0:0|0:0,0:0:0:0:
188,384,122739,1,2,3:0:0:0:
188,384,123173,6,0,P|209:374|225:361,1,35,0|8,3:0|0:0,0:0:0:0:
257,269,123391,1,8,0:0:0:0:
257,269,123499,2,0,P|259:245|255:225,1,35,8|0,0:0|3:0,0:0:0:0:
186,215,123825,6,0,B|271:198|217:165|314:147,1,140,6|0,0:0|0:0,0:0:0:0:
325,221,124478,1,0,3:0:0:0:
304,148,124695,6,0,P|346:147|372:156,1,52.5000020027161,2|0,3:2|0:0,0:0:0:0:
412,94,125130,1,8,0:0:0:0:
281,6,125565,6,0,P|281:63|236:110,1,105.000004005432,2|2,3:2|0:0,0:0:0:0:
191,150,126217,2,0,L|80:135,1,105.000004005432,0|0,3:0|0:0,0:0:0:0:
17,123,126869,2,0,P|5:161|6:191,1,52.5000020027161,8|0,0:0|0:0,0:0:0:0:
44,275,127195,1,0,0:0:0:0:
44,275,127304,5,2,3:2:0:0:
241,193,127739,1,0,0:0:0:0:
116,253,127956,6,0,P|159:242|220:272,1,105.000004005432,2|0,3:2|0:0,0:0:0:0:
252,329,128499,1,0,0:0:0:0:
252,329,128608,2,0,L|261:400,1,52.5000020027161,10|0,0:0|0:0,0:0:0:0:
173,366,129043,6,0,L|295:350,1,105.000004005432,2|0,3:2|0:0,0:0:0:0:
477,303,129695,6,0,L|372:289,1,105.000004005432,2|0,0:0|0:0,0:0:0:0:
343,219,130347,1,8,0:0:0:0:
343,219,130782,6,0,P|370:169|346:119,1,105.000004005432,2|0,3:2|0:0,0:0:0:0:
268,108,131434,1,0,3:0:0:0:
354,126,131652,6,0,P|343:84|345:55,1,52.5000020027161,2|0,0:0|0:0,0:0:0:0:
404,30,132086,1,8,0:0:0:0:
152,49,132521,6,0,B|208:47|199:70|267:67,1,105.000004005432,2|8,3:2|0:0,0:0:0:0:
213,7,133173,2,0,B|215:63|192:54|195:122,1,105.000004005432,0|0,0:3|0:0,0:0:0:0:
207,183,133717,1,0,0:0:0:0:
207,183,133825,1,8,0:0:0:0:
24,281,134260,6,0,P|86:302|177:216,1,167.999994873047,2|2,3:2|0:0,0:0:0:0:
357,384,134912,6,0,L|292:373,1,52.5,2|0,3:2|0:0,0:0:0:0:
296,373,135347,1,0,3:0:0:0:
370,259,135565,2,0,L|472:279,1,78.7500030040742,8|0,0:0|0:0,0:0:0:0:
512,288,135999,6,0,P|523:344|478:378,1,105.000004005432,2|0,3:2|0:0,0:0:0:0:
365,254,136652,2,0,P|374:207|336:178,1,78.7500030040742,2|0,3:2|0:0,0:0:0:0:
296,123,137086,5,2,0:0:0:0:
169,79,137304,1,0,0:0:0:0:
100,203,137521,1,8,0:0:0:0:
97,192,137630,1,8,0:0:0:0:
95,182,137739,1,0,0:0:0:0:
95,182,137956,5,4,0:3:0:0:
5,338,138173,2,0,L|87:317,1,78.7500030040742,8|0,0:3|0:0,0:0:0:0:
183,291,138608,5,4,3:0:0:0:
383,329,138825,1,4,3:0:0:0:
199,281,139043,1,4,3:0:0:0:
399,319,139260,2,0,L|441:327,1,30.6250002920628,14|0,0:0|0:0,0:0:0:0:
512,384,139912,5,2,0:0:0:0:
512,383,140347,5,2,0:0:0:0:
512,383,140782,6,0,L|499:312,1,69.9930009847038,4|0,0:3|0:0,0:0:0:0:
440,38,141217,6,0,P|408:83|421:153,1,105,6|0,3:2|0:0,0:0:0:0:
415,144,141652,1,8,0:0:0:0:
477,104,141869,1,0,0:0:0:0:
201,164,142086,6,0,P|224:214|292:237,1,105,2|0,3:2|0:0,0:0:0:0:
281,238,142521,1,8,0:0:0:0:
277,164,142739,1,0,0:0:0:0:
120,314,142956,6,0,P|77:322|41:354,1,70,2|0,3:2|0:0,0:0:0:0:
185,199,143282,1,4,3:0:0:0:
185,199,143391,2,0,P|156:165|110:150,1,70,8|2,0:0|3:2,0:0:0:0:
112,232,143825,1,0,0:0:0:0:
392,94,144043,6,2,B|433:130|484:90|484:90|451:13|364:47,1,238.00000453949,2|2,0:1|3:2,0:1:0:0:
146,64,144695,6,0,B|138:42|138:42|216:34|253:100,1,157.500006008148,6|0,3:2|0:0,0:0:0:0:
297,167,145130,2,0,P|297:198|275:235,1,70,8|0,0:0|3:0,0:0:0:0:
62,355,145565,2,0,P|62:324|84:287,1,70,0|0,3:0|0:0,0:0:0:0:
41,157,145891,1,0,3:0:0:0:
41,157,145999,2,0,P|41:188|19:225,1,70,8|0,0:0|3:0,0:0:0:0:
162,308,146434,5,0,0:0:0:0:
425,365,146652,2,0,L|510:351,1,70,2|8,0:0|0:0,0:0:0:0:
162,308,147086,2,0,L|255:292,1,70,2|0,0:0|3:0,0:0:0:0:
207,384,147521,6,2,P|206:289|59:229,1,238.00000453949,2|2,0:0|0:0,0:1:0:0:
32,71,148173,6,0,P|42:43|126:29,1,105,0|0,3:0|0:0,0:0:0:0:
119,25,148608,1,8,0:0:0:0:
67,183,148825,6,0,P|62:234|43:261,1,70,2|0,3:2|0:0,0:0:0:0:
182,83,149260,2,0,P|224:112|238:142,1,70,0|8,3:0|0:0,0:0:0:0:
153,163,149695,1,0,0:0:0:0:
463,145,149912,6,0,P|398:153|352:95,1,140,2|8,3:2|0:0,0:0:0:0:
433,299,150565,2,0,P|405:261|403:216,1,70,2|0,3:2|0:0,0:0:0:0:
423,87,150999,5,0,3:0:0:0:
388,249,151217,1,10,0:0:0:0:
305,40,151434,5,8,0:0:0:0:
375,256,151652,6,0,B|425:298|423:262|481:310,1,105,12|0,0:0|0:0,0:0:0:0:
469,301,152086,2,0,B|409:273|420:307|352:276,1,105.000004005432,10|0,0:0|3:0,0:0:0:0:
144,67,152521,6,0,B|78:72|101:44|26:50,1,105,4|0,0:0|0:0,0:0:0:0:
41,48,152956,2,0,B|106:59|77:81|151:94,1,105.000004005432,8|0,0:0|3:0,0:0:0:0:
402,198,153391,6,0,B|466:209|446:179|520:191,1,105,12|0,0:0|0:0,0:0:0:0:
402,198,153825,2,0,B|337:203|363:227|289:234,1,105.000004005432,12|0,0:0|0:0,0:0:0:0:
73,338,154260,6,0,B|138:333|112:309|186:302,1,105.000004005432,4|0,3:2|0:0,0:0:0:0:
398,216,154695,2,0,B|333:221|359:245|285:252,1,105.000004005432,12|8,0:0|0:0,0:0:0:0:
166,321,155021,1,8,0:0:0:0:
166,321,155130,6,0,B|50:297|50:297|123:275,1,157.500006008148,6|0,3:2|0:0,0:0:0:0:
215,376,155565,1,8,0:0:0:0:
144,240,155782,1,0,0:0:0:0:
335,278,155999,6,0,B|219:254|219:254|292:232,1,157.500006008148,2|0,3:2|0:0,0:0:0:0:
384,333,156434,1,8,0:0:0:0:
313,197,156652,1,0,0:0:0:0:
483,227,156869,5,2,3:2:0:0:
432,171,157086,1,0,0:0:0:0:
180,105,157304,1,8,0:0:0:0:
239,169,157521,1,2,3:2:0:0:
239,169,157630,1,0,0:0:0:0:
239,169,157739,1,0,0:0:0:0:
68,49,157956,6,2,B|48:25|48:25|83:7|180:10|184:143,1,210.000008010865,2|2,0:1|3:2,0:1:0:0:
314,4,158608,6,0,P|254:-11|172:57,1,157.500006008148,6|0,3:2|0:0,0:0:0:0:
109,126,159043,1,8,0:0:0:0:
24,106,159260,1,0,3:0:0:0:
257,72,159478,6,0,P|240:120|259:163,1,70,0|0,3:0|0:0,0:0:0:0:
414,312,159912,2,0,P|431:263|416:220,1,70,8|0,0:0|3:0,0:0:0:0:
394,186,160239,1,0,0:0:0:0:
394,186,160347,5,0,0:0:0:0:
252,299,160565,2,0,L|158:282,1,70,2|8,0:0|0:0,0:0:0:0:
93,289,160999,6,0,B|186:272|147:318|254:303,1,157.500006008148,2|0,0:0|0:0,0:0:0:0:
125,361,161434,6,2,P|130:277|-14:185,1,238.00000453949,2|2,0:0|0:0,0:1:0:0:
263,112,162086,6,0,P|266:156|198:218,1,140,2|8,3:2|0:0,0:0:0:0:
359,310,162739,2,0,P|348:278|354:244,1,70,2|0,3:2|0:0,0:0:0:0:
297,189,163173,1,0,3:0:0:0:
426,269,163391,2,0,P|488:269|521:250,1,70,8|0,0:0|0:0,0:0:0:0:
234,361,163825,6,0,P|283:313|351:310,1,140,2|8,3:2|0:0,0:0:0:0:
191,136,164478,2,0,L|173:57,1,70,2|0,3:2|0:0,0:0:0:0:
366,58,164912,1,0,3:0:0:0:
185,225,165130,2,0,L|94:249,1,70,10|8,0:0|0:0,0:0:0:0:
51,211,165456,1,8,0:0:0:0:
51,211,165565,5,8,0:0:0:0:
51,211,165999,6,2,B|61:184|35:164|35:164|16:189|35:213,1,105.000004005432,4|0,0:3|0:0,0:1:0:0:
237,121,166434,5,2,0:0:0:0:
237,121,166869,6,2,B|263:108|258:76|258:76|227:80|224:111,1,105.000004005432,4|0,0:3|0:0,0:1:0:0:
438,122,167304,5,2,0:0:0:0:
438,122,167739,6,0,B|465:132|485:106|485:106|460:87|436:106,1,105.000004005432,4|0,0:3|0:0,0:0:0:0:
512,226,168065,1,0,0:0:0:0:
512,226,168173,5,8,0:3:0:0:
488,304,168463,1,8,0:3:0:0:
464,382,168753,1,4,0:3:0:0:
488,304,169043,6,0,P|494:255|456:198,1,105.000004005432,4|0,0:0|0:0,0:0:0:0:
383,80,169478,2,0,L|410:0,1,70,8|0,0:0|3:0,0:0:0:0:
394,218,169912,2,0,L|367:298,1,70,0|2,3:0|0:0,0:0:0:0:
313,338,170239,1,2,0:0:0:0:
313,338,170347,2,0,P|270:331|238:351,1,70,8|2,0:0|3:2,0:0:0:0:
313,338,170999,5,0,3:0:0:0:
93,354,171217,2,2,P|138:348|142:269,1,105,8|0,0:0|0:0,0:1:0:0:
158,297,171652,6,0,P|119:275|53:295,1,105.000004005432,2|0,0:0|0:0,0:0:0:0:
186,208,171978,1,0,0:0:0:0:
186,208,172086,2,0,P|185:162|149:123,1,70
20,23,172521,6,0,P|42:65|134:65,1,140,4|8,0:0|0:0,0:0:0:0:
173,141,173173,1,0,3:0:0:0:
89,13,173391,2,0,L|76:110,1,70,0|2,3:0|0:0,0:0:0:0:
253,69,173717,1,2,0:0:0:0:
253,69,173825,2,0,L|350:56,1,70,8|2,0:0|3:2,0:0:0:0:
253,69,174478,5,0,3:0:0:0:
483,34,174695,2,2,P|436:44|409:101,1,105,8|0,0:0|0:0,0:1:0:0:
453,161,175130,5,8,0:3:0:0:
256,192,175420,1,8,0:3:0:0:
59,223,175710,1,4,0:3:0:0:
22,295,175999,6,0,P|55:307|82:353,1,70,4|0,0:0|0:0,0:0:0:0:
132,187,176434,2,0,L|118:105,1,70,8|0,0:0|3:0,0:0:0:0:
164,352,176869,2,0,L|246:366,1,70,0|2,3:0|0:0,0:0:0:0:
302,318,177195,1,2,0:0:0:0:
302,318,177304,2,0,P|341:324|374:364,1,70,8|2,0:0|3:2,0:0:0:0:
302,318,177956,5,0,3:0:0:0:
493,368,178173,2,2,P|452:345|454:281,1,105,8|0,0:0|0:0,0:1:0:0:
404,345,178608,6,0,P|472:355|509:320,1,105.000004005432,2|0,0:0|0:0,0:0:0:0:
367,227,178934,1,0,0:0:0:0:
367,227,179043,2,0,P|409:173|406:148,1,70
324,18,179478,6,0,L|337:171,1,140,4|8,0:0|0:0,0:0:0:0:
367,227,180130,1,0,3:0:0:0:
478,88,180347,2,0,L|404:73,1,70,0|2,3:0|0:0,0:0:0:0:
219,90,180673,1,2,0:0:0:0:
219,90,180782,2,0,L|293:105,1,70,8|2,0:0|3:2,0:0:0:0:
76,141,181217,5,0,3:0:0:0:
153,11,181434,6,0,L|153:72,1,35,8|8,0:0|0:0,0:0:0:0:
78,181,181652,2,0,L|78:216,1,35,8|8,0:0|0:0,0:0:0:0:
178,147,181869,6,0,L|178:208,1,35,8|8,0:0|0:0,0:0:0:0:
252,248,182086,5,8,0:0:0:0:
264,246,182195,2,0,L|264:307,1,35,8|8,0:0|0:0,0:0:0:0:
351,191,182412,5,8,0:0:0:0:
363,189,182521,2,0,L|363:250,1,35,8|0,0:0|0:0,0:0:0:0:
118,364,182739,6,0,L|116:386,2,17.5,8|8|8,0:0|0:0|0:0,0:0:0:0:
111,350,182956,6,0,L|113:328,1,17.5,8|0,0:0|0:0,0:0:0:0:
181,305,183233,6,0,P|224:364|277:369,1,105.000004005432,14|0,0:1|0:0,0:0:0:0:
340,298,183566,6,0,P|409:275|430:226,1,105.000004005432,14|0,0:1|0:0,0:0:0:0:
383,144,183881,6,0,P|382:71|343:36,1,105.000004005432,14|0,0:1|0:0,0:0:0:0:
250,56,184181,6,0,P|180:34|134:61,1,105.000004005432,14|0,0:1|0:0,0:0:0:0:
125,155,184481,6,0,P|82:214|94:266,1,105.000004005432,14|0,0:1|0:0,0:0:0:0:
0,294,184781,6,0,B|255:198|194:429|457:339,1,482.99998526001,14|0,0:1|0:0,0:0:0:0:
466,333,187418,2,0,P|465:360|476:393,2,35,4|0|8,3:2|3:0|3:0,0:0:0:0:
369,348,187654,6,0,B|470:350|512:252|486:164|347:195|380:289|452:304,1,315.000012016297,4|0,0:0|0:0,0:0:0:0:
