osu file format v14

[General]
AudioFilename: audio.mp3
AudioLeadIn: 0
PreviewTime: 124421
Countdown: 0
SampleSet: None
StackLeniency: 0.7
Mode: 1
LetterboxInBreaks: 0
WidescreenStoryboard: 1

[Editor]
Bookmarks: 12707,24001,46589,57883,80471,91765,114354,125648,170824
DistanceSpacing: 1
BeatDivisor: 4
GridSize: 32
TimelineZoom: 2.900002

[Metadata]
Title:The Adorned Cage
TitleUnicode:The Adorned Cage
Artist:TaiGekTou/Iruka
ArtistUnicode:TaiGekTou/Iruka
Creator:Tasha
Version:Muzukashii
Source:
Tags:
BeatmapID:1228924
BeatmapSetID:554547

[Difficulty]
HPDrainRate:6
CircleSize:2
OverallDifficulty:6
ApproachRate:5
SliderMultiplier:1.39999991989136
SliderTickRate:1

[Events]
//Background and Video events
0,0,"OGKFaxM.jpg",0,0
//Break Periods
//Storyboard Layer 0 (Background)
//Storyboard Layer 1 (Fail)
//Storyboard Layer 2 (Pass)
//Storyboard Layer 3 (Foreground)
//Storyboard Sound Samples

[TimingPoints]
1070,352.941176470588,4,1,0,70,1,0
1422,352.941176470588,4,1,0,70,1,0
12186,-94.3396226415094,4,1,0,70,0,0
12363,-89.2857142857143,4,1,0,70,0,0
12539,-84.7457627118644,4,1,0,70,0,0
12716,-80.6451612903226,4,1,0,70,0,0
23480,-84.7457627118644,4,1,0,70,0,0
23657,-89.2857142857143,4,1,0,70,0,0
23833,-94.3396226415094,4,1,0,70,0,0
24010,-100,4,1,0,70,0,0
57363,-94.3396226415094,4,1,0,70,0,0
57539,-89.2857142857143,4,1,0,70,0,0
57716,-84.7457627118644,4,1,0,70,0,0
57892,-80.6451612903226,4,1,0,70,0,1
80480,-80.6451612903226,4,1,0,70,0,0
91245,-84.7457627118644,4,1,0,70,0,0
91421,-89.2857142857143,4,1,0,70,0,0
91598,-94.3396226415094,4,1,0,70,0,0
91774,-100,4,1,0,70,0,0
125127,-94.3396226415094,4,1,0,70,0,0
125304,-89.2857142857143,4,1,0,70,0,0
125480,-84.7457627118644,4,1,0,70,0,0
125657,-80.6451612903226,4,1,0,70,0,1
147716,-76.9230769230769,4,1,0,70,0,1
147892,-73.5294117647059,4,1,0,70,0,1
148069,-70.4225352112676,4,1,0,70,0,1
148245,-67.5675675675676,4,1,0,70,0,1
170833,-67.5675675675676,4,1,0,70,0,0
171892,-100,4,1,0,70,0,0
173745,-100,4,1,0,20,0,0

[HitObjects]
256,192,1422,5,0,0:0:0:0:
256,192,2127,1,8,0:0:0:0:
256,192,2833,1,0,0:0:0:0:
256,192,3539,1,8,0:0:0:0:
256,192,4245,1,8,0:0:0:0:
256,192,4951,1,0,0:0:0:0:
256,192,5304,1,8,0:0:0:0:
256,192,5657,1,0,0:0:0:0:
256,192,6363,1,8,0:0:0:0:
256,192,6716,1,0,0:0:0:0:
256,192,7069,1,0,0:0:0:0:
256,192,7774,1,8,0:0:0:0:
256,192,8480,1,0,0:0:0:0:
256,192,9186,1,0,0:0:0:0:
256,192,9539,1,8,0:0:0:0:
256,192,9892,1,0,0:0:0:0:
256,192,10245,1,0,0:0:0:0:
256,192,10598,1,0,0:0:0:0:
256,192,10951,1,8,0:0:0:0:
256,192,11304,1,8,0:0:0:0:
256,192,11657,1,8,0:0:0:0:
256,192,11833,1,8,0:0:0:0:
256,192,12010,1,0,0:0:0:0:
256,192,12363,1,0,0:0:0:0:
256,192,12716,1,4,0:0:0:0:
256,192,13069,1,0,0:0:0:0:
256,192,13422,1,8,0:0:0:0:
256,192,13774,1,0,0:0:0:0:
256,192,13951,1,8,0:0:0:0:
256,192,14127,1,0,0:0:0:0:
256,192,14480,1,0,0:0:0:0:
256,192,14657,1,0,0:0:0:0:
256,192,14745,1,0,0:0:0:0:
256,192,14833,1,8,0:0:0:0:
256,192,15186,1,0,0:0:0:0:
256,192,15363,1,8,0:0:0:0:
256,192,15539,1,0,0:0:0:0:
256,192,15892,1,0,0:0:0:0:
256,192,16245,1,8,0:0:0:0:
256,192,16598,1,8,0:0:0:0:
256,192,16774,1,8,0:0:0:0:
256,192,16951,1,0,0:0:0:0:
256,192,17304,1,0,0:0:0:0:
256,192,17480,1,0,0:0:0:0:
256,192,17569,1,0,0:0:0:0:
256,192,17657,1,8,0:0:0:0:
256,192,18010,1,0,0:0:0:0:
256,192,18186,1,8,0:0:0:0:
256,192,18363,1,0,0:0:0:0:
256,192,18716,1,0,0:0:0:0:
256,192,19069,1,8,0:0:0:0:
256,192,19421,1,8,0:0:0:0:
256,192,19598,1,8,0:0:0:0:
256,192,19774,1,0,0:0:0:0:
256,192,20127,1,0,0:0:0:0:
256,192,20304,1,0,0:0:0:0:
256,192,20392,1,0,0:0:0:0:
256,192,20480,1,8,0:0:0:0:
256,192,20657,1,0,0:0:0:0:
256,192,20833,1,0,0:0:0:0:
256,192,21010,1,8,0:0:0:0:
256,192,21186,1,0,0:0:0:0:
256,192,21539,1,0,0:0:0:0:
256,192,21892,1,8,0:0:0:0:
256,192,22245,1,0,0:0:0:0:
256,192,22421,1,8,0:0:0:0:
256,192,22598,1,0,0:0:0:0:
256,192,22951,1,0,0:0:0:0:
256,192,23127,1,0,0:0:0:0:
256,192,23216,1,0,0:0:0:0:
256,192,23304,1,0,0:0:0:0:
256,192,23657,1,8,0:0:0:0:
256,192,24010,1,4,0:0:0:0:
256,192,24363,1,0,0:0:0:0:
256,192,24716,1,8,0:0:0:0:
256,192,25245,1,0,0:0:0:0:
256,192,25421,1,0,0:0:0:0:
256,192,25774,1,0,0:0:0:0:
256,192,26127,1,8,0:0:0:0:
256,192,26657,1,0,0:0:0:0:
256,192,26833,1,8,0:0:0:0:
256,192,27186,1,0,0:0:0:0:
256,192,27539,1,8,0:0:0:0:
256,192,28069,1,8,0:0:0:0:
256,192,28245,1,0,0:0:0:0:
256,192,28598,1,0,0:0:0:0:
256,192,28951,1,8,0:0:0:0:
256,192,29657,1,0,0:0:0:0:
256,192,30010,1,0,0:0:0:0:
256,192,30363,1,8,0:0:0:0:
256,192,31069,1,0,0:0:0:0:
256,192,31421,1,8,0:0:0:0:
256,192,31774,1,0,0:0:0:0:
256,192,32480,1,0,0:0:0:0:
256,192,32833,1,0,0:0:0:0:
256,192,33186,1,8,0:0:0:0:
256,192,33539,1,8,0:0:0:0:
256,192,33892,1,0,0:0:0:0:
256,192,34245,1,0,0:0:0:0:
256,192,34598,1,8,0:0:0:0:
256,192,35304,1,0,0:0:0:0:
256,192,36010,1,8,0:0:0:0:
256,192,36363,1,0,0:0:0:0:
256,192,36716,1,0,0:0:0:0:
256,192,37069,1,0,0:0:0:0:
256,192,37421,1,8,0:0:0:0:
256,192,38127,1,0,0:0:0:0:
256,192,38480,1,0,0:0:0:0:
256,192,38833,1,8,0:0:0:0:
256,192,39186,1,8,0:0:0:0:
256,192,39539,1,0,0:0:0:0:
256,192,40245,1,8,0:0:0:0:
256,192,40598,1,0,0:0:0:0:
256,192,40951,1,0,0:0:0:0:
256,192,41657,1,8,0:0:0:0:
256,192,42010,1,0,0:0:0:0:
256,192,42363,1,8,0:0:0:0:
256,192,42716,1,8,0:0:0:0:
256,192,43069,1,0,0:0:0:0:
256,192,43421,1,0,0:0:0:0:
256,192,43774,1,8,0:0:0:0:
256,192,44480,1,8,0:0:0:0:
256,192,44833,1,8,0:0:0:0:
256,192,45186,1,8,0:0:0:0:
256,192,45363,1,8,0:0:0:0:
256,192,45539,1,0,0:0:0:0:
256,192,45892,1,8,0:0:0:0:
256,192,46245,1,8,0:0:0:0:
256,192,46598,1,4,0:0:0:0:
256,192,46951,1,8,0:0:0:0:
256,192,47127,1,0,0:0:0:0:
256,192,47304,1,8,0:0:0:0:
256,192,47657,1,8,0:0:0:0:
256,192,48010,1,0,0:0:0:0:
256,192,48363,1,8,0:0:0:0:
256,192,48539,1,0,0:0:0:0:
256,192,48716,1,8,0:0:0:0:
256,192,49069,1,8,0:0:0:0:
256,192,49421,1,0,0:0:0:0:
256,192,49774,1,8,0:0:0:0:
256,192,49951,1,0,0:0:0:0:
256,192,50127,1,8,0:0:0:0:
256,192,50480,1,8,0:0:0:0:
256,192,50833,1,0,0:0:0:0:
256,192,51186,1,8,0:0:0:0:
256,192,51363,1,0,0:0:0:0:
256,192,51539,1,8,0:0:0:0:
256,192,51892,1,8,0:0:0:0:
256,192,52245,1,0,0:0:0:0:
256,192,52598,1,8,0:0:0:0:
256,192,52774,1,0,0:0:0:0:
256,192,52951,1,8,0:0:0:0:
256,192,53304,1,8,0:0:0:0:
256,192,53657,1,0,0:0:0:0:
256,192,54010,1,8,0:0:0:0:
256,192,54186,1,0,0:0:0:0:
256,192,54363,1,8,0:0:0:0:
256,192,54716,1,8,0:0:0:0:
256,192,55069,1,0,0:0:0:0:
256,192,55421,1,8,0:0:0:0:
256,192,55598,1,0,0:0:0:0:
256,192,55774,1,8,0:0:0:0:
256,192,56127,1,0,0:0:0:0:
256,192,56304,1,8,0:0:0:0:
256,192,56480,1,0,0:0:0:0:
256,192,56833,1,8,0:0:0:0:
256,192,57010,1,0,0:0:0:0:
256,192,57098,1,0,0:0:0:0:
256,192,57186,1,0,0:0:0:0:
256,192,57363,1,0,0:0:0:0:
256,192,57539,1,8,0:0:0:0:
256,192,57716,1,8,0:0:0:0:
256,192,57892,1,4,0:0:0:0:
256,192,58245,1,8,0:0:0:0:
256,192,58421,1,0,0:0:0:0:
256,192,58510,1,0,0:0:0:0:
256,192,58598,1,0,0:0:0:0:
256,192,58774,1,0,0:0:0:0:
256,192,58951,1,8,0:0:0:0:
256,192,59304,1,0,0:0:0:0:
256,192,59480,1,0,0:0:0:0:
256,192,59657,1,8,0:0:0:0:
256,192,59833,1,0,0:0:0:0:
256,192,60186,1,0,0:0:0:0:
256,192,60363,1,8,0:0:0:0:
256,192,60539,1,0,0:0:0:0:
256,192,60716,1,0,0:0:0:0:
256,192,61069,1,8,0:0:0:0:
256,192,61245,1,8,0:0:0:0:
256,192,61333,1,8,0:0:0:0:
256,192,61421,1,0,0:0:0:0:
256,192,61598,1,0,0:0:0:0:
256,192,61774,1,8,0:0:0:0:
256,192,62127,1,0,0:0:0:0:
256,192,62480,1,8,0:0:0:0:
256,192,62657,1,0,0:0:0:0:
256,192,63010,1,0,0:0:0:0:
256,192,63186,1,8,0:0:0:0:
256,192,63274,1,8,0:0:0:0:
256,192,63363,1,8,0:0:0:0:
256,192,63539,1,0,0:0:0:0:
256,192,63892,1,8,0:0:0:0:
256,192,64069,1,0,0:0:0:0:
256,192,64421,1,0,0:0:0:0:
256,192,64598,1,8,0:0:0:0:
256,192,64774,1,0,0:0:0:0:
256,192,64951,1,0,0:0:0:0:
256,192,65127,1,0,0:0:0:0:
256,192,65216,1,0,0:0:0:0:
256,192,65304,1,8,0:0:0:0:
256,192,65480,1,0,0:0:0:0:
256,192,65833,1,0,0:0:0:0:
256,192,66010,1,8,0:0:0:0:
256,192,66186,1,8,0:0:0:0:
256,192,66363,1,0,0:0:0:0:
256,192,66539,1,0,0:0:0:0:
256,192,66627,1,0,0:0:0:0:
256,192,66716,1,8,0:0:0:0:
256,192,66892,1,8,0:0:0:0:
256,192,67245,1,0,0:0:0:0:
256,192,67421,1,8,0:0:0:0:
256,192,67598,1,0,0:0:0:0:
256,192,67774,1,8,0:0:0:0:
256,192,68127,1,8,0:0:0:0:
256,192,68304,1,8,0:0:0:0:
256,192,68392,1,8,0:0:0:0:
256,192,68480,1,0,0:0:0:0:
256,192,68657,1,0,0:0:0:0:
256,192,68833,1,8,0:0:0:0:
256,192,69186,1,0,0:0:0:0:
256,192,69363,1,0,0:0:0:0:
256,192,69539,1,8,0:0:0:0:
256,192,69716,1,0,0:0:0:0:
256,192,70069,1,0,0:0:0:0:
256,192,70245,1,8,0:0:0:0:
256,192,70421,1,0,0:0:0:0:
256,192,70598,1,0,0:0:0:0:
256,192,70951,1,8,0:0:0:0:
256,192,71127,1,0,0:0:0:0:
256,192,71480,1,0,0:0:0:0:
256,192,71657,1,8,0:0:0:0:
256,192,71833,1,8,0:0:0:0:
256,192,72010,1,0,0:0:0:0:
256,192,72186,1,0,0:0:0:0:
256,192,72274,1,0,0:0:0:0:
256,192,72363,1,8,0:0:0:0:
256,192,72539,1,0,0:0:0:0:
256,192,72892,1,0,0:0:0:0:
256,192,73069,1,8,0:0:0:0:
256,192,73245,1,8,0:0:0:0:
256,192,73421,1,0,0:0:0:0:
256,192,73774,1,8,0:0:0:0:
256,192,73951,1,0,0:0:0:0:
256,192,74304,1,0,0:0:0:0:
256,192,74480,1,8,0:0:0:0:
256,192,74657,1,0,0:0:0:0:
256,192,74833,1,0,0:0:0:0:
256,192,75010,1,0,0:0:0:0:
256,192,75186,1,8,0:0:0:0:
256,192,75363,1,0,0:0:0:0:
256,192,75716,1,0,0:0:0:0:
256,192,75892,1,8,0:0:0:0:
256,192,76069,1,0,0:0:0:0:
256,192,76245,1,0,0:0:0:0:
256,192,76598,1,8,0:0:0:0:
256,192,76774,1,0,0:0:0:0:
256,192,77127,1,0,0:0:0:0:
256,192,77304,1,8,0:0:0:0:
256,192,77392,1,8,0:0:0:0:
256,192,77480,1,8,0:0:0:0:
256,192,77657,1,0,0:0:0:0:
256,192,77833,1,0,0:0:0:0:
256,192,78010,1,8,0:0:0:0:
256,192,78186,1,8,0:0:0:0:
256,192,78363,1,0,0:0:0:0:
256,192,78539,1,0,0:0:0:0:
256,192,78716,1,8,0:0:0:0:
256,192,78892,1,8,0:0:0:0:
256,192,79069,1,0,0:0:0:0:
256,192,79421,1,8,0:0:0:0:
256,192,79598,1,0,0:0:0:0:
256,192,79686,1,8,0:0:0:0:
256,192,79774,1,0,0:0:0:0:
256,192,79951,1,0,0:0:0:0:
256,192,80127,1,8,0:0:0:0:
256,192,80304,1,0,0:0:0:0:
256,192,80480,1,4,0:0:0:0:
256,192,80833,1,8,0:0:0:0:
256,192,81010,1,8,0:0:0:0:
256,192,81363,1,0,0:0:0:0:
256,192,81539,1,8,0:0:0:0:
256,192,81716,1,0,0:0:0:0:
256,192,81892,1,0,0:0:0:0:
256,192,82245,1,8,0:0:0:0:
256,192,82421,1,0,0:0:0:0:
256,192,82510,1,8,0:0:0:0:
256,192,82598,1,0,0:0:0:0:
256,192,82774,1,0,0:0:0:0:
256,192,82951,1,8,0:0:0:0:
256,192,83127,1,0,0:0:0:0:
256,192,83304,1,0,0:0:0:0:
256,192,83657,1,8,0:0:0:0:
256,192,83833,1,8,0:0:0:0:
256,192,84186,1,0,0:0:0:0:
256,192,84363,1,8,0:0:0:0:
256,192,84539,1,0,0:0:0:0:
256,192,84716,1,0,0:0:0:0:
256,192,85069,1,8,0:0:0:0:
256,192,85245,1,0,0:0:0:0:
256,192,85333,1,0,0:0:0:0:
256,192,85421,1,0,0:0:0:0:
256,192,85510,1,0,0:0:0:0:
256,192,85598,1,0,0:0:0:0:
256,192,85774,1,8,0:0:0:0:
256,192,85951,1,8,0:0:0:0:
256,192,86127,1,0,0:0:0:0:
256,192,86480,1,8,0:0:0:0:
256,192,86657,1,8,0:0:0:0:
256,192,87010,1,0,0:0:0:0:
256,192,87186,1,8,0:0:0:0:
256,192,87363,1,0,0:0:0:0:
256,192,87539,1,0,0:0:0:0:
256,192,87892,1,8,0:0:0:0:
256,192,88069,1,0,0:0:0:0:
256,192,88157,1,8,0:0:0:0:
256,192,88245,1,0,0:0:0:0:
256,192,88421,1,0,0:0:0:0:
256,192,88598,1,8,0:0:0:0:
256,192,88774,1,0,0:0:0:0:
256,192,88951,1,0,0:0:0:0:
256,192,89304,1,8,0:0:0:0:
256,192,89480,1,8,0:0:0:0:
256,192,89833,1,0,0:0:0:0:
256,192,90010,1,8,0:0:0:0:
256,192,90363,1,0,0:0:0:0:
256,192,90716,1,8,0:0:0:0:
256,192,90892,1,8,0:0:0:0:
256,192,90980,1,8,0:0:0:0:
256,192,91068,1,0,0:0:0:0:
256,192,91245,1,0,0:0:0:0:
256,192,91421,1,8,0:0:0:0:
256,192,91598,1,8,0:0:0:0:
256,192,91774,1,0,0:0:0:0:
256,192,92127,1,0,0:0:0:0:
256,192,92304,1,0,0:0:0:0:
256,192,92480,1,8,0:0:0:0:
256,192,92833,1,0,0:0:0:0:
256,192,93010,1,8,0:0:0:0:
256,192,93098,1,8,0:0:0:0:
256,192,93186,1,0,0:0:0:0:
256,192,93539,1,0,0:0:0:0:
256,192,93892,1,8,0:0:0:0:
256,192,94245,1,8,0:0:0:0:
256,192,94421,1,8,0:0:0:0:
256,192,94598,1,0,0:0:0:0:
256,192,94951,1,0,0:0:0:0:
256,192,95127,1,0,0:0:0:0:
256,192,95304,1,8,0:0:0:0:
256,192,95657,1,0,0:0:0:0:
256,192,96010,1,0,0:0:0:0:
256,192,96186,1,8,0:0:0:0:
256,192,96363,1,0,0:0:0:0:
256,192,96716,1,8,0:0:0:0:
256,192,96892,1,0,0:0:0:0:
256,192,97245,1,0,0:0:0:0:
256,192,97421,1,0,0:0:0:0:
256,192,97774,1,0,0:0:0:0:
256,192,98127,1,8,0:0:0:0:
256,192,98480,1,0,0:0:0:0:
256,192,98657,1,8,0:0:0:0:
256,192,98833,1,0,0:0:0:0:
256,192,99186,1,0,0:0:0:0:
256,192,99363,1,0,0:0:0:0:
256,192,99539,1,8,0:0:0:0:
256,192,99716,1,0,0:0:0:0:
256,192,100069,1,8,0:0:0:0:
256,192,100245,1,0,0:0:0:0:
256,192,100598,1,0,0:0:0:0:
256,192,100951,1,8,0:0:0:0:
256,192,101304,1,0,0:0:0:0:
256,192,101480,1,8,0:0:0:0:
256,192,101657,1,0,0:0:0:0:
256,192,102186,1,0,0:0:0:0:
256,192,102363,1,8,0:0:0:0:
256,192,102539,1,8,0:0:0:0:
256,192,102716,1,0,0:0:0:0:
256,192,102892,1,8,0:0:0:0:
256,192,103069,1,4,0:0:0:0:
256,192,103421,1,8,0:0:0:0:
256,192,103597,1,0,0:0:0:0:
256,192,103774,1,8,0:0:0:0:
256,192,104127,1,8,0:0:0:0:
256,192,104480,1,0,0:0:0:0:
256,192,104833,1,8,0:0:0:0:
256,192,105009,1,0,0:0:0:0:
256,192,105186,1,8,0:0:0:0:
256,192,105539,1,0,0:0:0:0:
256,192,105892,1,0,0:0:0:0:
256,192,106245,1,8,0:0:0:0:
256,192,106421,1,0,0:0:0:0:
256,192,106598,1,8,0:0:0:0:
256,192,106951,1,0,0:0:0:0:
256,192,107304,1,0,0:0:0:0:
256,192,107480,1,8,0:0:0:0:
256,192,107657,1,0,0:0:0:0:
256,192,107833,1,0,0:0:0:0:
256,192,108010,1,8,0:0:0:0:
256,192,108186,1,0,0:0:0:0:
256,192,108539,1,8,0:0:0:0:
256,192,108716,1,0,0:0:0:0:
256,192,109069,1,8,0:0:0:0:
256,192,109245,1,0,0:0:0:0:
256,192,109421,1,8,0:0:0:0:
256,192,109774,1,0,0:0:0:0:
256,192,110127,1,0,0:0:0:0:
256,192,110480,1,8,0:0:0:0:
256,192,110657,1,0,0:0:0:0:
256,192,110833,1,8,0:0:0:0:
256,192,111186,1,8,0:0:0:0:
256,192,111539,1,0,0:0:0:0:
256,192,111892,1,8,0:0:0:0:
256,192,112069,1,0,0:0:0:0:
256,192,112245,1,8,0:0:0:0:
256,192,112598,1,0,0:0:0:0:
256,192,112951,1,8,0:0:0:0:
256,192,113127,1,8,0:0:0:0:
256,192,113304,1,0,0:0:0:0:
256,192,113480,1,0,0:0:0:0:
256,192,113657,1,8,0:0:0:0:
256,192,114010,1,8,0:0:0:0:
256,192,114363,1,0,0:0:0:0:
256,192,115069,1,8,0:0:0:0:
256,192,115421,1,0,0:0:0:0:
256,192,115774,1,8,0:0:0:0:
256,192,116480,1,8,0:0:0:0:
256,192,117186,1,0,0:0:0:0:
256,192,117892,1,8,0:0:0:0:
256,192,118245,1,0,0:0:0:0:
256,192,118598,1,0,0:0:0:0:
256,192,118774,1,0,0:0:0:0:
256,192,119127,1,0,0:0:0:0:
256,192,119304,1,8,0:0:0:0:
256,192,119480,1,0,0:0:0:0:
256,192,119657,1,8,0:0:0:0:
256,192,120010,1,0,0:0:0:0:
256,192,120716,1,8,0:0:0:0:
256,192,121069,1,0,0:0:0:0:
256,192,121421,1,8,0:0:0:0:
256,192,121774,1,0,0:0:0:0:
256,192,122127,1,0,0:0:0:0:
256,192,122480,1,8,0:0:0:0:
256,192,122833,1,0,0:0:0:0:
256,192,123186,1,0,0:0:0:0:
256,192,123363,1,8,0:0:0:0:
256,192,123539,1,0,0:0:0:0:
256,192,123892,1,0,0:0:0:0:
256,192,124245,1,8,0:0:0:0:
256,192,124598,1,8,0:0:0:0:
256,192,124775,1,8,0:0:0:0:
256,192,124951,1,0,0:0:0:0:
256,192,125128,1,0,0:0:0:0:
256,192,125304,1,8,0:0:0:0:
256,192,125481,1,8,0:0:0:0:
256,192,125657,1,4,0:0:0:0:
256,192,126010,1,8,0:0:0:0:
256,192,126186,1,0,0:0:0:0:
256,192,126275,1,0,0:0:0:0:
256,192,126363,1,0,0:0:0:0:
256,192,126539,1,0,0:0:0:0:
256,192,126716,1,8,0:0:0:0:
256,192,127069,1,0,0:0:0:0:
256,192,127245,1,0,0:0:0:0:
256,192,127422,1,8,0:0:0:0:
256,192,127598,1,0,0:0:0:0:
256,192,127951,1,0,0:0:0:0:
256,192,128128,1,8,0:0:0:0:
256,192,128304,1,0,0:0:0:0:
256,192,128481,1,0,0:0:0:0:
256,192,128834,1,8,0:0:0:0:
256,192,129010,1,8,0:0:0:0:
256,192,129098,1,8,0:0:0:0:
256,192,129186,1,0,0:0:0:0:
256,192,129363,1,0,0:0:0:0:
256,192,129539,1,8,0:0:0:0:
256,192,129892,1,0,0:0:0:0:
256,192,130245,1,8,0:0:0:0:
256,192,130422,1,0,0:0:0:0:
256,192,130775,1,0,0:0:0:0:
256,192,130951,1,8,0:0:0:0:
256,192,131039,1,8,0:0:0:0:
256,192,131128,1,8,0:0:0:0:
256,192,131304,1,0,0:0:0:0:
256,192,131657,1,8,0:0:0:0:
256,192,131834,1,0,0:0:0:0:
256,192,132186,1,0,0:0:0:0:
256,192,132363,1,8,0:0:0:0:
256,192,132539,1,0,0:0:0:0:
256,192,132716,1,0,0:0:0:0:
256,192,132892,1,0,0:0:0:0:
256,192,132981,1,0,0:0:0:0:
256,192,133069,1,8,0:0:0:0:
256,192,133245,1,0,0:0:0:0:
256,192,133598,1,0,0:0:0:0:
256,192,133775,1,8,0:0:0:0:
256,192,133951,1,8,0:0:0:0:
256,192,134128,1,0,0:0:0:0:
256,192,134304,1,0,0:0:0:0:
256,192,134392,1,0,0:0:0:0:
256,192,134481,1,8,0:0:0:0:
256,192,134657,1,8,0:0:0:0:
256,192,135010,1,0,0:0:0:0:
256,192,135186,1,8,0:0:0:0:
256,192,135363,1,0,0:0:0:0:
256,192,135539,1,8,0:0:0:0:
256,192,135892,1,8,0:0:0:0:
256,192,136069,1,8,0:0:0:0:
256,192,136157,1,8,0:0:0:0:
256,192,136245,1,0,0:0:0:0:
256,192,136422,1,0,0:0:0:0:
256,192,136598,1,8,0:0:0:0:
256,192,136951,1,0,0:0:0:0:
256,192,137128,1,0,0:0:0:0:
256,192,137304,1,8,0:0:0:0:
256,192,137481,1,0,0:0:0:0:
256,192,137834,1,0,0:0:0:0:
256,192,138010,1,8,0:0:0:0:
256,192,138186,1,0,0:0:0:0:
256,192,138363,1,0,0:0:0:0:
256,192,138716,1,8,0:0:0:0:
256,192,138892,1,0,0:0:0:0:
256,192,139245,1,0,0:0:0:0:
256,192,139422,1,8,0:0:0:0:
256,192,139598,1,8,0:0:0:0:
256,192,139775,1,0,0:0:0:0:
256,192,139951,1,0,0:0:0:0:
256,192,140039,1,0,0:0:0:0:
256,192,140128,1,8,0:0:0:0:
256,192,140304,1,0,0:0:0:0:
256,192,140657,1,0,0:0:0:0:
256,192,140834,1,8,0:0:0:0:
256,192,141010,1,8,0:0:0:0:
256,192,141186,1,0,0:0:0:0:
256,192,141539,1,8,0:0:0:0:
256,192,141716,1,0,0:0:0:0:
256,192,142069,1,0,0:0:0:0:
256,192,142245,1,8,0:0:0:0:
256,192,142422,1,0,0:0:0:0:
256,192,142598,1,0,0:0:0:0:
256,192,142775,1,0,0:0:0:0:
256,192,142951,1,8,0:0:0:0:
256,192,143128,1,0,0:0:0:0:
256,192,143481,1,0,0:0:0:0:
256,192,143657,1,8,0:0:0:0:
256,192,143834,1,0,0:0:0:0:
256,192,144010,1,0,0:0:0:0:
256,192,144363,1,8,0:0:0:0:
256,192,144539,1,0,0:0:0:0:
256,192,144892,1,0,0:0:0:0:
256,192,145069,1,8,0:0:0:0:
256,192,145157,1,8,0:0:0:0:
256,192,145245,1,8,0:0:0:0:
256,192,145422,1,0,0:0:0:0:
256,192,145598,1,0,0:0:0:0:
256,192,145775,1,8,0:0:0:0:
256,192,145951,1,8,0:0:0:0:
256,192,146128,1,0,0:0:0:0:
256,192,146304,1,0,0:0:0:0:
256,192,146481,1,8,0:0:0:0:
256,192,146657,1,8,0:0:0:0:
256,192,146834,1,0,0:0:0:0:
256,192,147186,1,8,0:0:0:0:
256,192,147363,1,0,0:0:0:0:
256,192,147451,1,8,0:0:0:0:
256,192,147539,1,0,0:0:0:0:
256,192,147716,1,0,0:0:0:0:
256,192,147892,1,8,0:0:0:0:
256,192,148245,1,4,0:0:0:0:
256,192,148598,1,8,0:0:0:0:
256,192,148774,1,0,0:0:0:0:
256,192,148863,1,0,0:0:0:0:
256,192,148951,1,0,0:0:0:0:
256,192,149127,1,0,0:0:0:0:
256,192,149304,1,8,0:0:0:0:
256,192,149657,1,0,0:0:0:0:
256,192,149833,1,0,0:0:0:0:
256,192,150010,1,8,0:0:0:0:
256,192,150186,1,0,0:0:0:0:
256,192,150539,1,0,0:0:0:0:
256,192,150716,1,8,0:0:0:0:
256,192,150892,1,0,0:0:0:0:
256,192,151069,1,0,0:0:0:0:
256,192,151422,1,8,0:0:0:0:
256,192,151598,1,8,0:0:0:0:
256,192,151686,1,8,0:0:0:0:
256,192,151774,1,0,0:0:0:0:
256,192,151951,1,0,0:0:0:0:
256,192,152127,1,8,0:0:0:0:
256,192,152480,1,0,0:0:0:0:
256,192,152833,1,8,0:0:0:0:
256,192,153010,1,0,0:0:0:0:
256,192,153363,1,0,0:0:0:0:
256,192,153539,1,8,0:0:0:0:
256,192,153627,1,8,0:0:0:0:
256,192,153716,1,8,0:0:0:0:
256,192,153892,1,0,0:0:0:0:
256,192,154245,1,8,0:0:0:0:
256,192,154422,1,0,0:0:0:0:
256,192,154774,1,0,0:0:0:0:
256,192,154951,1,8,0:0:0:0:
256,192,155127,1,0,0:0:0:0:
256,192,155304,1,0,0:0:0:0:
256,192,155480,1,0,0:0:0:0:
256,192,155569,1,0,0:0:0:0:
256,192,155657,1,8,0:0:0:0:
256,192,155833,1,0,0:0:0:0:
256,192,156186,1,0,0:0:0:0:
256,192,156363,1,8,0:0:0:0:
256,192,156539,1,8,0:0:0:0:
256,192,156716,1,0,0:0:0:0:
256,192,156892,1,0,0:0:0:0:
256,192,156980,1,0,0:0:0:0:
256,192,157069,1,8,0:0:0:0:
256,192,157245,1,8,0:0:0:0:
256,192,157598,1,0,0:0:0:0:
256,192,157774,1,8,0:0:0:0:
256,192,157951,1,0,0:0:0:0:
256,192,158127,1,8,0:0:0:0:
256,192,158480,1,8,0:0:0:0:
256,192,158657,1,8,0:0:0:0:
256,192,158745,1,8,0:0:0:0:
256,192,158833,1,0,0:0:0:0:
256,192,159010,1,0,0:0:0:0:
256,192,159186,1,8,0:0:0:0:
256,192,159539,1,0,0:0:0:0:
256,192,159716,1,0,0:0:0:0:
256,192,159892,1,8,0:0:0:0:
256,192,160069,1,0,0:0:0:0:
256,192,160422,1,0,0:0:0:0:
256,192,160598,1,8,0:0:0:0:
256,192,160774,1,0,0:0:0:0:
256,192,160951,1,0,0:0:0:0:
256,192,161304,1,8,0:0:0:0:
256,192,161480,1,0,0:0:0:0:
256,192,161833,1,0,0:0:0:0:
256,192,162010,1,8,0:0:0:0:
256,192,162186,1,8,0:0:0:0:
256,192,162363,1,0,0:0:0:0:
256,192,162539,1,0,0:0:0:0:
256,192,162627,1,0,0:0:0:0:
256,192,162716,1,8,0:0:0:0:
256,192,162892,1,0,0:0:0:0:
256,192,163245,1,0,0:0:0:0:
256,192,163422,1,8,0:0:0:0:
256,192,163598,1,8,0:0:0:0:
256,192,163774,1,0,0:0:0:0:
256,192,164127,1,8,0:0:0:0:
256,192,164304,1,0,0:0:0:0:
256,192,164657,1,0,0:0:0:0:
256,192,164833,1,8,0:0:0:0:
256,192,165010,1,0,0:0:0:0:
256,192,165186,1,0,0:0:0:0:
256,192,165363,1,0,0:0:0:0:
256,192,165539,1,8,0:0:0:0:
256,192,165716,1,0,0:0:0:0:
256,192,166069,1,0,0:0:0:0:
256,192,166245,1,8,0:0:0:0:
256,192,166422,1,0,0:0:0:0:
256,192,166598,1,0,0:0:0:0:
256,192,166951,1,8,0:0:0:0:
256,192,167127,1,0,0:0:0:0:
256,192,167480,1,0,0:0:0:0:
256,192,167657,1,8,0:0:0:0:
256,192,167745,1,8,0:0:0:0:
256,192,167833,1,8,0:0:0:0:
256,192,168010,1,0,0:0:0:0:
256,192,168186,1,0,0:0:0:0:
256,192,168363,1,8,0:0:0:0:
256,192,168539,1,8,0:0:0:0:
256,192,168716,1,0,0:0:0:0:
256,192,168892,1,0,0:0:0:0:
256,192,169069,1,8,0:0:0:0:
256,192,169245,1,8,0:0:0:0:
256,192,169422,1,0,0:0:0:0:
256,192,169774,1,8,0:0:0:0:
256,192,169951,1,0,0:0:0:0:
256,192,170039,1,8,0:0:0:0:
256,192,170127,1,0,0:0:0:0:
256,192,170304,1,0,0:0:0:0:
256,192,170480,1,8,0:0:0:0:
256,192,170657,1,0,0:0:0:0:
256,192,170833,1,4,0:0:0:0:
256,192,171892,1,8,0:0:0:0:
256,192,172245,1,8,0:0:0:0:
256,192,172951,1,0,0:0:0:0:
256,192,173657,1,8,0:0:0:0:
256,192,173745,12,8,177892,0:0:0:0:
