osu file format v14

[General]
AudioFilename: audio.mp3
AudioLeadIn: 0
PreviewTime: 5410
Countdown: 0
SampleSet: Normal
StackLeniency: 0.7
Mode: 1
LetterboxInBreaks: 0
WidescreenStoryboard: 0

[Editor]
DistanceSpacing: 0.8
BeatDivisor: 12
GridSize: 16
TimelineZoom: 1.9

[Metadata]
Title:Oomiwa Shinwaden
TitleUnicode:大神神話伝
Artist:Tai no Kobone
ArtistUnicode:鯛の小骨
Creator:CallMeLyra
Version:Shikaisen Swing
Source:東方深秘録 ~ Urban Legend in Limbo.
Tags:Tadayoshi Moriya Ukobone Legend of the Great Gods th14.5 th15.5 Mononobe no Futo 物部 布都 ZUN Shinpiroku 東方憑依華 ~ Antinomy of Common Flowers hyouibana touhou 東方project team shanghai alice twilight frontier 黄昏フロンティア Tasofro jazz video game instrumental
BeatmapID:2877465
BeatmapSetID:1393936

[Difficulty]
HPDrainRate:6
CircleSize:5
OverallDifficulty:6
ApproachRate:5
SliderMultiplier:1.4
SliderTickRate:1

[Events]
//Background and Video events
0,0,"Fujiko.jpg",0,150
//Break Periods
//Storyboard Layer 0 (Background)
//Storyboard Layer 1 (Fail)
//Storyboard Layer 2 (Pass)
//Storyboard Layer 3 (Foreground)
//Storyboard Layer 4 (Overlay)
//Storyboard Sound Samples

[TimingPoints]
-1320,576.923076923077,4,1,0,80,1,0
601,-76.9230769230769,4,1,0,80,0,0
649,-78.7401574803149,4,1,0,80,0,0
841,-80,4,1,0,80,0,0
937,-81.9672131147541,4,1,0,80,0,0
1129,-83.3333333333333,4,1,0,80,0,0
1226,-85.4700854700855,4,1,0,80,0,0
1418,-86.9565217391304,4,1,0,80,0,0
1706,-83.3333333333333,4,1,0,80,0,0
1803,-84.7457627118644,4,1,0,80,0,0
1995,-86.9565217391304,4,1,0,80,0,0
2283,-83.3333333333333,4,1,0,80,0,0
2380,-84.7457627118644,4,1,0,80,0,0
2572,-86.9565217391304,4,1,0,80,0,0
2860,-80,4,1,0,80,0,0
3245,-81.9672131147541,4,1,0,80,0,0
3437,-80.6451612903226,4,1,0,80,0,0
3726,-74.0740740740741,4,1,0,80,0,0
4014,-78.125,4,1,0,80,0,0
4110,-77.5193798449612,4,1,0,80,0,0
4303,-76.9230769230769,4,1,0,80,0,0
4399,-76.0456273764259,4,1,0,80,0,0
4495,-75.187969924812,4,1,0,80,0,0
4591,-74.3494423791822,4,1,0,80,0,0
4687,-73.5294117647059,4,1,0,80,0,0
4783,-72.7272727272727,4,1,0,80,0,0
4879,-71.9424460431655,4,1,0,80,0,0
4976,-71.1743772241993,4,1,0,80,0,0
5456,-83.3333333333333,4,1,0,80,0,0
7764,-68.9655172413793,4,1,0,80,0,0
7908,-83.3333333333333,4,1,0,80,0,0
8341,-71.4285714285714,4,1,0,80,0,0
8629,-83.3333333333333,4,1,0,80,0,0
8918,-74.0740740740741,4,1,0,80,0,0
9303,-83.3333333333333,4,1,0,80,0,0
12379,-68.9655172413793,4,1,0,80,0,0
12523,-83.3333333333333,4,1,0,80,0,0
12956,-71.4285714285714,4,1,0,80,0,0
13244,-83.3333333333333,4,1,0,80,0,0
13533,-74.0740740740741,4,1,0,80,0,0
13918,-83.3333333333333,4,1,0,80,0,0
14783,-68.9655172413793,4,1,0,80,0,0
14879,-69.9300699300699,4,1,0,80,0,0
14976,-70.9219858156028,4,1,0,80,0,0
15072,-71.9424460431655,4,1,0,80,0,0
15168,-72.992700729927,4,1,0,80,0,0
15264,-74.0740740740741,4,1,0,80,0,0
15360,-75.187969924812,4,1,0,80,0,0
15649,-68.9655172413793,4,1,0,80,0,0
15745,-69.9300699300699,4,1,0,80,0,0
15842,-70.9219858156028,4,1,0,80,0,0
15938,-71.9424460431655,4,1,0,80,0,0
16034,-72.992700729927,4,1,0,80,0,0
16130,-74.0740740740741,4,1,0,80,0,0
16226,-75.187969924812,4,1,0,80,0,0
16514,-69.9300699300699,4,1,0,80,0,0
16803,-64.5161290322581,4,1,0,80,0,0
17091,-59.5238095238095,4,1,0,80,0,0
17379,-63.6942675159236,4,1,0,80,0,0
17572,-67.1140939597315,4,1,0,80,0,0
17668,-68.0272108843537,4,1,0,80,0,0
17956,-71.4285714285714,4,1,0,80,0,0
18149,-74.6268656716418,4,1,0,80,0,0
18245,-75.7575757575758,4,1,0,80,0,0
18437,-78.125,4,1,0,80,0,0
18533,-79.3650793650794,4,1,0,80,0,0
18726,-81.3008130081301,4,1,0,80,0,0
18822,-82.6446280991736,4,1,0,80,0,0
19014,-84.0336134453781,4,1,0,80,0,0
19110,-85.4700854700855,4,1,0,80,0,0
19399,-68.9655172413793,4,1,0,80,0,0
19495,-69.9300699300699,4,1,0,80,0,0
19592,-70.9219858156028,4,1,0,80,0,0
19688,-71.9424460431655,4,1,0,80,0,0
19784,-72.992700729927,4,1,0,80,0,0
19880,-74.0740740740741,4,1,0,80,0,0
19976,-75.187969924812,4,1,0,80,0,0
20265,-68.9655172413793,4,1,0,80,0,0
20361,-69.9300699300699,4,1,0,80,0,0
20458,-70.9219858156028,4,1,0,80,0,0
20554,-71.9424460431655,4,1,0,80,0,0
20650,-72.992700729927,4,1,0,80,0,0
20746,-74.0740740740741,4,1,0,80,0,0
20842,-75.187969924812,4,1,0,80,0,0
21129,-69.9300699300699,4,1,0,80,0,0
21418,-65.359477124183,4,1,0,80,0,0
21706,-61.3496932515337,4,1,0,80,0,0
21995,-58.8235294117647,4,1,0,80,0,0
22284,-56.4971751412429,4,1,0,80,0,0
22572,-54.3478260869565,4,1,0,80,0,0
22860,-52.3560209424084,4,1,0,80,0,0
23149,-50.5050505050505,4,1,0,80,0,0
24062,-83.3333333333333,4,1,0,80,0,0
28245,-71.4285714285714,4,1,0,80,0,0
28533,-66.6666666666667,4,1,0,80,0,0
28678,-74.0740740740741,4,1,0,80,0,0
29110,-68.9655172413793,4,1,0,80,0,0
29399,-76.9230769230769,4,1,0,80,0,0
29687,-71.4285714285714,4,1,0,80,0,0
30072,-78.7401574803149,4,1,0,80,0,0
30360,-86.2068965517241,4,1,0,80,0,0
30456,-87.719298245614,4,1,0,80,0,0
30553,-89.2857142857143,4,1,0,80,0,0
30649,-90.9090909090909,4,1,0,80,0,0
30841,-80,4,1,0,80,0,0
30985,-83.3333333333333,4,1,0,80,0,0
37476,-71.4285714285714,4,1,0,80,0,0
37764,-66.6666666666667,4,1,0,80,0,0
37908,-74.0740740740741,4,1,0,80,0,0
38341,-68.9655172413793,4,1,0,80,0,0
38630,-76.9230769230769,4,1,0,80,0,0
38918,-71.4285714285714,4,1,0,80,0,0
39303,-78.7401574803149,4,1,0,80,0,0
39591,-87.719298245614,4,1,0,80,0,0
39783,-89.2857142857143,4,1,0,80,0,0
40072,-81.9672131147541,4,1,0,80,0,0
40360,-80.6451612903226,4,1,0,80,0,0
40721,-76.9230769230769,4,1,0,80,0,0
41009,-73.5294117647059,4,1,0,80,0,0
41298,-75.7575757575758,4,1,0,80,0,0
41442,-74.9063670411985,4,1,0,80,0,0
41514,-74.0740740740741,4,1,0,80,0,0
41586,-73.2600732600733,4,1,0,80,0,0
41730,-72.463768115942,4,1,0,80,0,0
41803,-71.6845878136201,4,1,0,80,0,0
41875,-70.9219858156028,4,1,0,80,0,0
42452,-83.3333333333333,4,1,0,80,0,0
51706,-76.9230769230769,4,1,0,80,0,0
58533,-71.4285714285714,4,1,0,80,0,0
58678,-76.9230769230769,4,1,0,80,0,0
58822,-74.6268656716418,4,1,0,80,0,0
58918,-74.0740740740741,4,1,0,80,0,0
59110,-72.992700729927,4,1,0,80,0,0
59206,-71.9424460431655,4,1,0,80,0,0
59399,-68.9655172413793,4,1,0,80,0,0
59687,-71.4285714285714,4,1,0,80,0,0
59976,-66.6666666666667,4,1,0,80,0,0
60264,-62.5,4,1,0,80,0,0
60553,-71.4285714285714,4,1,0,80,0,0
60987,-68.9655172413793,4,1,0,80,0,1
67766,-60.6060606060606,4,1,0,80,0,1
67910,-68.9655172413793,4,1,0,80,0,1
76997,-60.6060606060606,4,1,0,80,0,1
77141,-66.6666666666667,4,1,0,80,0,1
77574,-68.9655172413793,4,1,0,80,0,1
77862,-71.4285714285714,4,1,0,80,0,1
78151,-73.5294117647059,4,1,0,80,0,1
78439,-75.7575757575758,4,1,0,80,0,1
78728,-78.125,4,1,0,80,0,1
79016,-80,4,1,0,80,0,1
79305,-81.9672131147541,4,1,0,80,0,1
79449,-81.9672131147541,4,1,0,80,0,0
79663,-84.0336134453781,4,1,0,80,0,0
79879,-86.2068965517241,4,1,0,80,0,0
80240,-88.4955752212389,4,1,0,80,0,0
80456,-90.9090909090909,4,1,0,80,0,0
80817,-93.4579439252336,4,1,0,80,0,0
81033,-96.1538461538461,4,1,0,80,0,0
81394,-99.009900990099,4,1,0,80,0,0
81610,-102.040816326531,4,1,0,80,0,0
82187,-62.5,4,1,0,80,0,0
82476,-66.6666666666667,4,1,0,80,0,0
82764,-71.4285714285714,4,1,0,80,0,0
83341,-74.0740740740741,4,1,0,80,0,0
83629,-76.3358778625954,4,1,0,80,0,0
83726,-76.9230769230769,4,1,0,80,0,0
83822,-77.5193798449612,4,1,0,80,0,0
83918,-78.125,4,1,0,80,0,0
84014,-78.7401574803149,4,1,0,80,0,0
84206,-83.3333333333333,4,1,0,80,0,0
88245,-71.4285714285714,4,1,0,80,0,0
88533,-66.6666666666667,4,1,0,80,0,0
88678,-74.0740740740741,4,1,0,80,0,0
89110,-68.9655172413793,4,1,0,80,0,0
89399,-76.9230769230769,4,1,0,80,0,0
89687,-71.4285714285714,4,1,0,80,0,0
90072,-78.7401574803149,4,1,0,80,0,0
90360,-86.2068965517241,4,1,0,80,0,0
90456,-87.719298245614,4,1,0,80,0,0
90553,-89.2857142857143,4,1,0,80,0,0
90649,-90.9090909090909,4,1,0,80,0,0
90841,-80,4,1,0,80,0,0
90985,-83.3333333333333,4,1,0,80,0,0
97476,-71.4285714285714,4,1,0,80,0,0
97764,-66.6666666666667,4,1,0,80,0,0
97909,-74.0740740740741,4,1,0,80,0,0
98341,-68.9655172413793,4,1,0,80,0,0
98630,-76.9230769230769,4,1,0,80,0,0
98918,-71.4285714285714,4,1,0,80,0,0
99206,-78.7401574803149,4,1,0,80,0,0
99591,-86.2068965517241,4,1,0,80,0,0
99687,-87.719298245614,4,1,0,80,0,0
99784,-89.2857142857143,4,1,0,80,0,0
99880,-90.9090909090909,4,1,0,80,0,0
100072,-80,4,1,0,80,0,0
100216,-83.3333333333333,4,1,0,80,0,0
106706,-71.4285714285714,4,1,0,80,0,0
106995,-66.6666666666667,4,1,0,80,0,0
107139,-74.0740740740741,4,1,0,80,0,0
107572,-68.9655172413793,4,1,0,80,0,0
107861,-76.9230769230769,4,1,0,80,0,0
108149,-71.4285714285714,4,1,0,80,0,0
108534,-78.7401574803149,4,1,0,80,0,0
108822,-86.2068965517241,4,1,0,80,0,0
108918,-87.719298245614,4,1,0,80,0,0
109015,-89.2857142857143,4,1,0,80,0,0
109111,-90.9090909090909,4,1,0,80,0,0
109303,-80,4,1,0,80,0,0
109447,-83.3333333333333,4,1,0,80,0,0
115937,-71.4285714285714,4,1,0,80,0,0
116226,-66.6666666666667,4,1,0,80,0,0
116370,-74.0740740740741,4,1,0,80,0,0
116803,-68.9655172413793,4,1,0,80,0,0
117092,-76.9230769230769,4,1,0,80,0,0
117380,-71.4285714285714,4,1,0,80,0,0
117765,-78.7401574803149,4,1,0,80,0,0
118053,-87.719298245614,4,1,0,80,0,0
118245,-89.2857142857143,4,1,0,80,0,0
118533,-81.9672131147541,4,1,0,80,0,0
118821,-80.6451612903226,4,1,0,80,0,0
119182,-76.9230769230769,4,1,0,80,0,0
119470,-73.5294117647059,4,1,0,80,0,0
119759,-75.7575757575758,4,1,0,80,0,0
119903,-74.9063670411985,4,1,0,80,0,0
119975,-74.0740740740741,4,1,0,80,0,0
120047,-73.2600732600733,4,1,0,80,0,0
120191,-72.463768115942,4,1,0,80,0,0
120264,-71.6845878136201,4,1,0,80,0,0
120336,-70.9219858156028,4,1,0,80,0,0
120913,-83.3333333333333,4,1,0,80,0,0
125456,-74.0740740740741,4,1,0,80,0,0
125601,-80,4,1,0,80,0,0
126033,-76.9230769230769,4,1,0,80,0,0
126322,-83.3333333333333,4,1,0,80,0,0
126610,-80,4,1,0,80,0,0
126995,-83.3333333333333,4,1,0,80,0,0
127283,-87.3362445414847,4,1,0,80,0,0
127379,-88.4955752212389,4,1,0,80,0,0
127476,-89.6860986547085,4,1,0,80,0,0
127572,-90.9090909090909,4,1,0,80,0,0
127764,-80,4,1,0,80,0,0
127908,-83.3333333333333,4,1,0,80,0,0
134687,-74.0740740740741,4,1,0,80,0,0
134831,-80,4,1,0,80,0,0
135264,-76.9230769230769,4,1,0,80,0,0
135553,-83.3333333333333,4,1,0,80,0,0
135841,-80,4,1,0,80,0,0
136226,-83.3333333333333,4,1,0,80,0,0
136514,-87.719298245614,4,1,0,80,0,0
136706,-84.7457627118644,4,1,0,80,0,0
136995,-71.4285714285714,4,1,0,80,0,0
137093,-76.9230769230769,4,1,0,80,0,0
137379,-78.7401574803149,4,1,0,80,0,0
137644,-75.187969924812,4,1,0,80,0,0
137932,-70.9219858156028,4,1,0,80,0,0
138245,-66.2251655629139,4,1,0,80,0,0
138341,-67.5675675675676,4,1,0,80,0,0
138437,-68.9655172413793,4,1,0,80,0,0
138533,-70.4225352112676,4,1,0,80,0,0
138629,-71.9424460431655,4,1,0,80,0,0
138726,-73.5294117647059,4,1,0,80,0,0
138822,-75.187969924812,4,1,0,80,0,0
139062,-76.9230769230769,4,1,0,80,0,0
139110,-78.7401574803149,4,1,0,80,0,0
139302,-80,4,1,0,80,0,0
139398,-81.9672131147541,4,1,0,80,0,0
139590,-83.3333333333333,4,1,0,80,0,0
139687,-85.4700854700855,4,1,0,80,0,0
139879,-86.9565217391304,4,1,0,80,0,0
140167,-83.3333333333333,4,1,0,80,0,0
140264,-84.7457627118644,4,1,0,80,0,0
140456,-86.9565217391304,4,1,0,80,0,0
140744,-83.3333333333333,4,1,0,80,0,0
140841,-84.7457627118644,4,1,0,80,0,0
141033,-86.9565217391304,4,1,0,80,0,0
141321,-80,4,1,0,80,0,0
141706,-81.9672131147541,4,1,0,80,0,0
141898,-80.6451612903226,4,1,0,80,0,0
142187,-74.0740740740741,4,1,0,80,0,0
142476,-78.125,4,1,0,80,0,0
142572,-77.5193798449612,4,1,0,80,0,0
142765,-76.9230769230769,4,1,0,80,0,0
142861,-76.0456273764259,4,1,0,80,0,0
142957,-75.187969924812,4,1,0,80,0,0
143053,-74.3494423791822,4,1,0,80,0,0
143149,-73.5294117647059,4,1,0,80,0,0
143245,-72.7272727272727,4,1,0,80,0,0
143341,-71.9424460431655,4,1,0,80,0,0
143438,-71.1743772241993,4,1,0,80,0,0

[HitObjects]
256,192,603,5,0,0:0:0:0:
256,192,699,5,0,0:0:0:0:
256,192,891,5,0,0:0:0:0:
256,192,987,5,0,0:0:0:0:
256,192,1180,5,0,0:0:0:0:
256,192,1276,5,8,0:0:0:0:
256,192,1468,5,0,0:0:0:0:
256,192,1756,5,0,0:0:0:0:
256,192,1853,5,8,0:0:0:0:
256,192,2045,5,0,0:0:0:0:
256,192,2333,5,8,0:0:0:0:
256,192,2430,5,8,0:0:0:0:
256,192,2622,5,0,0:0:0:0:
256,192,2910,1,8,0:0:0:0:
256,192,3295,1,0,0:0:0:0:
256,192,3487,1,8,0:0:0:0:
256,192,3776,1,8,0:0:0:0:
256,192,4064,1,0,0:0:0:0:
256,192,4160,1,0,0:0:0:0:
256,192,4353,1,0,0:0:0:0:
256,192,4449,1,8,0:0:0:0:
256,192,4545,1,8,0:0:0:0:
256,192,4641,1,8,0:0:0:0:
256,192,4737,1,8,0:0:0:0:
256,192,4833,1,8,0:0:0:0:
256,192,4930,1,8,0:0:0:0:
256,192,5026,1,0,0:0:0:0:
256,192,5506,1,0,0:0:0:0:
256,192,5603,1,0,0:0:0:0:
256,192,5795,1,0,0:0:0:0:
256,192,5891,1,8,0:0:0:0:
256,192,6083,1,8,0:0:0:0:
256,192,6180,1,0,0:0:0:0:
256,192,6468,1,8,0:0:0:0:
256,192,6660,1,0,0:0:0:0:
256,192,6756,1,0,0:0:0:0:
256,192,6949,1,0,0:0:0:0:
256,192,7045,1,8,0:0:0:0:
256,192,7237,1,0,0:0:0:0:
256,192,7333,1,8,0:0:0:0:
256,192,7526,1,8,0:0:0:0:
256,192,7622,1,8,0:0:0:0:
256,192,7814,1,12,0:0:0:0:
256,192,8103,1,0,0:0:0:0:
256,192,8199,1,0,0:0:0:0:
256,192,8391,1,4,0:0:0:0:
256,192,8680,1,0,0:0:0:0:
256,192,8776,1,0,0:0:0:0:
256,192,8968,1,12,0:0:0:0:
256,192,9353,1,8,0:0:0:0:
256,192,9545,1,8,0:0:0:0:
256,192,9641,1,0,0:0:0:0:
256,192,9930,1,8,0:0:0:0:
256,192,10218,1,0,0:0:0:0:
256,192,10410,1,0,0:0:0:0:
256,192,10506,1,8,0:0:0:0:
256,192,10699,1,8,0:0:0:0:
256,192,10795,1,0,0:0:0:0:
256,192,11083,1,8,0:0:0:0:
256,192,11276,1,0,0:0:0:0:
256,192,11372,1,0,0:0:0:0:
256,192,11564,1,0,0:0:0:0:
256,192,11660,1,8,0:0:0:0:
256,192,11853,1,0,0:0:0:0:
256,192,11949,1,8,0:0:0:0:
256,192,12141,1,8,0:0:0:0:
256,192,12237,1,8,0:0:0:0:
256,192,12430,1,12,0:0:0:0:
256,192,12718,1,0,0:0:0:0:
256,192,12814,1,8,0:0:0:0:
256,192,13006,1,12,0:0:0:0:
256,192,13295,1,0,0:0:0:0:
256,192,13391,1,8,0:0:0:0:
256,192,13583,5,12,0:0:0:0:
256,192,13968,1,8,0:0:0:0:
256,192,14160,1,8,0:0:0:0:
256,192,14256,1,0,0:0:0:0:
256,192,14545,1,8,0:0:0:0:
256,192,14833,5,0,0:0:0:0:
256,192,14930,1,0,0:0:0:0:
256,192,15026,1,8,0:0:0:0:
256,192,15122,1,0,0:0:0:0:
256,192,15218,1,8,0:0:0:0:
256,192,15314,1,8,0:0:0:0:
256,192,15410,1,0,0:0:0:0:
256,192,15699,5,0,0:0:0:0:
256,192,15795,1,0,0:0:0:0:
256,192,15891,1,8,0:0:0:0:
256,192,15987,5,0,0:0:0:0:
256,192,16083,1,8,0:0:0:0:
256,192,16180,1,8,0:0:0:0:
256,192,16276,1,0,0:0:0:0:
256,192,16564,5,8,0:0:0:0:
256,192,16853,5,8,0:0:0:0:
256,192,17141,5,0,0:0:0:0:
256,192,17430,1,0,0:0:0:0:
256,192,17622,1,0,0:0:0:0:
256,192,17718,1,8,0:0:0:0:
256,192,18006,1,8,0:0:0:0:
256,192,18199,1,0,0:0:0:0:
256,192,18295,1,8,0:0:0:0:
256,192,18487,1,0,0:0:0:0:
256,192,18583,1,8,0:0:0:0:
256,192,18776,1,0,0:0:0:0:
256,192,18872,1,8,0:0:0:0:
256,192,19064,1,8,0:0:0:0:
256,192,19160,1,0,0:0:0:0:
256,192,19449,5,0,0:0:0:0:
256,192,19545,1,0,0:0:0:0:
256,192,19641,1,8,0:0:0:0:
256,192,19737,1,0,0:0:0:0:
256,192,19833,1,8,0:0:0:0:
256,192,19930,1,8,0:0:0:0:
256,192,20026,1,0,0:0:0:0:
256,192,20314,5,0,0:0:0:0:
256,192,20410,1,0,0:0:0:0:
256,192,20506,1,8,0:0:0:0:
256,192,20603,1,0,0:0:0:0:
256,192,20699,1,8,0:0:0:0:
256,192,20795,1,8,0:0:0:0:
256,192,20891,1,0,0:0:0:0:
256,192,21180,1,8,0:0:0:0:
256,192,21468,1,0,0:0:0:0:
256,192,21756,1,12,0:0:0:0:
256,192,22045,1,12,0:0:0:0:
256,192,22333,1,12,0:0:0:0:
256,192,22622,1,12,0:0:0:0:
256,192,22910,1,4,0:0:0:0:
256,192,23199,1,8,0:0:0:0:
256,192,24064,1,0,0:0:0:0:
256,192,24256,1,0,0:0:0:0:
256,192,24353,1,8,0:0:0:0:
256,192,24545,1,0,0:0:0:0:
256,192,24641,1,0,0:0:0:0:
256,192,24833,1,0,0:0:0:0:
256,192,24930,1,8,0:0:0:0:
256,192,25218,1,0,0:0:0:0:
256,192,25506,1,0,0:0:0:0:
256,192,25699,1,8,0:0:0:0:
256,192,25795,1,0,0:0:0:0:
256,192,25987,1,0,0:0:0:0:
256,192,26083,1,8,0:0:0:0:
256,192,26276,1,0,0:0:0:0:
256,192,26564,1,0,0:0:0:0:
256,192,26660,1,0,0:0:0:0:
256,192,26853,1,0,0:0:0:0:
256,192,26949,1,8,0:0:0:0:
256,192,27237,1,0,0:0:0:0:
256,192,27430,1,8,0:0:0:0:
256,192,27718,1,8,0:0:0:0:
256,192,27814,1,0,0:0:0:0:
256,192,28006,1,0,0:0:0:0:
256,192,28295,1,0,0:0:0:0:
256,192,28391,1,8,0:0:0:0:
256,192,28583,1,4,0:0:0:0:
256,192,28872,1,8,0:0:0:0:
256,192,29160,1,4,0:0:0:0:
256,192,29449,1,8,0:0:0:0:
256,192,29737,1,4,0:0:0:0:
256,192,30122,1,8,0:0:0:0:
256,192,30410,1,8,0:0:0:0:
256,192,30506,1,8,0:0:0:0:
256,192,30603,1,0,0:0:0:0:
256,192,30699,1,8,0:0:0:0:
256,192,30891,1,0,0:0:0:0:
256,192,31180,1,0,0:0:0:0:
256,192,31276,1,8,0:0:0:0:
256,192,31468,1,0,0:0:0:0:
256,192,31564,1,0,0:0:0:0:
256,192,31853,1,0,0:0:0:0:
256,192,32045,1,8,0:0:0:0:
256,192,32333,1,0,0:0:0:0:
256,192,32430,1,8,0:0:0:0:
256,192,32622,1,0,0:0:0:0:
256,192,32718,1,0,0:0:0:0:
256,192,32910,1,0,0:0:0:0:
256,192,33006,1,8,0:0:0:0:
256,192,33199,1,8,0:0:0:0:
256,192,33295,1,0,0:0:0:0:
256,192,33487,1,0,0:0:0:0:
256,192,33583,1,8,0:0:0:0:
256,192,33776,1,0,0:0:0:0:
256,192,33872,1,0,0:0:0:0:
256,192,34064,1,0,0:0:0:0:
256,192,34160,1,8,0:0:0:0:
256,192,34449,1,0,0:0:0:0:
256,192,34737,1,0,0:0:0:0:
256,192,34930,1,8,0:0:0:0:
256,192,35026,1,0,0:0:0:0:
256,192,35218,1,0,0:0:0:0:
256,192,35314,1,8,0:0:0:0:
256,192,35506,1,0,0:0:0:0:
256,192,35795,1,8,0:0:0:0:
256,192,35891,1,0,0:0:0:0:
256,192,36083,1,0,0:0:0:0:
256,192,36180,1,0,0:0:0:0:
256,192,36468,1,0,0:0:0:0:
256,192,36660,1,8,0:0:0:0:
256,192,36949,1,8,0:0:0:0:
256,192,37045,1,0,0:0:0:0:
256,192,37237,1,0,0:0:0:0:
256,192,37526,1,0,0:0:0:0:
256,192,37622,1,8,0:0:0:0:
256,192,37814,1,4,0:0:0:0:
256,192,38103,1,8,0:0:0:0:
256,192,38391,1,4,0:0:0:0:
256,192,38680,1,8,0:0:0:0:
256,192,38968,1,4,0:0:0:0:
256,192,39353,1,8,0:0:0:0:
256,192,39641,1,8,0:0:0:0:
256,192,39833,1,8,0:0:0:0:
256,192,40122,1,0,0:0:0:0:
256,192,40410,5,0,0:0:0:0:
256,192,40506,1,8,0:0:0:0:
256,192,40795,1,8,0:0:0:0:
256,192,41083,1,8,0:0:0:0:
256,192,41372,5,8,0:0:0:0:
256,192,41468,1,8,0:0:0:0:
256,192,41564,1,8,0:0:0:0:
256,192,41660,1,8,0:0:0:0:
256,192,41756,1,8,0:0:0:0:
256,192,41853,1,8,0:0:0:0:
256,192,41949,1,0,0:0:0:0:
256,192,42526,1,0,0:0:0:0:
256,192,42814,1,0,0:0:0:0:
256,192,43006,1,0,0:0:0:0:
256,192,43103,1,8,0:0:0:0:
256,192,43391,1,0,0:0:0:0:
256,192,43583,1,8,0:0:0:0:
256,192,43680,1,0,0:0:0:0:
256,192,43872,1,8,0:0:0:0:
256,192,43968,1,0,0:0:0:0:
256,192,44160,1,8,0:0:0:0:
256,192,44449,1,0,0:0:0:0:
256,192,44545,1,8,0:0:0:0:
256,192,44737,1,8,0:0:0:0:
256,192,44833,1,0,0:0:0:0:
256,192,45026,1,0,0:0:0:0:
256,192,45122,1,8,0:0:0:0:
256,192,45314,1,0,0:0:0:0:
256,192,45410,1,8,0:0:0:0:
256,192,45603,1,0,0:0:0:0:
256,192,45699,1,0,0:0:0:0:
256,192,45987,1,8,0:0:0:0:
256,192,46180,1,8,0:0:0:0:
256,192,46276,1,0,0:0:0:0:
256,192,46468,1,0,0:0:0:0:
256,192,46756,1,0,0:0:0:0:
256,192,46853,1,8,0:0:0:0:
256,192,47045,1,8,0:0:0:0:
256,192,47141,1,0,0:0:0:0:
256,192,47430,1,0,0:0:0:0:
256,192,47622,1,0,0:0:0:0:
256,192,47718,1,8,0:0:0:0:
256,192,48006,1,0,0:0:0:0:
256,192,48199,1,8,0:0:0:0:
256,192,48295,1,0,0:0:0:0:
256,192,48487,1,8,0:0:0:0:
256,192,48583,1,0,0:0:0:0:
256,192,48776,1,8,0:0:0:0:
256,192,49064,1,0,0:0:0:0:
256,192,49160,1,8,0:0:0:0:
256,192,49353,1,8,0:0:0:0:
256,192,49449,1,0,0:0:0:0:
256,192,49641,1,0,0:0:0:0:
256,192,49737,1,8,0:0:0:0:
256,192,49930,1,0,0:0:0:0:
256,192,50026,1,8,0:0:0:0:
256,192,50218,1,0,0:0:0:0:
256,192,50314,1,0,0:0:0:0:
256,192,50603,1,8,0:0:0:0:
256,192,50795,1,8,0:0:0:0:
256,192,50891,1,0,0:0:0:0:
256,192,51083,1,0,0:0:0:0:
256,192,51372,1,0,0:0:0:0:
256,192,51468,1,8,0:0:0:0:
256,192,51756,1,4,0:0:0:0:
256,192,51949,1,8,0:0:0:0:
256,192,52045,1,0,0:0:0:0:
256,192,52237,1,0,0:0:0:0:
256,192,52333,1,8,0:0:0:0:
256,192,52526,1,0,0:0:0:0:
256,192,52622,1,0,0:0:0:0:
256,192,52814,1,8,0:0:0:0:
256,192,52910,1,0,0:0:0:0:
256,192,53103,1,8,0:0:0:0:
256,192,53199,1,0,0:0:0:0:
256,192,53391,1,8,0:0:0:0:
256,192,53680,1,0,0:0:0:0:
256,192,53776,1,8,0:0:0:0:
256,192,53968,1,0,0:0:0:0:
256,192,54064,1,0,0:0:0:0:
256,192,54256,1,0,0:0:0:0:
256,192,54353,1,8,0:0:0:0:
256,192,54545,1,0,0:0:0:0:
256,192,54641,1,8,0:0:0:0:
256,192,54833,1,0,0:0:0:0:
256,192,54930,1,0,0:0:0:0:
256,192,55122,1,0,0:0:0:0:
256,192,55218,1,8,0:0:0:0:
256,192,55410,1,8,0:0:0:0:
256,192,55506,1,0,0:0:0:0:
256,192,55699,1,8,0:0:0:0:
256,192,55987,1,8,0:0:0:0:
256,192,56083,1,0,0:0:0:0:
256,192,56276,1,8,0:0:0:0:
256,192,56372,1,0,0:0:0:0:
256,192,56564,1,0,0:0:0:0:
256,192,56660,1,0,0:0:0:0:
256,192,56853,1,0,0:0:0:0:
256,192,56949,1,8,0:0:0:0:
256,192,57141,1,0,0:0:0:0:
256,192,57237,1,0,0:0:0:0:
256,192,57430,1,8,0:0:0:0:
256,192,57526,1,0,0:0:0:0:
256,192,57718,1,8,0:0:0:0:
256,192,57814,1,0,0:0:0:0:
256,192,58006,1,8,0:0:0:0:
256,192,58295,1,8,0:0:0:0:
256,192,58391,1,0,0:0:0:0:
256,192,58583,5,4,0:0:0:0:
256,192,58872,5,0,0:0:0:0:
256,192,58968,5,0,0:0:0:0:
256,192,59160,5,0,0:0:0:0:
256,192,59256,5,8,0:0:0:0:
256,192,59449,5,8,0:0:0:0:
256,192,59737,5,0,0:0:0:0:
256,192,60026,5,8,0:0:0:0:
256,192,60314,5,0,0:0:0:0:
256,192,60603,5,0,0:0:0:0:
256,192,60699,5,8,0:0:0:0:
256,192,60987,5,0,0:0:0:0:
256,192,61180,1,0,0:0:0:0:
256,192,61276,1,8,0:0:0:0:
256,192,61468,1,0,0:0:0:0:
256,192,61564,1,0,0:0:0:0:
256,192,61660,1,0,0:0:0:0:
256,192,61756,1,0,0:0:0:0:
256,192,61853,1,8,0:0:0:0:
256,192,62045,1,8,0:0:0:0:
256,192,62141,1,0,0:0:0:0:
256,192,62333,1,0,0:0:0:0:
256,192,62430,1,8,0:0:0:0:
256,192,62622,1,8,0:0:0:0:
256,192,62718,1,0,0:0:0:0:
256,192,62910,1,0,0:0:0:0:
256,192,63006,1,8,0:0:0:0:
256,192,63199,1,8,0:0:0:0:
256,192,63295,1,0,0:0:0:0:
256,192,63487,1,8,0:0:0:0:
256,192,63583,1,0,0:0:0:0:
256,192,63776,1,0,0:0:0:0:
256,192,63872,1,8,0:0:0:0:
256,192,63968,1,8,0:0:0:0:
256,192,64064,1,8,0:0:0:0:
256,192,64160,1,0,0:0:0:0:
256,192,64353,1,0,0:0:0:0:
256,192,64449,1,8,0:0:0:0:
256,192,64641,1,0,0:0:0:0:
256,192,64737,1,8,0:0:0:0:
256,192,64930,1,8,0:0:0:0:
256,192,65026,1,0,0:0:0:0:
256,192,65314,1,8,0:0:0:0:
256,192,65506,1,0,0:0:0:0:
256,192,65603,1,8,0:0:0:0:
256,192,65795,1,0,0:0:0:0:
256,192,65891,1,8,0:0:0:0:
256,192,66083,1,8,0:0:0:0:
256,192,66180,1,0,0:0:0:0:
256,192,66372,1,0,0:0:0:0:
256,192,66468,1,8,0:0:0:0:
256,192,66660,1,8,0:0:0:0:
256,192,66756,1,0,0:0:0:0:
256,192,67045,1,0,0:0:0:0:
256,192,67237,1,8,0:0:0:0:
256,192,67333,1,0,0:0:0:0:
256,192,67430,1,0,0:0:0:0:
256,192,67526,1,0,0:0:0:0:
256,192,67622,1,8,0:0:0:0:
256,192,67814,1,4,0:0:0:0:
256,192,68103,1,0,0:0:0:0:
256,192,68199,1,8,0:0:0:0:
256,192,68391,1,8,0:0:0:0:
256,192,68487,1,8,0:0:0:0:
256,192,68680,1,8,0:0:0:0:
256,192,68776,1,0,0:0:0:0:
256,192,68968,1,0,0:0:0:0:
256,192,69064,1,8,0:0:0:0:
256,192,69256,1,0,0:0:0:0:
256,192,69353,1,8,0:0:0:0:
256,192,69545,1,8,0:0:0:0:
256,192,69641,1,0,0:0:0:0:
256,192,69737,1,0,0:0:0:0:
256,192,69833,1,0,0:0:0:0:
256,192,69930,1,8,0:0:0:0:
256,192,70122,1,8,0:0:0:0:
256,192,70218,5,0,0:0:0:0:
256,192,70410,1,0,0:0:0:0:
256,192,70506,1,8,0:0:0:0:
256,192,70699,1,0,0:0:0:0:
256,192,70795,1,0,0:0:0:0:
256,192,70891,1,0,0:0:0:0:
256,192,70987,1,0,0:0:0:0:
256,192,71083,1,8,0:0:0:0:
256,192,71276,1,8,0:0:0:0:
256,192,71372,1,0,0:0:0:0:
256,192,71564,1,0,0:0:0:0:
256,192,71660,1,8,0:0:0:0:
256,192,71853,1,8,0:0:0:0:
256,192,71949,1,0,0:0:0:0:
256,192,72141,1,0,0:0:0:0:
256,192,72237,1,8,0:0:0:0:
256,192,72430,1,8,0:0:0:0:
256,192,72526,1,0,0:0:0:0:
256,192,72718,1,8,0:0:0:0:
256,192,72814,1,0,0:0:0:0:
256,192,73006,1,0,0:0:0:0:
256,192,73103,1,8,0:0:0:0:
256,192,73199,1,8,0:0:0:0:
256,192,73295,1,8,0:0:0:0:
256,192,73391,1,0,0:0:0:0:
256,192,73583,1,0,0:0:0:0:
256,192,73680,1,8,0:0:0:0:
256,192,73872,1,0,0:0:0:0:
256,192,73968,1,8,0:0:0:0:
256,192,74160,1,8,0:0:0:0:
256,192,74256,1,0,0:0:0:0:
256,192,74545,1,8,0:0:0:0:
256,192,74737,1,0,0:0:0:0:
256,192,74833,1,8,0:0:0:0:
256,192,75026,1,0,0:0:0:0:
256,192,75122,1,8,0:0:0:0:
256,192,75314,1,8,0:0:0:0:
256,192,75410,1,0,0:0:0:0:
256,192,75603,1,0,0:0:0:0:
256,192,75699,1,8,0:0:0:0:
256,192,75891,1,8,0:0:0:0:
256,192,75987,1,0,0:0:0:0:
256,192,76276,1,0,0:0:0:0:
256,192,76468,1,8,0:0:0:0:
256,192,76564,1,0,0:0:0:0:
256,192,76660,1,0,0:0:0:0:
256,192,76756,1,0,0:0:0:0:
256,192,76853,1,8,0:0:0:0:
256,192,77045,1,4,0:0:0:0:
256,192,77333,1,0,0:0:0:0:
256,192,77430,1,8,0:0:0:0:
256,192,77622,1,8,0:0:0:0:
256,192,77718,1,0,0:0:0:0:
256,192,77910,1,8,0:0:0:0:
256,192,78006,1,8,0:0:0:0:
256,192,78199,1,0,0:0:0:0:
256,192,78295,1,8,0:0:0:0:
256,192,78487,1,0,0:0:0:0:
256,192,78583,1,8,0:0:0:0:
256,192,78776,1,8,0:0:0:0:
256,192,78872,1,0,0:0:0:0:
256,192,79064,1,0,0:0:0:0:
256,192,79160,1,8,0:0:0:0:
256,192,79353,5,8,0:0:0:0:
256,192,79449,5,8,0:0:0:0:
256,192,79737,1,0,0:0:0:0:
256,192,79930,1,8,0:0:0:0:
256,192,80026,1,0,0:0:0:0:
256,192,80314,1,0,0:0:0:0:
256,192,80506,1,8,0:0:0:0:
256,192,80603,1,0,0:0:0:0:
256,192,80891,1,0,0:0:0:0:
256,192,81083,1,8,0:0:0:0:
256,192,81180,1,0,0:0:0:0:
256,192,81468,1,0,0:0:0:0:
256,192,81660,1,0,0:0:0:0:
256,192,81756,1,8,0:0:0:0:
256,192,82237,1,8,0:0:0:0:
256,192,82333,1,0,0:0:0:0:
256,192,82526,1,8,0:0:0:0:
256,192,82622,1,0,0:0:0:0:
256,192,82814,1,8,0:0:0:0:
256,192,82910,1,0,0:0:0:0:
256,192,83391,1,8,0:0:0:0:
256,192,83487,1,0,0:0:0:0:
256,192,83680,1,8,0:0:0:0:
256,192,83776,1,8,0:0:0:0:
256,192,83872,1,8,0:0:0:0:
256,192,83968,1,8,0:0:0:0:
256,192,84064,1,0,0:0:0:0:
256,192,84256,1,0,0:0:0:0:
256,192,84353,1,8,0:0:0:0:
256,192,84545,1,0,0:0:0:0:
256,192,84641,1,0,0:0:0:0:
256,192,84833,1,0,0:0:0:0:
256,192,84930,1,8,0:0:0:0:
256,192,85218,1,0,0:0:0:0:
256,192,85506,1,0,0:0:0:0:
256,192,85699,1,8,0:0:0:0:
256,192,85795,1,0,0:0:0:0:
256,192,85987,1,0,0:0:0:0:
256,192,86083,1,8,0:0:0:0:
256,192,86276,1,0,0:0:0:0:
256,192,86564,1,0,0:0:0:0:
256,192,86660,1,0,0:0:0:0:
256,192,86853,1,0,0:0:0:0:
256,192,86949,1,8,0:0:0:0:
256,192,87237,1,0,0:0:0:0:
256,192,87430,1,8,0:0:0:0:
256,192,87718,1,8,0:0:0:0:
256,192,87814,1,0,0:0:0:0:
256,192,88006,1,0,0:0:0:0:
256,192,88295,1,0,0:0:0:0:
256,192,88391,1,8,0:0:0:0:
256,192,88583,1,4,0:0:0:0:
256,192,88872,1,8,0:0:0:0:
256,192,89160,1,4,0:0:0:0:
256,192,89449,1,8,0:0:0:0:
256,192,89737,1,4,0:0:0:0:
256,192,90122,1,8,0:0:0:0:
256,192,90410,1,8,0:0:0:0:
256,192,90506,1,8,0:0:0:0:
256,192,90603,1,0,0:0:0:0:
256,192,90699,1,8,0:0:0:0:
256,192,90891,1,0,0:0:0:0:
256,192,91180,1,0,0:0:0:0:
256,192,91276,1,8,0:0:0:0:
256,192,91468,1,0,0:0:0:0:
256,192,91564,1,0,0:0:0:0:
256,192,91853,1,8,0:0:0:0:
256,192,92045,1,0,0:0:0:0:
256,192,92333,1,0,0:0:0:0:
256,192,92430,1,8,0:0:0:0:
256,192,92622,1,0,0:0:0:0:
256,192,92718,1,0,0:0:0:0:
256,192,92910,1,0,0:0:0:0:
256,192,93006,1,8,0:0:0:0:
256,192,93199,1,8,0:0:0:0:
256,192,93295,1,0,0:0:0:0:
256,192,93487,1,0,0:0:0:0:
256,192,93583,1,8,0:0:0:0:
256,192,93776,1,0,0:0:0:0:
256,192,93872,1,0,0:0:0:0:
256,192,94064,1,0,0:0:0:0:
256,192,94160,1,8,0:0:0:0:
256,192,94449,1,0,0:0:0:0:
256,192,94737,1,0,0:0:0:0:
256,192,94930,1,8,0:0:0:0:
256,192,95026,1,0,0:0:0:0:
256,192,95218,1,0,0:0:0:0:
256,192,95314,1,8,0:0:0:0:
256,192,95506,1,0,0:0:0:0:
256,192,95795,1,8,0:0:0:0:
256,192,95891,1,0,0:0:0:0:
256,192,96083,1,0,0:0:0:0:
256,192,96180,1,0,0:0:0:0:
256,192,96468,1,0,0:0:0:0:
256,192,96660,1,8,0:0:0:0:
256,192,96949,1,8,0:0:0:0:
256,192,97045,1,0,0:0:0:0:
256,192,97237,1,0,0:0:0:0:
256,192,97526,1,0,0:0:0:0:
256,192,97622,1,8,0:0:0:0:
256,192,97814,1,4,0:0:0:0:
256,192,98103,1,8,0:0:0:0:
256,192,98391,1,4,0:0:0:0:
256,192,98680,1,8,0:0:0:0:
256,192,98968,1,4,0:0:0:0:
256,192,99256,1,8,0:0:0:0:
256,192,99353,1,8,0:0:0:0:
256,192,99641,1,8,0:0:0:0:
256,192,99737,1,8,0:0:0:0:
256,192,99833,1,0,0:0:0:0:
256,192,99930,1,8,0:0:0:0:
256,192,100122,1,0,0:0:0:0:
256,192,100506,1,8,0:0:0:0:
256,192,100699,1,8,0:0:0:0:
256,192,100795,1,0,0:0:0:0:
256,192,101083,1,8,0:0:0:0:
256,192,101276,1,0,0:0:0:0:
256,192,101372,1,0,0:0:0:0:
256,192,101660,5,0,0:0:0:0:
256,192,101732,5,0,0:0:0:0:
256,192,101805,1,8,0:0:0:0:
256,192,101877,1,8,0:0:0:0:
256,192,101949,1,0,0:0:0:0:
256,192,102141,1,8,0:0:0:0:
256,192,102237,1,0,0:0:0:0:
256,192,102430,1,8,0:0:0:0:
256,192,102526,1,0,0:0:0:0:
256,192,102718,1,0,0:0:0:0:
256,192,102814,1,8,0:0:0:0:
256,192,103006,1,0,0:0:0:0:
256,192,103103,1,0,0:0:0:0:
256,192,103295,1,0,0:0:0:0:
256,192,103391,1,8,0:0:0:0:
256,192,103680,1,0,0:0:0:0:
256,192,103968,1,0,0:0:0:0:
256,192,104160,1,8,0:0:0:0:
256,192,104256,1,0,0:0:0:0:
256,192,104449,1,0,0:0:0:0:
256,192,104545,1,8,0:0:0:0:
256,192,104737,1,0,0:0:0:0:
256,192,105026,1,0,0:0:0:0:
256,192,105122,1,0,0:0:0:0:
256,192,105314,1,0,0:0:0:0:
256,192,105410,1,8,0:0:0:0:
256,192,105699,1,0,0:0:0:0:
256,192,105891,1,8,0:0:0:0:
256,192,106180,1,8,0:0:0:0:
256,192,106276,1,0,0:0:0:0:
256,192,106468,1,0,0:0:0:0:
256,192,106756,1,0,0:0:0:0:
256,192,106853,1,8,0:0:0:0:
256,192,107045,1,4,0:0:0:0:
256,192,107333,1,8,0:0:0:0:
256,192,107622,1,4,0:0:0:0:
256,192,107910,1,8,0:0:0:0:
256,192,108199,1,4,0:0:0:0:
256,192,108583,1,8,0:0:0:0:
256,192,108872,1,8,0:0:0:0:
256,192,108968,1,8,0:0:0:0:
256,192,109064,1,0,0:0:0:0:
256,192,109160,1,8,0:0:0:0:
256,192,109353,1,0,0:0:0:0:
256,192,109641,1,0,0:0:0:0:
256,192,109737,1,8,0:0:0:0:
256,192,109930,1,0,0:0:0:0:
256,192,110026,1,0,0:0:0:0:
256,192,110314,1,8,0:0:0:0:
256,192,110506,1,0,0:0:0:0:
256,192,110795,1,0,0:0:0:0:
256,192,110891,1,8,0:0:0:0:
256,192,111083,1,0,0:0:0:0:
256,192,111180,1,0,0:0:0:0:
256,192,111372,1,0,0:0:0:0:
256,192,111468,1,8,0:0:0:0:
256,192,111660,1,8,0:0:0:0:
256,192,111756,1,0,0:0:0:0:
256,192,111949,1,0,0:0:0:0:
256,192,112045,1,8,0:0:0:0:
256,192,112237,1,0,0:0:0:0:
256,192,112333,1,0,0:0:0:0:
256,192,112526,1,0,0:0:0:0:
256,192,112622,1,8,0:0:0:0:
256,192,112910,1,0,0:0:0:0:
256,192,113199,1,0,0:0:0:0:
256,192,113391,1,8,0:0:0:0:
256,192,113487,1,0,0:0:0:0:
256,192,113680,1,0,0:0:0:0:
256,192,113776,1,8,0:0:0:0:
256,192,113968,1,0,0:0:0:0:
256,192,114256,1,8,0:0:0:0:
256,192,114353,1,0,0:0:0:0:
256,192,114545,1,0,0:0:0:0:
256,192,114641,1,0,0:0:0:0:
256,192,114930,1,0,0:0:0:0:
256,192,115122,1,8,0:0:0:0:
256,192,115410,1,8,0:0:0:0:
256,192,115506,1,0,0:0:0:0:
256,192,115699,1,0,0:0:0:0:
256,192,115987,1,0,0:0:0:0:
256,192,116083,1,8,0:0:0:0:
256,192,116276,1,4,0:0:0:0:
256,192,116564,1,8,0:0:0:0:
256,192,116853,1,4,0:0:0:0:
256,192,117141,1,8,0:0:0:0:
256,192,117430,1,4,0:0:0:0:
256,192,117814,1,8,0:0:0:0:
256,192,118103,1,8,0:0:0:0:
256,192,118295,1,8,0:0:0:0:
256,192,118583,1,0,0:0:0:0:
256,192,118872,5,0,0:0:0:0:
256,192,118968,5,8,0:0:0:0:
256,192,119256,1,8,0:0:0:0:
256,192,119545,1,8,0:0:0:0:
256,192,119833,5,8,0:0:0:0:
256,192,119930,5,8,0:0:0:0:
256,192,120026,5,8,0:0:0:0:
256,192,120122,5,8,0:0:0:0:
256,192,120218,5,8,0:0:0:0:
256,192,120314,5,8,0:0:0:0:
256,192,120410,5,0,0:0:0:0:
256,192,120987,5,8,0:0:0:0:
256,192,121083,5,0,0:0:0:0:
256,192,121180,5,0,0:0:0:0:
256,192,121276,5,8,0:0:0:0:
256,192,121372,5,8,0:0:0:0:
256,192,121468,5,8,0:0:0:0:
256,192,121564,5,0,0:0:0:0:
256,192,121660,5,0,0:0:0:0:
256,192,121756,5,0,0:0:0:0:
256,192,121853,5,8,0:0:0:0:
256,192,121949,5,0,0:0:0:0:
256,192,122045,5,0,0:0:0:0:
256,192,122141,5,8,0:0:0:0:
256,192,122333,5,0,0:0:0:0:
256,192,122430,5,8,0:0:0:0:
256,192,122622,5,8,0:0:0:0:
256,192,122718,5,0,0:0:0:0:
256,192,122910,5,0,0:0:0:0:
256,192,123103,5,8,0:0:0:0:
256,192,123295,5,0,0:0:0:0:
256,192,123487,5,8,0:0:0:0:
256,192,123583,5,0,0:0:0:0:
256,192,123776,5,8,0:0:0:0:
256,192,123872,5,0,0:0:0:0:
256,192,124064,5,8,0:0:0:0:
256,192,124353,5,8,0:0:0:0:
256,192,124449,5,0,0:0:0:0:
256,192,124641,5,0,0:0:0:0:
256,192,124737,5,0,0:0:0:0:
256,192,125026,5,0,0:0:0:0:
256,192,125218,5,0,0:0:0:0:
256,192,125314,5,0,0:0:0:0:
256,192,125506,1,4,0:0:0:0:
256,192,125795,1,8,0:0:0:0:
256,192,126083,1,4,0:0:0:0:
256,192,126372,1,8,0:0:0:0:
256,192,126660,1,4,0:0:0:0:
256,192,127045,1,0,0:0:0:0:
256,192,127333,1,8,0:0:0:0:
256,192,127430,1,8,0:0:0:0:
256,192,127526,1,0,0:0:0:0:
256,192,127622,1,8,0:0:0:0:
256,192,127814,1,0,0:0:0:0:
256,192,128103,1,0,0:0:0:0:
256,192,128199,1,8,0:0:0:0:
256,192,128391,1,0,0:0:0:0:
256,192,128487,1,0,0:0:0:0:
256,192,128680,1,0,0:0:0:0:
256,192,128776,1,0,0:0:0:0:
256,192,129064,1,0,0:0:0:0:
256,192,129353,1,8,0:0:0:0:
256,192,129449,1,0,0:0:0:0:
256,192,129545,1,0,0:0:0:0:
256,192,129641,1,8,0:0:0:0:
256,192,129833,1,0,0:0:0:0:
256,192,129930,1,0,0:0:0:0:
256,192,130122,1,0,0:0:0:0:
256,192,130218,5,8,0:0:0:0:
256,192,130410,5,0,0:0:0:0:
256,192,130506,5,8,0:0:0:0:
256,192,130699,5,8,0:0:0:0:
256,192,130795,5,0,0:0:0:0:
256,192,131083,5,8,0:0:0:0:
256,192,131276,5,0,0:0:0:0:
256,192,131372,5,8,0:0:0:0:
256,192,131564,5,0,0:0:0:0:
256,192,131660,5,8,0:0:0:0:
256,192,131853,5,8,0:0:0:0:
256,192,131949,5,0,0:0:0:0:
256,192,132141,5,0,0:0:0:0:
256,192,132333,5,8,0:0:0:0:
256,192,132526,5,0,0:0:0:0:
256,192,132718,5,8,0:0:0:0:
256,192,132814,5,0,0:0:0:0:
256,192,133006,5,8,0:0:0:0:
256,192,133103,5,8,0:0:0:0:
256,192,133391,5,0,0:0:0:0:
256,192,133583,5,8,0:0:0:0:
256,192,133680,5,0,0:0:0:0:
256,192,133872,5,0,0:0:0:0:
256,192,133968,5,8,0:0:0:0:
256,192,134256,5,0,0:0:0:0:
256,192,134449,5,0,0:0:0:0:
256,192,134545,5,0,0:0:0:0:
256,192,134737,1,4,0:0:0:0:
256,192,135026,1,8,0:0:0:0:
256,192,135314,1,4,0:0:0:0:
256,192,135603,1,8,0:0:0:0:
256,192,135891,5,4,0:0:0:0:
256,192,136276,1,0,0:0:0:0:
256,192,136564,1,8,0:0:0:0:
256,192,136756,1,8,0:0:0:0:
256,192,137045,1,4,0:0:0:0:
256,192,137430,5,8,0:0:0:0:
256,192,137718,5,8,0:0:0:0:
256,192,138006,5,8,0:0:0:0:
256,192,138295,5,8,0:0:0:0:
256,192,138391,5,8,0:0:0:0:
256,192,138487,5,8,0:0:0:0:
256,192,138583,5,8,0:0:0:0:
256,192,138680,5,8,0:0:0:0:
256,192,138776,5,8,0:0:0:0:
256,192,138872,5,0,0:0:0:0:
256,192,139064,5,0,0:0:0:0:
256,192,139160,5,0,0:0:0:0:
256,192,139353,5,0,0:0:0:0:
256,192,139449,5,0,0:0:0:0:
256,192,139641,5,0,0:0:0:0:
256,192,139737,5,8,0:0:0:0:
256,192,139930,5,0,0:0:0:0:
256,192,140218,5,0,0:0:0:0:
256,192,140314,5,8,0:0:0:0:
256,192,140506,5,0,0:0:0:0:
256,192,140795,5,8,0:0:0:0:
256,192,140891,5,8,0:0:0:0:
256,192,141083,5,0,0:0:0:0:
256,192,141372,1,8,0:0:0:0:
256,192,141756,1,0,0:0:0:0:
256,192,141949,1,8,0:0:0:0:
256,192,142237,1,8,0:0:0:0:
256,192,142526,1,8,0:0:0:0:
256,192,142622,1,8,0:0:0:0:
256,192,142814,1,0,0:0:0:0:
256,192,142910,1,8,0:0:0:0:
256,192,143006,1,8,0:0:0:0:
256,192,143103,1,8,0:0:0:0:
256,192,143199,1,8,0:0:0:0:
256,192,143295,1,8,0:0:0:0:
256,192,143391,1,8,0:0:0:0:
256,192,143487,1,0,0:0:0:0:
