osu file format v14

[General]
AudioFilename: audio.mp3
AudioLeadIn: 0
PreviewTime: 5410
Countdown: 0
SampleSet: Normal
StackLeniency: 0.7
Mode: 1
LetterboxInBreaks: 0
WidescreenStoryboard: 1

[Editor]
DistanceSpacing: 0.8
BeatDivisor: 6
GridSize: 16
TimelineZoom: 1.8

[Metadata]
Title:Oomiwa Shinwaden
TitleUnicode:大神神話伝
Artist:Tai no Kobone
ArtistUnicode:鯛の小骨
Creator:CallMeLyra
Version:Muzukashii
Source:東方深秘録 ~ Urban Legend in Limbo.
Tags:Tadayoshi Moriya Ukobone Legend of the Great Gods th14.5 th15.5 Mononobe no Futo 物部 布都 ZUN Shinpiroku 東方憑依華 ~ Antinomy of Common Flowers hyouibana touhou 東方project team shanghai alice twilight frontier 黄昏フロンティア Tasofro jazz video game instrumental
BeatmapID:2940318
BeatmapSetID:1393936

[Difficulty]
HPDrainRate:6
CircleSize:5
OverallDifficulty:5
ApproachRate:5
SliderMultiplier:1.4
SliderTickRate:1

[Events]
//Background and Video events
0,0,"Fujiko.jpg",0,150
//Break Periods
//Storyboard Layer 0 (Background)
//Storyboard Layer 1 (Fail)
//Storyboard Layer 2 (Pass)
//Storyboard Layer 3 (Foreground)
//Storyboard Layer 4 (Overlay)
//Storyboard Sound Samples

[TimingPoints]
-1320,576.923076923077,4,1,0,80,1,0
603,-83.3333333333333,4,1,0,80,0,0
60987,-83.3333333333333,4,1,0,80,0,1
79449,-83.3333333333333,4,1,0,80,0,0

[HitObjects]
256,192,987,5,0,0:0:0:0:
256,192,1276,5,8,0:0:0:0:
256,192,1468,5,0,0:0:0:0:
256,192,1853,5,8,0:0:0:0:
256,192,2045,5,0,0:0:0:0:
256,192,2333,5,8,0:0:0:0:
256,192,2430,5,8,0:0:0:0:
256,192,2622,5,0,0:0:0:0:
256,192,2910,1,8,0:0:0:0:
256,192,3295,1,0,0:0:0:0:
256,192,3487,1,8,0:0:0:0:
256,192,3776,1,8,0:0:0:0:
256,192,4064,1,0,0:0:0:0:
256,192,4160,1,0,0:0:0:0:
256,192,4449,1,8,0:0:0:0:
256,192,4641,1,8,0:0:0:0:
256,192,4930,1,8,0:0:0:0:
256,192,5506,1,0,0:0:0:0:
256,192,5603,1,0,0:0:0:0:
256,192,5891,1,8,0:0:0:0:
256,192,6083,1,0,0:0:0:0:
256,192,6180,1,0,0:0:0:0:
256,192,6660,1,0,0:0:0:0:
256,192,6756,1,0,0:0:0:0:
256,192,7045,1,8,0:0:0:0:
256,192,7237,1,8,0:0:0:0:
256,192,7333,1,8,0:0:0:0:
256,192,7814,1,12,0:0:0:0:
256,192,8199,1,0,0:0:0:0:
256,192,8391,1,4,0:0:0:0:
256,192,8776,1,0,0:0:0:0:
256,192,8968,1,12,0:0:0:0:
256,192,9641,1,0,0:0:0:0:
256,192,9930,1,8,0:0:0:0:
256,192,10218,1,0,0:0:0:0:
256,192,10506,1,8,0:0:0:0:
256,192,10699,1,0,0:0:0:0:
256,192,10795,1,0,0:0:0:0:
256,192,11276,1,0,0:0:0:0:
256,192,11372,1,0,0:0:0:0:
256,192,11660,1,8,0:0:0:0:
256,192,11853,1,8,0:0:0:0:
256,192,11949,1,8,0:0:0:0:
256,192,12237,1,8,0:0:0:0:
256,192,12430,1,12,0:0:0:0:
256,192,12814,1,0,0:0:0:0:
256,192,13006,1,12,0:0:0:0:
256,192,13391,1,0,0:0:0:0:
256,192,13583,5,12,0:0:0:0:
256,192,14256,1,0,0:0:0:0:
256,192,14545,1,8,0:0:0:0:
256,192,14833,5,0,0:0:0:0:
256,192,15026,1,8,0:0:0:0:
256,192,15314,1,8,0:0:0:0:
256,192,15699,5,0,0:0:0:0:
256,192,15891,1,8,0:0:0:0:
256,192,16180,1,8,0:0:0:0:
256,192,16564,5,8,0:0:0:0:
256,192,16853,5,8,0:0:0:0:
256,192,17141,5,0,0:0:0:0:
256,192,17430,1,0,0:0:0:0:
256,192,17718,1,8,0:0:0:0:
256,192,18006,1,8,0:0:0:0:
256,192,18295,1,8,0:0:0:0:
256,192,18487,1,8,0:0:0:0:
256,192,18583,1,8,0:0:0:0:
256,192,18776,1,0,0:0:0:0:
256,192,19449,5,0,0:0:0:0:
256,192,19641,1,8,0:0:0:0:
256,192,19930,1,8,0:0:0:0:
256,192,20314,5,0,0:0:0:0:
256,192,20506,1,8,0:0:0:0:
256,192,20795,1,8,0:0:0:0:
256,192,21180,1,8,0:0:0:0:
256,192,21468,1,0,0:0:0:0:
256,192,21756,1,12,0:0:0:0:
256,192,22045,1,12,0:0:0:0:
256,192,22333,1,12,0:0:0:0:
256,192,22622,1,12,0:0:0:0:
256,192,22910,1,4,0:0:0:0:
256,192,24064,1,0,0:0:0:0:
256,192,24353,1,8,0:0:0:0:
256,192,24641,1,0,0:0:0:0:
256,192,24930,1,8,0:0:0:0:
256,192,25218,1,0,0:0:0:0:
256,192,25506,1,0,0:0:0:0:
256,192,25699,1,8,0:0:0:0:
256,192,25987,1,8,0:0:0:0:
256,192,26083,1,8,0:0:0:0:
256,192,26276,1,0,0:0:0:0:
256,192,26660,1,8,0:0:0:0:
256,192,26949,1,0,0:0:0:0:
256,192,27237,1,0,0:0:0:0:
256,192,27430,1,8,0:0:0:0:
256,192,27718,1,0,0:0:0:0:
256,192,28006,1,0,0:0:0:0:
256,192,28295,1,8,0:0:0:0:
256,192,28391,1,8,0:0:0:0:
256,192,28583,1,4,0:0:0:0:
256,192,28872,1,8,0:0:0:0:
256,192,29160,1,4,0:0:0:0:
256,192,29449,1,8,0:0:0:0:
256,192,29737,1,4,0:0:0:0:
256,192,30122,1,8,0:0:0:0:
256,192,30410,1,8,0:0:0:0:
256,192,30603,1,8,0:0:0:0:
256,192,30891,1,0,0:0:0:0:
256,192,31180,1,8,0:0:0:0:
256,192,31276,1,8,0:0:0:0:
256,192,31853,1,0,0:0:0:0:
256,192,32045,1,0,0:0:0:0:
256,192,32430,1,8,0:0:0:0:
256,192,32718,1,0,0:0:0:0:
256,192,33006,1,8,0:0:0:0:
256,192,33199,1,0,0:0:0:0:
256,192,33295,1,0,0:0:0:0:
256,192,33583,1,8,0:0:0:0:
256,192,33872,1,0,0:0:0:0:
256,192,34160,1,8,0:0:0:0:
256,192,34449,1,0,0:0:0:0:
256,192,34737,1,0,0:0:0:0:
256,192,34930,1,8,0:0:0:0:
256,192,35218,1,8,0:0:0:0:
256,192,35314,1,8,0:0:0:0:
256,192,35506,1,0,0:0:0:0:
256,192,35891,1,8,0:0:0:0:
256,192,36180,1,0,0:0:0:0:
256,192,36468,1,0,0:0:0:0:
256,192,36660,1,8,0:0:0:0:
256,192,36949,1,0,0:0:0:0:
256,192,37237,1,0,0:0:0:0:
256,192,37526,1,8,0:0:0:0:
256,192,37622,1,8,0:0:0:0:
256,192,37814,1,4,0:0:0:0:
256,192,38103,1,8,0:0:0:0:
256,192,38391,5,4,0:0:0:0:
256,192,38680,1,8,0:0:0:0:
256,192,38968,1,4,0:0:0:0:
256,192,39353,1,8,0:0:0:0:
256,192,39641,1,8,0:0:0:0:
256,192,39833,1,8,0:0:0:0:
256,192,40122,1,0,0:0:0:0:
256,192,40410,5,8,0:0:0:0:
256,192,40506,1,8,0:0:0:0:
256,192,40795,1,8,0:0:0:0:
256,192,41083,1,8,0:0:0:0:
256,192,41372,5,8,0:0:0:0:
256,192,41564,5,8,0:0:0:0:
256,192,41660,1,8,0:0:0:0:
256,192,41853,1,0,0:0:0:0:
256,192,41949,1,0,0:0:0:0:
256,192,42526,1,0,0:0:0:0:
256,192,42814,1,0,0:0:0:0:
256,192,43103,1,8,0:0:0:0:
256,192,43391,1,0,0:0:0:0:
256,192,43680,1,0,0:0:0:0:
256,192,43872,1,8,0:0:0:0:
256,192,44160,1,8,0:0:0:0:
256,192,44449,1,0,0:0:0:0:
256,192,44833,1,0,0:0:0:0:
256,192,45122,1,8,0:0:0:0:
256,192,45410,1,8,0:0:0:0:
256,192,45699,1,0,0:0:0:0:
256,192,45987,1,8,0:0:0:0:
256,192,46180,1,8,0:0:0:0:
256,192,46468,1,0,0:0:0:0:
256,192,46756,1,0,0:0:0:0:
256,192,47141,1,0,0:0:0:0:
256,192,47430,1,0,0:0:0:0:
256,192,47718,1,8,0:0:0:0:
256,192,48006,1,0,0:0:0:0:
256,192,48295,1,0,0:0:0:0:
256,192,48487,1,8,0:0:0:0:
256,192,48776,1,8,0:0:0:0:
256,192,49064,1,0,0:0:0:0:
256,192,49449,1,0,0:0:0:0:
256,192,49737,1,8,0:0:0:0:
256,192,50026,1,8,0:0:0:0:
256,192,50314,1,0,0:0:0:0:
256,192,50603,1,8,0:0:0:0:
256,192,50795,1,8,0:0:0:0:
256,192,51083,1,0,0:0:0:0:
256,192,51372,1,0,0:0:0:0:
256,192,51756,1,4,0:0:0:0:
256,192,52045,1,0,0:0:0:0:
256,192,52333,1,8,0:0:0:0:
256,192,52622,1,0,0:0:0:0:
256,192,52814,1,0,0:0:0:0:
256,192,52910,1,0,0:0:0:0:
256,192,53103,1,8,0:0:0:0:
256,192,53391,1,8,0:0:0:0:
256,192,53680,1,0,0:0:0:0:
256,192,54064,1,0,0:0:0:0:
256,192,54353,1,8,0:0:0:0:
256,192,54641,1,8,0:0:0:0:
256,192,54930,1,0,0:0:0:0:
256,192,55122,1,8,0:0:0:0:
256,192,55218,1,8,0:0:0:0:
256,192,55410,1,8,0:0:0:0:
256,192,55699,1,8,0:0:0:0:
256,192,55987,1,0,0:0:0:0:
256,192,56372,1,0,0:0:0:0:
256,192,56660,1,0,0:0:0:0:
256,192,56949,1,8,0:0:0:0:
256,192,57237,1,0,0:0:0:0:
256,192,57430,1,0,0:0:0:0:
256,192,57526,1,0,0:0:0:0:
256,192,57718,1,8,0:0:0:0:
256,192,58006,1,8,0:0:0:0:
256,192,58295,1,0,0:0:0:0:
256,192,58583,5,4,0:0:0:0:
256,192,58968,5,0,0:0:0:0:
256,192,59160,5,8,0:0:0:0:
256,192,59256,5,8,0:0:0:0:
256,192,59449,5,0,0:0:0:0:
256,192,59737,5,0,0:0:0:0:
256,192,60026,5,8,0:0:0:0:
256,192,60314,5,0,0:0:0:0:
256,192,60987,5,0,0:0:0:0:
256,192,61276,1,8,0:0:0:0:
256,192,61468,1,0,0:0:0:0:
256,192,61564,1,0,0:0:0:0:
256,192,61853,1,8,0:0:0:0:
256,192,62141,1,0,0:0:0:0:
256,192,62430,1,8,0:0:0:0:
256,192,62622,1,0,0:0:0:0:
256,192,62718,1,0,0:0:0:0:
256,192,63006,1,8,0:0:0:0:
256,192,63295,1,0,0:0:0:0:
256,192,63583,1,0,0:0:0:0:
256,192,63872,1,8,0:0:0:0:
256,192,64160,1,0,0:0:0:0:
256,192,64449,1,8,0:0:0:0:
256,192,64737,1,0,0:0:0:0:
256,192,64930,1,0,0:0:0:0:
256,192,65026,1,0,0:0:0:0:
256,192,65314,1,8,0:0:0:0:
256,192,65506,1,8,0:0:0:0:
256,192,65603,1,8,0:0:0:0:
256,192,65891,1,8,0:0:0:0:
256,192,66083,1,0,0:0:0:0:
256,192,66180,1,0,0:0:0:0:
256,192,66468,1,8,0:0:0:0:
256,192,66660,1,0,0:0:0:0:
256,192,66756,1,0,0:0:0:0:
256,192,67045,1,0,0:0:0:0:
256,192,67237,1,8,0:0:0:0:
256,192,67333,1,8,0:0:0:0:
256,192,67526,1,0,0:0:0:0:
256,192,67814,1,4,0:0:0:0:
256,192,68103,1,8,0:0:0:0:
256,192,68199,1,8,0:0:0:0:
256,192,68776,1,0,0:0:0:0:
256,192,69064,1,8,0:0:0:0:
256,192,69353,1,8,0:0:0:0:
256,192,69545,1,0,0:0:0:0:
256,192,69641,1,0,0:0:0:0:
256,192,69930,1,8,0:0:0:0:
256,192,70218,5,0,0:0:0:0:
256,192,70506,1,8,0:0:0:0:
256,192,70699,1,0,0:0:0:0:
256,192,70795,1,0,0:0:0:0:
256,192,71083,1,8,0:0:0:0:
256,192,71372,1,0,0:0:0:0:
256,192,71660,1,8,0:0:0:0:
256,192,71853,1,0,0:0:0:0:
256,192,71949,1,0,0:0:0:0:
256,192,72237,1,8,0:0:0:0:
256,192,72526,1,0,0:0:0:0:
256,192,72814,1,0,0:0:0:0:
256,192,73103,1,8,0:0:0:0:
256,192,73391,1,0,0:0:0:0:
256,192,73680,1,8,0:0:0:0:
256,192,73968,1,8,0:0:0:0:
256,192,74160,1,0,0:0:0:0:
256,192,74256,1,0,0:0:0:0:
256,192,74545,1,8,0:0:0:0:
256,192,74737,1,8,0:0:0:0:
256,192,74833,1,8,0:0:0:0:
256,192,75122,1,8,0:0:0:0:
256,192,75314,1,0,0:0:0:0:
256,192,75410,1,0,0:0:0:0:
256,192,75699,1,8,0:0:0:0:
256,192,75891,1,0,0:0:0:0:
256,192,75987,1,0,0:0:0:0:
256,192,76276,1,0,0:0:0:0:
256,192,76468,1,8,0:0:0:0:
256,192,76564,1,8,0:0:0:0:
256,192,76756,5,0,0:0:0:0:
256,192,77045,1,4,0:0:0:0:
256,192,77333,1,8,0:0:0:0:
256,192,77430,1,8,0:0:0:0:
256,192,78006,1,8,0:0:0:0:
256,192,78199,1,0,0:0:0:0:
256,192,78295,1,0,0:0:0:0:
256,192,78872,1,8,0:0:0:0:
256,192,79449,5,8,0:0:0:0:
256,192,79737,1,0,0:0:0:0:
256,192,80026,1,0,0:0:0:0:
256,192,80314,1,8,0:0:0:0:
256,192,80603,1,0,0:0:0:0:
256,192,80891,1,0,0:0:0:0:
256,192,81180,1,0,0:0:0:0:
256,192,81468,1,0,0:0:0:0:
256,192,81756,1,8,0:0:0:0:
256,192,82237,1,0,0:0:0:0:
256,192,82526,1,0,0:0:0:0:
256,192,82622,1,0,0:0:0:0:
256,192,82814,1,0,0:0:0:0:
256,192,82910,1,0,0:0:0:0:
256,192,83391,1,8,0:0:0:0:
256,192,83680,1,8,0:0:0:0:
256,192,83776,1,8,0:0:0:0:
256,192,83968,1,0,0:0:0:0:
256,192,84064,1,0,0:0:0:0:
256,192,84353,1,8,0:0:0:0:
256,192,84641,1,0,0:0:0:0:
256,192,84930,1,8,0:0:0:0:
256,192,85218,1,0,0:0:0:0:
256,192,85506,1,0,0:0:0:0:
256,192,85699,1,8,0:0:0:0:
256,192,85987,1,8,0:0:0:0:
256,192,86083,1,8,0:0:0:0:
256,192,86276,1,0,0:0:0:0:
256,192,86660,1,8,0:0:0:0:
256,192,86949,1,0,0:0:0:0:
256,192,87237,1,0,0:0:0:0:
256,192,87430,1,8,0:0:0:0:
256,192,87718,1,0,0:0:0:0:
256,192,88006,1,0,0:0:0:0:
256,192,88295,1,8,0:0:0:0:
256,192,88391,1,8,0:0:0:0:
256,192,88583,1,4,0:0:0:0:
256,192,88872,1,8,0:0:0:0:
256,192,89160,1,4,0:0:0:0:
256,192,89449,1,8,0:0:0:0:
256,192,89737,1,4,0:0:0:0:
256,192,90122,1,8,0:0:0:0:
256,192,90410,1,8,0:0:0:0:
256,192,90603,1,8,0:0:0:0:
256,192,90891,1,0,0:0:0:0:
256,192,91180,1,8,0:0:0:0:
256,192,91276,1,8,0:0:0:0:
256,192,91853,1,0,0:0:0:0:
256,192,92045,1,0,0:0:0:0:
256,192,92430,1,8,0:0:0:0:
256,192,92718,1,0,0:0:0:0:
256,192,93006,1,8,0:0:0:0:
256,192,93199,1,0,0:0:0:0:
256,192,93295,1,0,0:0:0:0:
256,192,93583,1,8,0:0:0:0:
256,192,93872,1,0,0:0:0:0:
256,192,94160,1,8,0:0:0:0:
256,192,94449,1,0,0:0:0:0:
256,192,94737,1,0,0:0:0:0:
256,192,94930,1,8,0:0:0:0:
256,192,95218,1,8,0:0:0:0:
256,192,95314,1,8,0:0:0:0:
256,192,95506,1,0,0:0:0:0:
256,192,95891,1,8,0:0:0:0:
256,192,96180,1,0,0:0:0:0:
256,192,96468,1,0,0:0:0:0:
256,192,96660,1,8,0:0:0:0:
256,192,96949,1,0,0:0:0:0:
256,192,97237,1,0,0:0:0:0:
256,192,97526,1,8,0:0:0:0:
256,192,97622,1,8,0:0:0:0:
256,192,97814,1,4,0:0:0:0:
256,192,98103,1,8,0:0:0:0:
256,192,98391,5,4,0:0:0:0:
256,192,98680,1,8,0:0:0:0:
256,192,98968,1,4,0:0:0:0:
256,192,99256,1,8,0:0:0:0:
256,192,99353,1,8,0:0:0:0:
256,192,99641,1,8,0:0:0:0:
256,192,99833,1,8,0:0:0:0:
256,192,100122,1,0,0:0:0:0:
256,192,100795,1,8,0:0:0:0:
256,192,101276,1,8,0:0:0:0:
256,192,101660,1,0,0:0:0:0:
256,192,101853,1,0,0:0:0:0:
256,192,101949,1,0,0:0:0:0:
256,192,102237,1,0,0:0:0:0:
256,192,102430,1,0,0:0:0:0:
256,192,102526,1,0,0:0:0:0:
256,192,102814,1,8,0:0:0:0:
256,192,103103,1,0,0:0:0:0:
256,192,103391,1,8,0:0:0:0:
256,192,103680,1,0,0:0:0:0:
256,192,103968,1,0,0:0:0:0:
256,192,104160,1,8,0:0:0:0:
256,192,104449,1,8,0:0:0:0:
256,192,104545,1,8,0:0:0:0:
256,192,104737,1,0,0:0:0:0:
256,192,105122,1,8,0:0:0:0:
256,192,105410,1,0,0:0:0:0:
256,192,105699,1,0,0:0:0:0:
256,192,105891,1,8,0:0:0:0:
256,192,106180,1,0,0:0:0:0:
256,192,106468,1,0,0:0:0:0:
256,192,106756,1,8,0:0:0:0:
256,192,106853,1,8,0:0:0:0:
256,192,107045,1,4,0:0:0:0:
256,192,107333,1,8,0:0:0:0:
256,192,107622,1,4,0:0:0:0:
256,192,107910,1,8,0:0:0:0:
256,192,108199,1,4,0:0:0:0:
256,192,108583,1,8,0:0:0:0:
256,192,108872,1,8,0:0:0:0:
256,192,109064,1,8,0:0:0:0:
256,192,109353,1,0,0:0:0:0:
256,192,109641,1,8,0:0:0:0:
256,192,109737,1,8,0:0:0:0:
256,192,110314,1,0,0:0:0:0:
256,192,110506,1,0,0:0:0:0:
256,192,110891,1,8,0:0:0:0:
256,192,111180,1,0,0:0:0:0:
256,192,111468,1,8,0:0:0:0:
256,192,111660,1,0,0:0:0:0:
256,192,111756,1,0,0:0:0:0:
256,192,112045,1,8,0:0:0:0:
256,192,112333,1,0,0:0:0:0:
256,192,112622,1,8,0:0:0:0:
256,192,112910,1,0,0:0:0:0:
256,192,113199,1,0,0:0:0:0:
256,192,113391,1,8,0:0:0:0:
256,192,113680,1,8,0:0:0:0:
256,192,113776,1,8,0:0:0:0:
256,192,113968,1,0,0:0:0:0:
256,192,114353,1,8,0:0:0:0:
256,192,114641,1,0,0:0:0:0:
256,192,114930,1,0,0:0:0:0:
256,192,115122,1,8,0:0:0:0:
256,192,115410,1,0,0:0:0:0:
256,192,115699,1,0,0:0:0:0:
256,192,115987,1,8,0:0:0:0:
256,192,116083,1,8,0:0:0:0:
256,192,116276,1,4,0:0:0:0:
256,192,116564,1,8,0:0:0:0:
256,192,116853,5,4,0:0:0:0:
256,192,117141,1,8,0:0:0:0:
256,192,117430,1,4,0:0:0:0:
256,192,117814,5,8,0:0:0:0:
256,192,118103,1,8,0:0:0:0:
256,192,118295,1,8,0:0:0:0:
256,192,118583,1,0,0:0:0:0:
256,192,118872,5,8,0:0:0:0:
256,192,118968,5,8,0:0:0:0:
256,192,119256,1,8,0:0:0:0:
256,192,119545,1,8,0:0:0:0:
256,192,119833,5,8,0:0:0:0:
256,192,120122,5,8,0:0:0:0:
256,192,120410,5,0,0:0:0:0:
256,192,120987,5,8,0:0:0:0:
256,192,121276,5,8,0:0:0:0:
256,192,121468,5,8,0:0:0:0:
256,192,121564,5,8,0:0:0:0:
256,192,121853,5,8,0:0:0:0:
256,192,122141,5,0,0:0:0:0:
256,192,122430,5,8,0:0:0:0:
256,192,122718,5,8,0:0:0:0:
256,192,122910,5,0,0:0:0:0:
256,192,123103,5,8,0:0:0:0:
256,192,123295,5,0,0:0:0:0:
256,192,123583,5,0,0:0:0:0:
256,192,123872,5,0,0:0:0:0:
256,192,124064,5,8,0:0:0:0:
256,192,124353,5,8,0:0:0:0:
256,192,124641,5,0,0:0:0:0:
256,192,124737,5,0,0:0:0:0:
256,192,125026,5,0,0:0:0:0:
256,192,125218,5,0,0:0:0:0:
256,192,125314,5,0,0:0:0:0:
256,192,125506,1,4,0:0:0:0:
256,192,125795,1,8,0:0:0:0:
256,192,126083,1,4,0:0:0:0:
256,192,126372,1,8,0:0:0:0:
256,192,126660,1,4,0:0:0:0:
256,192,127045,1,0,0:0:0:0:
256,192,127333,1,8,0:0:0:0:
256,192,127526,1,0,0:0:0:0:
256,192,127814,1,0,0:0:0:0:
256,192,128103,1,8,0:0:0:0:
256,192,128199,1,8,0:0:0:0:
256,192,128487,1,0,0:0:0:0:
256,192,128680,1,0,0:0:0:0:
256,192,128776,1,0,0:0:0:0:
256,192,129064,1,0,0:0:0:0:
256,192,129641,1,8,0:0:0:0:
256,192,129930,1,0,0:0:0:0:
256,192,130218,5,8,0:0:0:0:
256,192,130410,5,0,0:0:0:0:
256,192,130795,5,0,0:0:0:0:
256,192,130987,5,0,0:0:0:0:
256,192,131083,5,0,0:0:0:0:
256,192,131372,5,8,0:0:0:0:
256,192,131660,5,8,0:0:0:0:
256,192,131949,5,0,0:0:0:0:
256,192,132141,5,0,0:0:0:0:
256,192,132333,5,8,0:0:0:0:
256,192,132526,5,0,0:0:0:0:
256,192,132814,5,0,0:0:0:0:
256,192,133103,5,8,0:0:0:0:
256,192,133391,5,0,0:0:0:0:
256,192,133583,5,8,0:0:0:0:
256,192,133680,5,8,0:0:0:0:
256,192,133968,5,8,0:0:0:0:
256,192,134256,5,0,0:0:0:0:
256,192,134449,5,0,0:0:0:0:
256,192,134545,5,0,0:0:0:0:
256,192,134737,1,4,0:0:0:0:
256,192,135026,1,8,0:0:0:0:
256,192,135314,1,4,0:0:0:0:
256,192,135603,1,8,0:0:0:0:
256,192,135891,5,4,0:0:0:0:
256,192,136276,1,0,0:0:0:0:
256,192,136564,1,8,0:0:0:0:
256,192,136756,1,8,0:0:0:0:
256,192,137045,1,4,0:0:0:0:
256,192,137430,5,8,0:0:0:0:
256,192,137718,5,8,0:0:0:0:
256,192,138006,5,8,0:0:0:0:
256,192,138295,5,8,0:0:0:0:
256,192,138487,5,8,0:0:0:0:
256,192,138583,1,8,0:0:0:0:
256,192,138776,1,0,0:0:0:0:
256,192,138872,1,0,0:0:0:0:
256,192,139449,5,0,0:0:0:0:
256,192,139737,5,8,0:0:0:0:
256,192,139930,5,0,0:0:0:0:
256,192,140314,5,8,0:0:0:0:
256,192,140506,5,0,0:0:0:0:
256,192,140795,5,8,0:0:0:0:
256,192,140891,5,8,0:0:0:0:
256,192,141083,5,0,0:0:0:0:
256,192,141372,1,8,0:0:0:0:
256,192,141756,1,0,0:0:0:0:
256,192,141949,1,8,0:0:0:0:
256,192,142237,1,8,0:0:0:0:
256,192,142526,1,8,0:0:0:0:
256,192,142622,1,8,0:0:0:0:
256,192,142910,1,8,0:0:0:0:
256,192,143103,1,8,0:0:0:0:
256,192,143391,1,8,0:0:0:0:
