osu file format v14

[General]
AudioFilename: audio.mp3
AudioLeadIn: 0
PreviewTime: 5410
Countdown: 0
SampleSet: Normal
StackLeniency: 0.7
Mode: 1
LetterboxInBreaks: 0
WidescreenStoryboard: 1

[Editor]
DistanceSpacing: 0.8
BeatDivisor: 6
GridSize: 16
TimelineZoom: 1.5

[Metadata]
Title:Oomiwa Shinwaden
TitleUnicode:大神神話伝
Artist:Tai no Kobone
ArtistUnicode:鯛の小骨
Creator:CallMeLyra
Version:Futsuu
Source:東方深秘録 ~ Urban Legend in Limbo.
Tags:Tadayoshi Moriya Ukobone Legend of the Great Gods th14.5 th15.5 Mononobe no Futo 物部 布都 ZUN Shinpiroku 東方憑依華 ~ Antinomy of Common Flowers hyouibana touhou 東方project team shanghai alice twilight frontier 黄昏フロンティア Tasofro jazz video game instrumental
BeatmapID:2942129
BeatmapSetID:1393936

[Difficulty]
HPDrainRate:7
CircleSize:5
OverallDifficulty:4
ApproachRate:5
SliderMultiplier:1.4
SliderTickRate:1

[Events]
//Background and Video events
0,0,"Fujiko.jpg",0,150
//Break Periods
//Storyboard Layer 0 (Background)
//Storyboard Layer 1 (Fail)
//Storyboard Layer 2 (Pass)
//Storyboard Layer 3 (Foreground)
//Storyboard Layer 4 (Overlay)
//Storyboard Sound Samples

[TimingPoints]
-1320,576.923076923077,4,1,0,80,1,0
987,-83.3333333333333,4,1,0,80,0,0
60987,-83.3333333333333,4,1,0,80,0,1
79449,-83.3333333333333,4,1,0,80,0,0

[HitObjects]
256,192,987,5,0,0:0:0:0:
256,192,1468,5,0,0:0:0:0:
256,192,2045,5,0,0:0:0:0:
256,192,2430,5,8,0:0:0:0:
256,192,2622,5,0,0:0:0:0:
256,192,2910,1,8,0:0:0:0:
256,192,3295,1,0,0:0:0:0:
256,192,3487,1,8,0:0:0:0:
256,192,3776,1,8,0:0:0:0:
256,192,4449,1,8,0:0:0:0:
256,192,4641,1,8,0:0:0:0:
256,192,4930,1,8,0:0:0:0:
256,192,5603,1,0,0:0:0:0:
256,192,5891,1,8,0:0:0:0:
256,192,6180,1,0,0:0:0:0:
256,192,6756,1,0,0:0:0:0:
256,192,7045,1,8,0:0:0:0:
256,192,7333,1,8,0:0:0:0:
256,192,7814,1,12,0:0:0:0:
256,192,8391,1,4,0:0:0:0:
256,192,8968,1,12,0:0:0:0:
256,192,9641,1,0,0:0:0:0:
256,192,9930,1,8,0:0:0:0:
256,192,10218,1,0,0:0:0:0:
256,192,10506,1,8,0:0:0:0:
256,192,10795,1,0,0:0:0:0:
256,192,11372,1,0,0:0:0:0:
256,192,11660,1,8,0:0:0:0:
256,192,11949,1,8,0:0:0:0:
256,192,12430,1,12,0:0:0:0:
256,192,13006,1,12,0:0:0:0:
256,192,13583,5,12,0:0:0:0:
256,192,14256,1,0,0:0:0:0:
256,192,14545,1,8,0:0:0:0:
256,192,14833,5,0,0:0:0:0:
256,192,15314,1,8,0:0:0:0:
256,192,15699,5,0,0:0:0:0:
256,192,16180,1,8,0:0:0:0:
256,192,16564,5,8,0:0:0:0:
256,192,17141,5,0,0:0:0:0:
256,192,17430,1,0,0:0:0:0:
256,192,17718,1,8,0:0:0:0:
256,192,18006,1,8,0:0:0:0:
256,192,18295,1,8,0:0:0:0:
256,192,18583,5,0,0:0:0:0:
256,192,18776,1,0,0:0:0:0:
256,192,19449,5,0,0:0:0:0:
256,192,19930,1,8,0:0:0:0:
256,192,20314,5,0,0:0:0:0:
256,192,20795,1,8,0:0:0:0:
256,192,21180,1,8,0:0:0:0:
256,192,21756,1,12,0:0:0:0:
256,192,22045,1,12,0:0:0:0:
256,192,22333,1,12,0:0:0:0:
256,192,22622,1,12,0:0:0:0:
256,192,22910,1,4,0:0:0:0:
256,192,24064,1,0,0:0:0:0:
256,192,24641,1,0,0:0:0:0:
256,192,24930,1,8,0:0:0:0:
256,192,25218,1,0,0:0:0:0:
256,192,25699,1,8,0:0:0:0:
256,192,26083,1,8,0:0:0:0:
256,192,26276,1,0,0:0:0:0:
256,192,26949,1,0,0:0:0:0:
256,192,27430,1,8,0:0:0:0:
256,192,28006,1,0,0:0:0:0:
256,192,28295,1,8,0:0:0:0:
256,192,28583,1,4,0:0:0:0:
256,192,29160,1,4,0:0:0:0:
256,192,29737,1,4,0:0:0:0:
256,192,30122,1,8,0:0:0:0:
256,192,30410,1,8,0:0:0:0:
256,192,30891,1,0,0:0:0:0:
256,192,31276,1,8,0:0:0:0:
256,192,31853,1,0,0:0:0:0:
256,192,32045,1,0,0:0:0:0:
256,192,32718,1,8,0:0:0:0:
256,192,33006,1,8,0:0:0:0:
256,192,33295,1,0,0:0:0:0:
256,192,33872,1,0,0:0:0:0:
256,192,34160,1,8,0:0:0:0:
256,192,34449,1,0,0:0:0:0:
256,192,34930,1,8,0:0:0:0:
256,192,35314,1,8,0:0:0:0:
256,192,35506,1,0,0:0:0:0:
256,192,36180,1,0,0:0:0:0:
256,192,36660,1,8,0:0:0:0:
256,192,37237,1,0,0:0:0:0:
256,192,37526,1,8,0:0:0:0:
256,192,37814,1,4,0:0:0:0:
256,192,38391,1,4,0:0:0:0:
256,192,38968,1,4,0:0:0:0:
256,192,39353,1,8,0:0:0:0:
256,192,39641,5,8,0:0:0:0:
256,192,40122,1,0,0:0:0:0:
256,192,40506,1,8,0:0:0:0:
256,192,40795,5,8,0:0:0:0:
256,192,41083,1,8,0:0:0:0:
256,192,41372,5,8,0:0:0:0:
256,192,41949,1,0,0:0:0:0:
256,192,42526,1,0,0:0:0:0:
256,192,42814,1,0,0:0:0:0:
256,192,43103,1,8,0:0:0:0:
256,192,43680,1,0,0:0:0:0:
256,192,44160,1,8,0:0:0:0:
256,192,44449,1,0,0:0:0:0:
256,192,44833,1,0,0:0:0:0:
256,192,45122,1,8,0:0:0:0:
256,192,45410,1,8,0:0:0:0:
256,192,45987,1,8,0:0:0:0:
256,192,46468,1,0,0:0:0:0:
256,192,46756,1,0,0:0:0:0:
256,192,47141,1,0,0:0:0:0:
256,192,47430,1,0,0:0:0:0:
256,192,47718,1,8,0:0:0:0:
256,192,48295,1,0,0:0:0:0:
256,192,48776,1,8,0:0:0:0:
256,192,49064,1,0,0:0:0:0:
256,192,49449,1,0,0:0:0:0:
256,192,49737,1,8,0:0:0:0:
256,192,50026,1,8,0:0:0:0:
256,192,50603,1,8,0:0:0:0:
256,192,51083,1,0,0:0:0:0:
256,192,51372,1,0,0:0:0:0:
256,192,51756,1,4,0:0:0:0:
256,192,52045,1,0,0:0:0:0:
256,192,52333,1,8,0:0:0:0:
256,192,52910,1,0,0:0:0:0:
256,192,53103,1,0,0:0:0:0:
256,192,53391,1,8,0:0:0:0:
256,192,53680,1,0,0:0:0:0:
256,192,54064,1,0,0:0:0:0:
256,192,54353,1,8,0:0:0:0:
256,192,54641,1,8,0:0:0:0:
256,192,55218,1,8,0:0:0:0:
256,192,55410,1,8,0:0:0:0:
256,192,55699,1,8,0:0:0:0:
256,192,55987,1,0,0:0:0:0:
256,192,56372,1,0,0:0:0:0:
256,192,56660,1,0,0:0:0:0:
256,192,56949,1,8,0:0:0:0:
256,192,57526,1,0,0:0:0:0:
256,192,57718,1,0,0:0:0:0:
256,192,58006,1,8,0:0:0:0:
256,192,58295,1,0,0:0:0:0:
256,192,58583,5,4,0:0:0:0:
256,192,59256,5,8,0:0:0:0:
256,192,59737,5,0,0:0:0:0:
256,192,60026,5,8,0:0:0:0:
256,192,60314,5,0,0:0:0:0:
256,192,60987,5,0,0:0:0:0:
256,192,61276,1,8,0:0:0:0:
256,192,61564,1,0,0:0:0:0:
256,192,61853,1,8,0:0:0:0:
256,192,62141,1,0,0:0:0:0:
256,192,62430,1,8,0:0:0:0:
256,192,62718,1,0,0:0:0:0:
256,192,63006,1,8,0:0:0:0:
256,192,63295,1,0,0:0:0:0:
256,192,63872,1,8,0:0:0:0:
256,192,64160,1,0,0:0:0:0:
256,192,64449,1,8,0:0:0:0:
256,192,64737,1,8,0:0:0:0:
256,192,65026,1,0,0:0:0:0:
256,192,65314,1,0,0:0:0:0:
256,192,65603,1,8,0:0:0:0:
256,192,65891,1,8,0:0:0:0:
256,192,66180,1,0,0:0:0:0:
256,192,66468,1,8,0:0:0:0:
256,192,66756,1,0,0:0:0:0:
256,192,67045,1,0,0:0:0:0:
256,192,67333,1,8,0:0:0:0:
256,192,67526,1,0,0:0:0:0:
256,192,67814,1,4,0:0:0:0:
256,192,68199,1,8,0:0:0:0:
256,192,68776,1,0,0:0:0:0:
256,192,69064,1,8,0:0:0:0:
256,192,69641,1,0,0:0:0:0:
256,192,70218,5,0,0:0:0:0:
256,192,70506,1,8,0:0:0:0:
256,192,70795,1,0,0:0:0:0:
256,192,71083,1,8,0:0:0:0:
256,192,71372,1,0,0:0:0:0:
256,192,71660,1,8,0:0:0:0:
256,192,71949,1,0,0:0:0:0:
256,192,72237,1,8,0:0:0:0:
256,192,72526,1,0,0:0:0:0:
256,192,73103,1,8,0:0:0:0:
256,192,73391,1,0,0:0:0:0:
256,192,73680,1,8,0:0:0:0:
256,192,73968,1,8,0:0:0:0:
256,192,74256,1,0,0:0:0:0:
256,192,74545,1,0,0:0:0:0:
256,192,74833,1,8,0:0:0:0:
256,192,75122,1,8,0:0:0:0:
256,192,75410,1,0,0:0:0:0:
256,192,75699,1,8,0:0:0:0:
256,192,75987,1,8,0:0:0:0:
256,192,76276,1,0,0:0:0:0:
256,192,76564,1,8,0:0:0:0:
256,192,76756,1,0,0:0:0:0:
256,192,77045,1,4,0:0:0:0:
256,192,77430,1,8,0:0:0:0:
256,192,78199,5,0,0:0:0:0:
256,192,78872,1,8,0:0:0:0:
256,192,79449,5,8,0:0:0:0:
256,192,80026,1,0,0:0:0:0:
256,192,80603,1,0,0:0:0:0:
256,192,80891,1,0,0:0:0:0:
256,192,81180,1,0,0:0:0:0:
256,192,81756,1,8,0:0:0:0:
256,192,82237,1,0,0:0:0:0:
256,192,82910,1,0,0:0:0:0:
256,192,83391,1,8,0:0:0:0:
256,192,84064,1,0,0:0:0:0:
256,192,84641,1,0,0:0:0:0:
256,192,84930,1,8,0:0:0:0:
256,192,85218,1,0,0:0:0:0:
256,192,85699,1,8,0:0:0:0:
256,192,86083,1,8,0:0:0:0:
256,192,86276,1,0,0:0:0:0:
256,192,86949,1,0,0:0:0:0:
256,192,87430,1,8,0:0:0:0:
256,192,88006,1,0,0:0:0:0:
256,192,88295,1,8,0:0:0:0:
256,192,88583,1,4,0:0:0:0:
256,192,89160,1,4,0:0:0:0:
256,192,89737,1,4,0:0:0:0:
256,192,90122,1,8,0:0:0:0:
256,192,90410,1,8,0:0:0:0:
256,192,90891,1,0,0:0:0:0:
256,192,91276,1,8,0:0:0:0:
256,192,91853,1,0,0:0:0:0:
256,192,92045,1,0,0:0:0:0:
256,192,92718,1,8,0:0:0:0:
256,192,93006,1,8,0:0:0:0:
256,192,93295,1,0,0:0:0:0:
256,192,93872,1,0,0:0:0:0:
256,192,94160,1,8,0:0:0:0:
256,192,94449,1,0,0:0:0:0:
256,192,94930,1,8,0:0:0:0:
256,192,95314,1,8,0:0:0:0:
256,192,95506,1,0,0:0:0:0:
256,192,96180,1,0,0:0:0:0:
256,192,96660,1,8,0:0:0:0:
256,192,97237,1,0,0:0:0:0:
256,192,97526,1,8,0:0:0:0:
256,192,97814,1,4,0:0:0:0:
256,192,98391,5,4,0:0:0:0:
256,192,98968,1,4,0:0:0:0:
256,192,99353,1,8,0:0:0:0:
256,192,99641,1,8,0:0:0:0:
256,192,99833,1,8,0:0:0:0:
256,192,100122,1,0,0:0:0:0:
256,192,100795,1,8,0:0:0:0:
256,192,101083,1,0,0:0:0:0:
256,192,101372,1,0,0:0:0:0:
256,192,101949,1,8,0:0:0:0:
256,192,102237,1,8,0:0:0:0:
256,192,102526,1,0,0:0:0:0:
256,192,103103,1,0,0:0:0:0:
256,192,103391,1,8,0:0:0:0:
256,192,103680,1,0,0:0:0:0:
256,192,104160,1,8,0:0:0:0:
256,192,104545,1,8,0:0:0:0:
256,192,104737,1,0,0:0:0:0:
256,192,105410,1,0,0:0:0:0:
256,192,105891,1,8,0:0:0:0:
256,192,106468,1,0,0:0:0:0:
256,192,106756,1,8,0:0:0:0:
256,192,107045,1,4,0:0:0:0:
256,192,107622,1,4,0:0:0:0:
256,192,108199,1,4,0:0:0:0:
256,192,108583,1,8,0:0:0:0:
256,192,108872,1,8,0:0:0:0:
256,192,109353,1,0,0:0:0:0:
256,192,109737,1,8,0:0:0:0:
256,192,110314,1,0,0:0:0:0:
256,192,110506,1,0,0:0:0:0:
256,192,111180,1,8,0:0:0:0:
256,192,111468,1,8,0:0:0:0:
256,192,111756,1,0,0:0:0:0:
256,192,112333,1,0,0:0:0:0:
256,192,112622,1,8,0:0:0:0:
256,192,112910,1,0,0:0:0:0:
256,192,113391,1,8,0:0:0:0:
256,192,113776,1,8,0:0:0:0:
256,192,113968,1,0,0:0:0:0:
256,192,114641,1,0,0:0:0:0:
256,192,115122,1,8,0:0:0:0:
256,192,115699,1,0,0:0:0:0:
256,192,115987,1,8,0:0:0:0:
256,192,116276,1,4,0:0:0:0:
256,192,116853,1,4,0:0:0:0:
256,192,117430,1,4,0:0:0:0:
256,192,117814,1,8,0:0:0:0:
256,192,118103,5,8,0:0:0:0:
256,192,118583,1,0,0:0:0:0:
256,192,118968,1,8,0:0:0:0:
256,192,119256,5,8,0:0:0:0:
256,192,119545,1,8,0:0:0:0:
256,192,119833,5,8,0:0:0:0:
256,192,120410,1,0,0:0:0:0:
256,192,120987,5,8,0:0:0:0:
256,192,121276,5,0,0:0:0:0:
256,192,121564,5,8,0:0:0:0:
256,192,122141,5,0,0:0:0:0:
256,192,122430,5,8,0:0:0:0:
256,192,122718,5,8,0:0:0:0:
256,192,122910,5,8,0:0:0:0:
256,192,123295,5,0,0:0:0:0:
256,192,123872,5,0,0:0:0:0:
256,192,124064,5,8,0:0:0:0:
256,192,124353,5,0,0:0:0:0:
256,192,125026,5,0,0:0:0:0:
256,192,125506,1,4,0:0:0:0:
256,192,126083,1,4,0:0:0:0:
256,192,126660,1,4,0:0:0:0:
256,192,127045,1,0,0:0:0:0:
256,192,127333,1,8,0:0:0:0:
256,192,127814,1,0,0:0:0:0:
256,192,128199,1,8,0:0:0:0:
256,192,128776,1,0,0:0:0:0:
256,192,129064,1,0,0:0:0:0:
256,192,129641,1,8,0:0:0:0:
256,192,130218,5,8,0:0:0:0:
256,192,130410,5,0,0:0:0:0:
256,192,130795,5,0,0:0:0:0:
256,192,131372,5,8,0:0:0:0:
256,192,131949,5,0,0:0:0:0:
256,192,132333,5,8,0:0:0:0:
256,192,132526,5,0,0:0:0:0:
256,192,132814,5,0,0:0:0:0:
256,192,133103,5,8,0:0:0:0:
256,192,133680,5,8,0:0:0:0:
256,192,133968,5,8,0:0:0:0:
256,192,134256,5,0,0:0:0:0:
256,192,134737,1,4,0:0:0:0:
256,192,135314,1,4,0:0:0:0:
256,192,135891,5,4,0:0:0:0:
256,192,136276,1,0,0:0:0:0:
256,192,136564,1,8,0:0:0:0:
256,192,137045,1,4,0:0:0:0:
256,192,137430,5,8,0:0:0:0:
256,192,137718,5,8,0:0:0:0:
256,192,138006,5,8,0:0:0:0:
256,192,138295,5,0,0:0:0:0:
256,192,138872,5,0,0:0:0:0:
256,192,139449,5,0,0:0:0:0:
256,192,139930,5,0,0:0:0:0:
256,192,140506,5,0,0:0:0:0:
256,192,140891,5,8,0:0:0:0:
256,192,141083,5,0,0:0:0:0:
256,192,141372,1,8,0:0:0:0:
256,192,141756,1,0,0:0:0:0:
256,192,141949,1,8,0:0:0:0:
256,192,142237,1,8,0:0:0:0:
256,192,142910,1,8,0:0:0:0:
256,192,143103,1,8,0:0:0:0:
256,192,143391,1,8,0:0:0:0:
