osu file format v14

[General]
AudioFilename: audio.mp3
AudioLeadIn: 0
PreviewTime: -1
Countdown: 1
SampleSet: None
StackLeniency: 0.7
Mode: 0
LetterboxInBreaks: 0
WidescreenStoryboard: 0

[Editor]
DistanceSpacing: 1
BeatDivisor: 4
GridSize: 4
TimelineZoom: 1

[Metadata]
Title:11:11
TitleUnicode:11:11
Artist:Taeyeon
ArtistUnicode:Taeyeon
Creator:toniklismanic
Version:Insane
Source:
Tags:
BeatmapID:1327900
BeatmapSetID:629086

[Difficulty]
HPDrainRate:3
CircleSize:3
OverallDifficulty:8
ApproachRate:9
SliderMultiplier:1.4
SliderTickRate:1

[Events]
//Background and Video events
0,0,"taeyeon-1.png",0,0
//Break Periods
2,40550,46875
//Storyboard Layer 0 (Background)
//Storyboard Layer 1 (Fail)
//Storyboard Layer 2 (Pass)
//Storyboard Layer 3 (Foreground)
//Storyboard Sound Samples

[TimingPoints]
0,300,4,1,0,100,1,0

[HitObjects]
64,104,450,6,0,L|280:268,2,245
232,116,2850,5,0,0:0:0:0:
284,136,3075,1,0,0:0:0:0:
344,204,3675,1,0,0:0:0:0:
240,96,5025,1,0,0:0:0:0:
196,120,5325,1,0,0:0:0:0:
172,152,5925,1,0,0:0:0:0:
148,192,6525,1,0,0:0:0:0:
132,252,7125,1,0,0:0:0:0:
256,192,9900,1,0,0:0:0:0:
368,68,11325,1,0,0:0:0:0:
320,68,11700,1,0,0:0:0:0:
284,68,11925,1,0,0:0:0:0:
256,72,12225,1,0,0:0:0:0:
176,96,12450,1,0,0:0:0:0:
116,212,12825,1,0,0:0:0:0:
212,268,13050,1,0,0:0:0:0:
292,292,13350,1,0,0:0:0:0:
368,228,13575,1,0,0:0:0:0:
376,168,13875,1,0,0:0:0:0:
288,112,14250,1,0,0:0:0:0:
204,108,14550,1,0,0:0:0:0:
156,172,14850,1,0,0:0:0:0:
220,252,15375,1,0,0:0:0:0:
344,224,15900,1,0,0:0:0:0:
336,132,16425,1,0,0:0:0:0:
232,124,16875,1,0,0:0:0:0:
180,124,17100,1,0,0:0:0:0:
128,176,17475,1,0,0:0:0:0:
112,248,17700,1,0,0:0:0:0:
248,312,18000,1,0,0:0:0:0:
128,80,18525,1,0,0:0:0:0:
384,80,19050,1,0,0:0:0:0:
412,200,19500,1,0,0:0:0:0:
244,240,20025,1,0,0:0:0:0:
244,60,21525,1,0,0:0:0:0:
136,112,21825,1,0,0:0:0:0:
104,216,22125,1,0,0:0:0:0:
216,280,22425,1,0,0:0:0:0:
372,292,22650,1,0,0:0:0:0:
360,160,23100,1,0,0:0:0:0:
144,236,23475,1,0,0:0:0:0:
156,128,23850,1,0,0:0:0:0:
320,80,24075,1,0,0:0:0:0:
360,228,24750,1,0,0:0:0:0:
188,296,25275,1,0,0:0:0:0:
112,112,25800,1,0,0:0:0:0:
256,164,26325,1,0,0:0:0:0:
256,184,28725,1,0,0:0:0:0:
256,92,29250,1,0,0:0:0:0:
252,308,29850,1,0,0:0:0:0:
96,188,30525,1,0,0:0:0:0:
388,188,31050,1,0,0:0:0:0:
272,308,31650,1,0,0:0:0:0:
260,84,32250,1,0,0:0:0:0:
112,184,32775,1,0,0:0:0:0:
256,296,33300,1,0,0:0:0:0:
364,176,33900,1,0,0:0:0:0:
440,304,34500,1,0,0:0:0:0:
436,180,35175,1,0,0:0:0:0:
356,276,35700,1,0,0:0:0:0:
300,92,36300,1,0,0:0:0:0:
152,84,36825,1,0,0:0:0:0:
92,216,37350,1,0,0:0:0:0:
200,280,37725,1,0,0:0:0:0:
280,264,38025,1,0,0:0:0:0:
352,228,38325,1,0,0:0:0:0:
376,96,38925,1,0,0:0:0:0:
148,80,39450,2,0,L|324:216,2,210
360,64,47475,5,0,0:0:0:0:
128,60,48000,1,0,0:0:0:0:
112,280,48600,1,0,0:0:0:0:
336,296,49125,1,0,0:0:0:0:
384,184,49425,1,0,0:0:0:0:
380,108,49725,1,0,0:0:0:0:
308,56,50025,1,0,0:0:0:0:
260,56,50325,1,0,0:0:0:0:
224,64,50625,1,0,0:0:0:0:
76,196,51525,1,0,0:0:0:0:
96,244,51825,1,0,0:0:0:0:
156,280,52125,1,0,0:0:0:0:
228,288,52350,1,0,0:0:0:0:
328,280,52650,1,0,0:0:0:0:
364,60,53250,1,0,0:0:0:0:
164,64,53775,1,0,0:0:0:0:
116,228,54300,1,0,0:0:0:0:
352,280,54900,1,0,0:0:0:0:
424,156,55350,1,0,0:0:0:0:
272,84,55875,1,0,0:0:0:0:
176,108,56175,1,0,0:0:0:0:
124,196,56475,1,0,0:0:0:0:
352,304,56775,1,0,0:0:0:0:
116,104,57375,1,0,0:0:0:0:
376,96,57900,1,0,0:0:0:0:
212,248,58500,1,0,0:0:0:0:
340,280,58950,1,0,0:0:0:0:
384,256,59175,1,0,0:0:0:0:
396,184,59475,1,0,0:0:0:0:
396,168,59625,1,0,0:0:0:0:
368,116,60000,1,0,0:0:0:0:
316,84,60525,1,0,0:0:0:0:
260,80,60825,1,0,0:0:0:0:
204,84,61125,1,0,0:0:0:0:
152,104,61500,1,0,0:0:0:0:
104,184,62025,1,0,0:0:0:0:
140,276,62625,1,0,0:0:0:0:
268,280,63150,1,0,0:0:0:0:
312,276,63450,1,0,0:0:0:0:
260,176,66450,1,0,0:0:0:0:
256,128,66750,1,0,0:0:0:0:
252,112,66900,1,0,0:0:0:0:
236,92,67200,1,0,0:0:0:0:
212,80,67500,1,0,0:0:0:0:
168,88,67950,1,0,0:0:0:0:
124,124,68550,1,0,0:0:0:0:
112,176,69075,1,0,0:0:0:0:
112,220,69525,1,0,0:0:0:0:
296,292,71175,1,0,0:0:0:0:
308,292,71400,1,0,0:0:0:0:
316,288,71550,1,0,0:0:0:0:
320,288,71700,1,0,0:0:0:0:
336,284,71925,1,0,0:0:0:0:
344,280,72150,1,0,0:0:0:0:
368,268,72675,1,0,0:0:0:0:
384,252,73200,1,0,0:0:0:0:
396,188,74400,1,0,0:0:0:0:
396,152,74625,1,0,0:0:0:0:
352,80,75975,1,0,0:0:0:0:
328,76,76125,1,0,0:0:0:0:
312,72,76275,1,0,0:0:0:0:
296,72,76575,1,0,0:0:0:0:
280,72,76800,1,0,0:0:0:0:
248,72,77400,1,0,0:0:0:0:
216,80,78075,1,0,0:0:0:0:
200,88,78450,1,0,0:0:0:0:
184,104,78900,1,0,0:0:0:0:
144,168,79875,1,0,0:0:0:0:
136,196,80025,1,0,0:0:0:0:
132,216,80175,1,0,0:0:0:0:
132,216,80325,1,0,0:0:0:0:
220,288,82275,1,0,0:0:0:0:
264,292,82425,1,0,0:0:0:0:
296,296,82725,1,0,0:0:0:0:
316,296,82950,1,0,0:0:0:0:
368,304,83625,1,0,0:0:0:0:
252,200,85125,1,0,0:0:0:0:
260,44,85650,1,0,0:0:0:0:
88,172,86325,1,0,0:0:0:0:
244,276,86925,1,0,0:0:0:0:
260,184,87450,1,0,0:0:0:0:
344,256,88050,1,0,0:0:0:0:
384,168,88575,1,0,0:0:0:0:
304,92,89100,1,0,0:0:0:0:
220,88,89700,1,0,0:0:0:0:
160,112,90075,1,0,0:0:0:0:
128,176,90675,1,0,0:0:0:0:
400,272,91200,1,0,0:0:0:0:
368,80,91800,1,0,0:0:0:0:
240,136,92250,1,0,0:0:0:0:
176,76,92625,1,0,0:0:0:0:
116,68,92850,1,0,0:0:0:0:
72,180,93525,1,0,0:0:0:0:
232,232,93900,1,0,0:0:0:0:
308,248,94350,1,0,0:0:0:0:
336,248,94500,1,0,0:0:0:0:
360,180,94800,1,0,0:0:0:0:
200,84,95550,1,0,0:0:0:0:
176,232,95925,1,0,0:0:0:0:
124,112,96300,2,0,P|324:264|324:268,4,280
188,212,99075,1,0,0:0:0:0:
272,168,99450,1,0,0:0:0:0:
368,144,100050,1,0,0:0:0:0:
328,56,100575,1,0,0:0:0:0:
132,84,101100,1,0,0:0:0:0:
256,184,103875,1,0,0:0:0:0:
412,192,104475,1,0,0:0:0:0:
84,192,105075,1,0,0:0:0:0:
376,200,105750,1,0,0:0:0:0:
156,84,106275,1,0,0:0:0:0:
200,272,106875,1,0,0:0:0:0:
324,104,107475,1,0,0:0:0:0:
388,256,108075,1,0,0:0:0:0:
196,96,108675,1,0,0:0:0:0:
120,232,109200,1,0,0:0:0:0:
288,104,109800,1,0,0:0:0:0:
368,228,110325,1,0,0:0:0:0:
180,92,110925,1,0,0:0:0:0:
352,164,111375,1,0,0:0:0:0:
188,100,111825,1,0,0:0:0:0:
312,92,112425,1,0,0:0:0:0:
172,244,113325,1,0,0:0:0:0:
332,84,113850,1,0,0:0:0:0:
184,236,114450,1,0,0:0:0:0:
168,76,114975,1,0,0:0:0:0:
336,244,115500,1,0,0:0:0:0:
416,88,116025,1,0,0:0:0:0:
288,212,116550,1,0,0:0:0:0:
148,88,117150,1,0,0:0:0:0:
88,248,117900,1,0,0:0:0:0:
208,268,118500,1,0,0:0:0:0:
304,272,119100,1,0,0:0:0:0:
380,280,119775,1,0,0:0:0:0:
440,280,120300,1,0,0:0:0:0:
432,116,121275,1,0,0:0:0:0:
328,64,121800,1,0,0:0:0:0:
248,60,122400,1,0,0:0:0:0:
128,140,123000,1,0,0:0:0:0:
152,144,123225,1,0,0:0:0:0:
160,148,123300,1,0,0:0:0:0:
176,152,123600,1,0,0:0:0:0:
184,156,123825,1,0,0:0:0:0:
220,168,124425,1,0,0:0:0:0:
256,176,125025,1,0,0:0:0:0:
288,184,125475,1,0,0:0:0:0:
304,184,125925,1,0,0:0:0:0:
312,56,127650,1,0,0:0:0:0:
312,56,127875,1,0,0:0:0:0:
304,64,128025,1,0,0:0:0:0:
296,64,128175,1,0,0:0:0:0:
288,72,128325,1,0,0:0:0:0:
280,72,128550,1,0,0:0:0:0:
264,80,129150,1,0,0:0:0:0:
240,96,129825,1,0,0:0:0:0:
196,120,130875,1,0,0:0:0:0:
160,236,132450,1,0,0:0:0:0:
172,240,132675,1,0,0:0:0:0:
184,244,132825,1,0,0:0:0:0:
196,248,133050,1,0,0:0:0:0:
200,248,133275,1,0,0:0:0:0:
224,256,133800,1,0,0:0:0:0:
256,264,134475,1,0,0:0:0:0:
272,264,134925,1,0,0:0:0:0:
292,268,135375,1,0,0:0:0:0:
160,92,135900,2,0,L|372:252,3,245
272,248,137850,1,0,0:0:0:0:
256,184,142050,1,0,0:0:0:0:
264,136,142425,1,0,0:0:0:0:
256,60,143025,1,0,0:0:0:0:
184,76,143250,1,0,0:0:0:0:
120,228,143850,1,0,0:0:0:0:
296,304,144375,1,0,0:0:0:0:
400,208,144975,1,0,0:0:0:0:
368,88,145575,1,0,0:0:0:0:
292,148,145875,1,0,0:0:0:0:
212,212,146250,1,0,0:0:0:0:
136,88,146850,1,0,0:0:0:0:
232,152,147150,1,0,0:0:0:0:
352,248,147750,1,0,0:0:0:0:
432,296,148050,1,0,0:0:0:0:
448,116,148575,1,0,0:0:0:0:
384,72,148950,1,0,0:0:0:0:
292,60,149250,1,0,0:0:0:0:
224,56,149475,1,0,0:0:0:0:
144,88,149775,1,0,0:0:0:0:
108,152,150075,1,0,0:0:0:0:
96,212,150375,1,0,0:0:0:0:
188,256,150675,1,0,0:0:0:0:
308,196,150900,1,0,0:0:0:0:
392,104,151575,1,0,0:0:0:0:
328,80,151875,1,0,0:0:0:0:
184,80,152325,1,0,0:0:0:0:
244,192,152775,1,0,0:0:0:0:
392,192,153975,1,0,0:0:0:0:
156,200,154425,1,0,0:0:0:0:
260,324,155025,1,0,0:0:0:0:
256,176,155550,1,0,0:0:0:0:
392,244,157500,1,0,0:0:0:0:
392,244,157725,1,0,0:0:0:0:
392,244,157950,1,0,0:0:0:0:
376,200,158475,1,0,0:0:0:0:
364,120,158925,1,0,0:0:0:0:
272,64,159375,1,0,0:0:0:0:
136,92,159975,1,0,0:0:0:0:
256,240,160950,1,0,0:0:0:0:
380,184,161625,1,0,0:0:0:0:
256,104,162675,1,0,0:0:0:0:
160,244,163275,1,0,0:0:0:0:
140,88,163875,1,0,0:0:0:0:
288,252,164475,1,0,0:0:0:0:
380,196,164775,1,0,0:0:0:0:
376,104,165075,1,0,0:0:0:0:
248,88,165375,1,0,0:0:0:0:
320,152,165675,1,0,0:0:0:0:
396,236,165975,1,0,0:0:0:0:
80,232,166875,1,0,0:0:0:0:
144,156,167175,1,0,0:0:0:0:
232,224,167475,1,0,0:0:0:0:
296,256,167775,1,0,0:0:0:0:
376,268,168075,1,0,0:0:0:0:
416,160,168600,1,0,0:0:0:0:
384,88,168900,1,0,0:0:0:0:
280,56,169200,1,0,0:0:0:0:
188,56,169500,1,0,0:0:0:0:
88,80,169800,1,0,0:0:0:0:
56,184,170100,1,0,0:0:0:0:
64,272,170400,1,0,0:0:0:0:
252,200,170775,1,0,0:0:0:0:
392,188,172125,1,0,0:0:0:0:
220,60,172725,1,0,0:0:0:0:
348,68,173025,1,0,0:0:0:0:
108,184,173550,1,0,0:0:0:0:
240,248,174450,1,0,0:0:0:0:
304,252,174750,1,0,0:0:0:0:
336,260,175050,1,0,0:0:0:0:
360,264,175350,1,0,0:0:0:0:
392,184,175875,1,0,0:0:0:0:
356,152,176250,1,0,0:0:0:0:
328,136,176550,1,0,0:0:0:0:
292,128,176850,1,0,0:0:0:0:
232,128,177450,1,0,0:0:0:0:
180,136,178050,1,0,0:0:0:0:
140,144,178650,1,0,0:0:0:0:
108,212,179175,1,0,0:0:0:0:
108,240,179475,1,0,0:0:0:0:
140,280,180000,1,0,0:0:0:0:
192,300,180600,1,0,0:0:0:0:
236,304,181200,1,0,0:0:0:0:
344,72,181800,1,0,0:0:0:0:
344,72,181950,1,0,0:0:0:0:
344,72,182100,1,0,0:0:0:0:
344,72,182250,1,0,0:0:0:0:
332,64,182775,1,0,0:0:0:0:
292,64,183300,1,0,0:0:0:0:
256,64,183900,1,0,0:0:0:0:
224,64,184275,1,0,0:0:0:0:
192,72,184725,1,0,0:0:0:0:
168,192,186675,1,0,0:0:0:0:
176,200,186825,1,0,0:0:0:0:
184,208,186975,1,0,0:0:0:0:
196,216,187200,1,0,0:0:0:0:
200,224,187500,1,0,0:0:0:0:
232,236,188025,1,0,0:0:0:0:
272,244,188550,1,0,0:0:0:0:
324,172,191325,1,0,0:0:0:0:
300,168,191475,1,0,0:0:0:0:
284,164,191625,1,0,0:0:0:0:
260,160,191850,1,0,0:0:0:0:
248,160,192150,1,0,0:0:0:0:
204,152,192675,1,0,0:0:0:0:
140,156,193350,1,0,0:0:0:0:
120,212,193725,1,0,0:0:0:0:
128,272,194175,1,0,0:0:0:0:
256,180,195150,1,0,0:0:0:0:
256,180,195375,1,0,0:0:0:0:
256,180,195525,1,0,0:0:0:0:
256,180,195675,1,0,0:0:0:0:
392,64,197325,1,0,0:0:0:0:
252,56,197700,1,0,0:0:0:0:
152,52,198000,1,0,0:0:0:0:
84,64,198300,1,0,0:0:0:0:
96,256,198900,1,0,0:0:0:0:
400,280,200700,1,0,0:0:0:0:
360,268,200850,1,0,0:0:0:0:
344,264,201000,1,0,0:0:0:0:
256,244,201300,1,0,0:0:0:0:
300,176,201600,1,0,0:0:0:0:
352,96,202125,1,0,0:0:0:0:
148,48,202725,1,0,0:0:0:0:
80,192,203175,1,0,0:0:0:0:
208,284,203700,1,0,0:0:0:0:
384,184,205425,1,0,0:0:0:0:
360,168,205650,1,0,0:0:0:0:
340,144,205800,1,0,0:0:0:0:
296,96,206250,1,0,0:0:0:0:
216,72,206775,1,0,0:0:0:0:
132,88,207300,1,0,0:0:0:0:
416,316,208425,1,0,0:0:0:0:
124,84,208725,1,0,0:0:0:0:
352,96,210075,1,0,0:0:0:0:
232,204,210300,1,0,0:0:0:0:
212,108,210525,1,0,0:0:0:0:
300,184,210750,1,0,0:0:0:0:
352,236,211050,1,0,0:0:0:0:
400,100,211500,1,0,0:0:0:0:
232,120,212100,1,0,0:0:0:0:
112,204,212550,1,0,0:0:0:0:
288,256,213000,1,0,0:0:0:0:
344,92,213750,1,0,0:0:0:0:
208,88,214050,1,0,0:0:0:0:
108,152,214350,1,0,0:0:0:0:
216,184,215100,1,0,0:0:0:0:
312,192,215700,1,0,0:0:0:0:
384,196,216225,1,0,0:0:0:0:
372,248,216525,1,0,0:0:0:0:
256,248,216825,1,0,0:0:0:0:
296,160,217125,1,0,0:0:0:0:
360,88,217725,1,0,0:0:0:0:
256,192,218625,12,0,220500,0:0:0:0:
