osu file format v14

[General]
AudioFilename: audio.ogg
AudioLeadIn: 0
PreviewTime: 49373
Countdown: 0
SampleSet: Soft
StackLeniency: 0.4
Mode: 0
LetterboxInBreaks: 0
WidescreenStoryboard: 0

[Editor]
DistanceSpacing: 0.6
BeatDivisor: 4
GridSize: 32
TimelineZoom: 2.4

[Metadata]
Title:RESOLVE
TitleUnicode:RESOLVE
Artist:Tadokoro Azusa
ArtistUnicode:田所あずさ
Creator:dkblaze
Version:DETERMINED
Source:バキ
Tags:Baki Ending ED KoldNoodl cjstmdals -laura- akitoshi corinn Shizuku- Kazato Asa Shikibe Mayu Ayesha Altugle midorijeon j-rock jrock rock j-pop pop jpop full japanese anime
BeatmapID:4539390
BeatmapSetID:2154215

[Difficulty]
HPDrainRate:5.5
CircleSize:3.8
OverallDifficulty:9.3
ApproachRate:9.5
SliderMultiplier:1.8
SliderTickRate:0.5

[Events]
//Background and Video events
0,0,"BG.jpg",0,0
//Break Periods
2,146265,149848
2,200111,204156
//Storyboard Layer 0 (Background)
//Storyboard Layer 1 (Fail)
//Storyboard Layer 2 (Pass)
//Storyboard Layer 3 (Foreground)
//Storyboard Layer 4 (Overlay)
//Storyboard Sound Samples

[TimingPoints]
835,307.692307692308,4,2,2,75,1,0
835,-83.3333333333333,4,2,2,75,0,1
1296,-83.3333333333333,4,2,3,75,0,1
1758,-83.3333333333333,4,2,2,75,0,1
2219,-83.3333333333333,4,2,3,75,0,1
2681,-83.3333333333333,4,2,2,75,0,1
2988,-83.3333333333333,4,2,3,75,0,1
3296,-83.3333333333333,4,2,2,75,0,1
3757,-83.3333333333333,4,2,3,75,0,1
4219,-83.3333333333333,4,2,2,75,0,1
4680,-83.3333333333333,4,2,3,75,0,1
5142,-83.3333333333333,4,2,2,75,0,1
5603,-83.3333333333333,4,2,3,75,0,1
5758,-83.3333333333333,4,2,2,75,0,1
6219,-83.3333333333333,4,2,3,75,0,1
6681,-83.3333333333333,4,2,2,75,0,1
7142,-83.3333333333333,4,2,3,75,0,1
7604,-83.3333333333333,4,2,2,75,0,1
7911,-83.3333333333333,4,2,3,75,0,1
8219,-83.3333333333333,4,2,2,75,0,1
8373,-83.3333333333333,4,2,2,50,0,1
8527,-83.3333333333333,4,2,2,54,0,1
8681,-83.3333333333333,4,2,2,57,0,1
8835,-83.3333333333333,4,2,2,61,0,1
8988,-83.3333333333333,4,2,2,64,0,1
9142,-83.3333333333333,4,2,2,68,0,1
9296,-83.3333333333333,4,2,2,71,0,1
9450,-83.3333333333333,4,2,2,75,0,1
10527,-166.666666666667,4,2,2,75,0,0
10681,-166.666666666667,4,2,2,50,0,0
12373,-166.666666666667,4,2,2,65,0,0
12681,-166.666666666667,4,2,12,65,0,0
12758,-166.666666666667,4,2,2,65,0,0
13142,-111.111111111111,4,2,2,70,0,0
13450,-111.111111111111,4,2,6,70,0,0
13527,-111.111111111111,4,2,2,70,0,0
13758,-111.111111111111,4,2,6,70,0,0
13835,-111.111111111111,4,2,2,70,0,0
14065,-111.111111111111,4,2,6,70,0,0
14142,-111.111111111111,4,2,2,70,0,0
14373,-111.111111111111,4,2,6,70,0,0
14450,-111.111111111111,4,2,2,70,0,0
14681,-111.111111111111,4,2,6,70,0,0
14758,-111.111111111111,4,2,2,70,0,0
14988,-111.111111111111,4,2,6,70,0,0
15065,-111.111111111111,4,2,2,70,0,0
15296,-111.111111111111,4,2,6,70,0,0
15373,-111.111111111111,4,2,2,70,0,0
15604,-111.111111111111,4,2,6,70,0,0
15681,-111.111111111111,4,2,2,70,0,0
15911,-111.111111111111,4,2,6,70,0,0
15988,-111.111111111111,4,2,2,70,0,0
16219,-111.111111111111,4,2,6,70,0,0
16296,-111.111111111111,4,2,2,70,0,0
16527,-111.111111111111,4,2,6,70,0,0
16604,-111.111111111111,4,2,2,70,0,0
16835,-111.111111111111,4,2,6,70,0,0
16912,-111.111111111111,4,2,2,70,0,0
17142,-111.111111111111,4,2,6,70,0,0
17219,-111.111111111111,4,2,2,70,0,0
17450,-111.111111111111,4,2,6,70,0,0
17527,-111.111111111111,4,2,2,70,0,0
17758,-111.111111111111,4,2,6,70,0,0
17835,-111.111111111111,4,2,2,70,0,0
18065,-111.111111111111,4,2,3,70,0,0
18373,-111.111111111111,4,2,6,70,0,0
18450,-111.111111111111,4,2,2,70,0,0
18681,-111.111111111111,4,2,6,70,0,0
18758,-111.111111111111,4,2,2,70,0,0
18988,-111.111111111111,4,2,6,70,0,0
19065,-111.111111111111,4,2,2,70,0,0
19296,-111.111111111111,4,2,6,70,0,0
19373,-111.111111111111,4,2,2,70,0,0
19604,-111.111111111111,4,2,6,70,0,0
19681,-111.111111111111,4,2,2,70,0,0
19911,-111.111111111111,4,2,6,70,0,0
19988,-111.111111111111,4,2,2,70,0,0
20219,-111.111111111111,4,2,6,70,0,0
20296,-111.111111111111,4,2,2,70,0,0
20527,-111.111111111111,4,2,5,70,0,0
20835,-111.111111111111,4,2,6,70,0,0
20912,-111.111111111111,4,2,2,70,0,0
21142,-111.111111111111,4,2,6,70,0,0
21219,-111.111111111111,4,2,2,70,0,0
21450,-111.111111111111,4,2,6,70,0,0
21527,-111.111111111111,4,2,2,70,0,0
21758,-111.111111111111,4,2,6,70,0,0
21835,-111.111111111111,4,2,2,70,0,0
22065,-111.111111111111,4,2,3,70,0,0
22373,-111.111111111111,4,2,5,70,0,0
22835,-111.111111111111,4,2,2,70,0,0
23296,-111.111111111111,4,2,6,70,0,0
23373,-111.111111111111,4,2,2,70,0,0
23604,-111.111111111111,4,2,6,70,0,0
23681,-111.111111111111,4,2,2,70,0,0
23911,-111.111111111111,4,2,6,70,0,0
23988,-111.111111111111,4,2,2,70,0,0
24219,-111.111111111111,4,2,6,70,0,0
24296,-111.111111111111,4,2,2,70,0,0
24527,-111.111111111111,4,2,6,70,0,0
24604,-111.111111111111,4,2,2,70,0,0
24835,-111.111111111111,4,2,6,70,0,0
24912,-111.111111111111,4,2,2,70,0,0
25142,-111.111111111111,4,2,6,70,0,0
25219,-111.111111111111,4,2,2,70,0,0
25450,-111.111111111111,4,2,6,70,0,0
25527,-111.111111111111,4,2,2,70,0,0
25758,-111.111111111111,4,2,6,70,0,0
25835,-111.111111111111,4,2,2,70,0,0
26065,-111.111111111111,4,2,6,70,0,0
26142,-111.111111111111,4,2,2,70,0,0
26373,-111.111111111111,4,2,6,70,0,0
26450,-111.111111111111,4,2,2,70,0,0
26681,-111.111111111111,4,2,6,70,0,0
26758,-111.111111111111,4,2,2,70,0,0
26988,-111.111111111111,4,2,6,70,0,0
27065,-111.111111111111,4,2,2,70,0,0
27296,-111.111111111111,4,2,6,70,0,0
27373,-111.111111111111,4,2,2,70,0,0
27604,-111.111111111111,4,2,6,70,0,0
27681,-111.111111111111,4,2,2,70,0,0
27911,-111.111111111111,4,2,3,70,0,0
28219,-111.111111111111,4,2,6,70,0,0
28296,-111.111111111111,4,2,2,70,0,0
28527,-111.111111111111,4,2,5,70,0,0
28835,-111.111111111111,4,2,6,70,0,0
28912,-111.111111111111,4,2,2,70,0,0
29142,-111.111111111111,4,2,3,70,0,0
30219,-66.6666666666667,4,2,3,70,0,0
30527,-76.9230769230769,4,2,6,70,0,0
30604,-76.9230769230769,4,2,2,70,0,0
30681,-76.9230769230769,4,2,6,70,0,0
30758,-76.9230769230769,4,2,2,70,0,0
31296,-76.9230769230769,4,2,3,70,0,0
31450,-66.6666666666667,4,2,2,70,0,0
31758,-76.9230769230769,4,2,3,70,0,0
32219,-76.9230769230769,4,2,12,70,0,0
32296,-76.9230769230769,4,2,2,70,0,0
32527,-166.666666666667,4,2,2,70,0,0
32835,-83.3333333333333,4,2,4,60,0,0
37142,-83.3333333333333,4,2,5,60,0,0
37450,-83.3333333333333,4,2,2,60,0,0
37758,-90.9090909090909,4,2,2,70,0,0
37911,-90.9090909090909,4,2,2,50,0,0
38065,-90.9090909090909,4,2,2,53,0,0
38219,-90.9090909090909,4,2,2,56,0,0
38373,-90.9090909090909,4,2,2,59,0,0
38527,-90.9090909090909,4,2,2,61,0,0
38681,-90.9090909090909,4,2,2,64,0,0
38835,-90.9090909090909,4,2,2,67,0,0
38988,-90.9090909090909,4,2,3,70,0,0
39142,-90.9090909090909,4,2,2,50,0,0
39296,-90.9090909090909,4,2,2,53,0,0
39450,-90.9090909090909,4,2,2,56,0,0
39604,-90.9090909090909,4,2,2,59,0,0
39758,-90.9090909090909,4,2,1,61,0,0
39911,-90.9090909090909,4,2,2,64,0,0
40065,-90.9090909090909,4,2,3,67,0,0
40219,-90.9090909090909,4,2,2,70,0,0
40681,-90.9090909090909,4,2,1,70,0,0
41450,-90.9090909090909,4,2,3,70,0,0
42219,-90.9090909090909,4,2,2,70,0,0
42373,-90.9090909090909,4,2,3,70,0,0
42681,-76.9230769230769,4,2,2,65,0,0
43296,-76.9230769230769,4,2,6,65,0,0
43373,-76.9230769230769,4,2,2,65,0,0
43758,-76.9230769230769,4,2,4,65,0,0
44065,-100,4,2,2,65,0,0
44835,-100,4,2,10,65,0,0
44912,-100,4,2,2,65,0,0
45142,-83.3333333333333,4,2,2,65,0,0
45450,-125,4,2,2,65,0,0
46065,-125,4,2,6,65,0,0
46142,-125,4,2,2,65,0,0
46373,-83.3333333333333,4,2,2,70,0,0
46527,-83.3333333333333,4,2,1,70,0,0
46681,-83.3333333333333,4,2,2,70,0,0
46835,-83.3333333333333,4,2,3,70,0,0
46988,-83.3333333333333,4,2,4,70,0,0
47450,-83.3333333333333,4,2,12,70,0,0
47527,-83.3333333333333,4,2,4,70,0,0
47758,-83.3333333333333,4,2,2,60,0,0
48681,-76.9230769230769,4,2,2,75,0,0
48988,-37.037037037037,4,2,2,75,0,0
49450,-500,4,2,2,75,0,0
49604,-500,4,2,2,60,0,0
50065,-83.3333333333333,4,2,1,80,0,1
50142,-83.3333333333333,4,2,2,80,0,1
50373,-90.9090909090909,4,2,6,80,0,1
50450,-90.9090909090909,4,2,2,80,0,1
50681,-90.9090909090909,4,2,6,80,0,1
50758,-90.9090909090909,4,2,2,80,0,1
50988,-90.9090909090909,4,2,6,80,0,1
51065,-90.9090909090909,4,2,2,80,0,1
51296,-90.9090909090909,4,2,6,80,0,1
51373,-90.9090909090909,4,2,2,80,0,1
51604,-90.9090909090909,4,2,6,80,0,1
51681,-90.9090909090909,4,2,2,80,0,1
51911,-90.9090909090909,4,2,6,80,0,1
51988,-90.9090909090909,4,2,2,80,0,1
52219,-90.9090909090909,4,2,6,80,0,1
52296,-90.9090909090909,4,2,2,80,0,1
52527,-90.9090909090909,4,2,6,80,0,1
52604,-90.9090909090909,4,2,2,80,0,1
52835,-90.9090909090909,4,2,6,80,0,1
52912,-90.9090909090909,4,2,2,80,0,1
53142,-90.9090909090909,4,2,6,80,0,1
53219,-90.9090909090909,4,2,2,80,0,1
53450,-90.9090909090909,4,2,6,80,0,1
53527,-90.9090909090909,4,2,2,80,0,1
53758,-90.9090909090909,4,2,6,80,0,1
53835,-90.9090909090909,4,2,2,80,0,1
54065,-90.9090909090909,4,2,6,80,0,1
54142,-90.9090909090909,4,2,2,80,0,1
54373,-90.9090909090909,4,2,6,80,0,1
54450,-90.9090909090909,4,2,2,80,0,1
54681,-90.9090909090909,4,2,6,80,0,1
54758,-90.9090909090909,4,2,2,80,0,1
54988,-166.666666666667,4,2,3,80,0,1
55296,-83.3333333333333,4,2,2,80,0,1
55604,-90.9090909090909,4,2,6,80,0,1
55681,-90.9090909090909,4,2,2,80,0,1
55911,-90.9090909090909,4,2,6,80,0,1
55988,-90.9090909090909,4,2,2,80,0,1
56219,-90.9090909090909,4,2,3,80,0,1
56527,-90.9090909090909,4,2,2,80,0,1
56835,-90.9090909090909,4,2,6,80,0,1
56912,-90.9090909090909,4,2,2,80,0,1
57142,-90.9090909090909,4,2,6,80,0,1
57219,-90.9090909090909,4,2,2,80,0,1
57450,-90.9090909090909,4,2,3,80,0,1
57758,-90.9090909090909,4,2,6,80,0,1
57835,-90.9090909090909,4,2,2,80,0,1
58065,-90.9090909090909,4,2,6,80,0,1
58142,-90.9090909090909,4,2,2,80,0,1
58373,-90.9090909090909,4,2,6,80,0,1
58450,-90.9090909090909,4,2,2,80,0,1
58681,-90.9090909090909,4,2,6,80,0,1
58758,-90.9090909090909,4,2,2,80,0,1
59296,-90.9090909090909,4,2,6,80,0,1
59373,-90.9090909090909,4,2,2,80,0,1
59911,-90.9090909090909,4,2,3,80,0,1
60219,-90.9090909090909,4,2,6,80,0,1
60296,-90.9090909090909,4,2,2,80,0,1
60527,-90.9090909090909,4,2,6,80,0,1
60604,-90.9090909090909,4,2,2,80,0,1
60835,-90.9090909090909,4,2,6,80,0,1
60912,-90.9090909090909,4,2,2,80,0,1
61142,-90.9090909090909,4,2,6,80,0,1
61219,-90.9090909090909,4,2,2,80,0,1
61450,-90.9090909090909,4,2,6,80,0,1
61527,-90.9090909090909,4,2,2,80,0,1
61758,-90.9090909090909,4,2,6,80,0,1
61835,-90.9090909090909,4,2,2,80,0,1
62065,-90.9090909090909,4,2,6,80,0,1
62142,-90.9090909090909,4,2,2,80,0,1
62373,-90.9090909090909,4,2,6,80,0,1
62450,-90.9090909090909,4,2,2,80,0,1
62681,-90.9090909090909,4,2,6,80,0,1
62758,-90.9090909090909,4,2,2,80,0,1
62988,-90.9090909090909,4,2,6,80,0,1
63065,-90.9090909090909,4,2,2,80,0,1
63296,-90.9090909090909,4,2,6,80,0,1
63373,-90.9090909090909,4,2,2,80,0,1
63604,-90.9090909090909,4,2,6,80,0,1
63681,-90.9090909090909,4,2,2,80,0,1
63911,-90.9090909090909,4,2,6,80,0,1
63988,-90.9090909090909,4,2,2,80,0,1
64219,-90.9090909090909,4,2,6,80,0,1
64296,-90.9090909090909,4,2,2,80,0,1
64527,-90.9090909090909,4,2,6,80,0,1
64604,-90.9090909090909,4,2,2,80,0,1
64835,-90.9090909090909,4,2,3,80,0,1
65142,-66.6666666666667,4,2,2,80,0,1
65450,-90.9090909090909,4,2,2,80,0,1
66065,-90.9090909090909,4,2,3,80,0,1
66988,-90.9090909090909,4,2,5,80,0,1
67296,-90.9090909090909,4,2,3,80,0,1
67758,-90.9090909090909,4,2,2,80,0,1
68527,-90.9090909090909,4,2,3,80,0,1
69296,-90.9090909090909,4,2,2,80,0,1
69450,-90.9090909090909,4,2,3,80,0,1
69758,-90.9090909090909,4,2,2,80,0,1
70219,-90.9090909090909,4,2,5,80,0,1
70681,-90.9090909090909,4,2,3,80,0,1
70988,-90.9090909090909,4,2,2,80,0,1
71450,-90.9090909090909,4,2,3,80,0,1
71911,-90.9090909090909,4,2,2,80,0,1
72219,-90.9090909090909,4,2,3,80,0,1
72681,-90.9090909090909,4,2,2,80,0,1
73142,-90.9090909090909,4,2,5,80,0,1
73450,-90.9090909090909,4,2,3,80,0,1
73911,-90.9090909090909,4,2,2,80,0,1
74373,-90.9090909090909,4,2,5,80,0,1
74681,-83.3333333333333,4,2,3,80,0,1
75142,-83.3333333333333,4,2,1,80,0,1
75296,-83.3333333333333,4,2,2,80,0,1
75911,-83.3333333333333,4,2,5,80,0,1
77142,-83.3333333333333,4,2,2,80,0,1
77296,-83.3333333333333,4,2,3,80,0,1
77604,-83.3333333333333,4,2,5,80,0,1
77758,-83.3333333333333,4,2,3,80,0,1
78065,-83.3333333333333,4,2,5,80,0,1
78373,-83.3333333333333,4,2,4,80,0,0
78681,-83.3333333333333,4,2,2,50,0,0
79604,-83.3333333333333,4,2,2,75,0,1
80065,-83.3333333333333,4,2,3,75,0,1
80527,-83.3333333333333,4,2,2,75,0,1
80988,-83.3333333333333,4,2,3,75,0,1
81450,-83.3333333333333,4,2,6,75,0,1
81527,-83.3333333333333,4,2,2,75,0,1
81758,-83.3333333333333,4,2,6,75,0,1
81835,-83.3333333333333,4,2,2,75,0,1
82065,-83.3333333333333,4,2,3,75,0,1
82526,-83.3333333333333,4,2,2,75,0,1
82988,-83.3333333333333,4,2,3,75,0,1
83449,-83.3333333333333,4,2,2,75,0,1
84065,-83.3333333333333,4,2,1,75,0,1
84219,-83.3333333333333,4,2,2,75,0,1
84527,-83.3333333333333,4,2,6,75,0,1
84604,-83.3333333333333,4,2,2,75,0,1
84835,-83.3333333333333,4,2,6,75,0,1
84912,-83.3333333333333,4,2,2,75,0,1
84988,-83.3333333333333,4,2,6,75,0,1
85065,-83.3333333333333,4,2,2,75,0,1
85296,-83.3333333333333,4,2,6,75,0,1
85373,-83.3333333333333,4,2,2,75,0,1
85450,-83.3333333333333,4,2,6,75,0,1
85527,-83.3333333333333,4,2,2,75,0,1
85758,-83.3333333333333,4,2,6,75,0,1
85835,-83.3333333333333,4,2,2,75,0,1
85911,-83.3333333333333,4,2,6,75,0,1
85988,-83.3333333333333,4,2,2,75,0,1
86219,-83.3333333333333,4,2,6,75,0,1
86296,-83.3333333333333,4,2,2,75,0,1
86373,-83.3333333333333,4,2,6,75,0,1
86450,-83.3333333333333,4,2,2,75,0,1
86681,-100,4,2,6,75,0,1
86758,-100,4,2,2,75,0,1
86988,-83.3333333333333,4,2,2,75,0,1
87296,-83.3333333333333,4,2,6,75,0,1
87373,-83.3333333333333,4,2,2,75,0,1
87604,-83.3333333333333,4,2,6,75,0,1
87681,-83.3333333333333,4,2,2,75,0,1
87911,-83.3333333333333,4,2,6,75,0,1
87988,-83.3333333333333,4,2,2,75,0,1
88219,-83.3333333333333,4,2,3,75,0,1
88681,-83.3333333333333,4,2,1,75,0,1
88835,-83.3333333333333,4,2,2,75,0,1
89142,-83.3333333333333,4,2,3,75,0,1
89450,-83.3333333333333,4,2,2,65,0,0
89758,-111.111111111111,4,2,6,65,0,0
89835,-111.111111111111,4,2,2,65,0,0
90065,-111.111111111111,4,2,8,65,0,0
90142,-111.111111111111,4,2,2,65,0,0
90527,-111.111111111111,4,2,12,65,0,0
90604,-111.111111111111,4,2,2,65,0,0
90835,-111.111111111111,4,2,12,65,0,0
90912,-111.111111111111,4,2,2,65,0,0
91296,-111.111111111111,4,2,6,65,0,0
91373,-111.111111111111,4,2,2,65,0,0
91911,-111.111111111111,4,2,3,65,0,0
92219,-111.111111111111,4,2,6,65,0,0
92296,-111.111111111111,4,2,2,65,0,0
92526,-111.111111111111,4,2,8,65,0,0
92603,-111.111111111111,4,2,2,65,0,0
92988,-111.111111111111,4,2,12,65,0,0
93065,-111.111111111111,4,2,2,65,0,0
93296,-111.111111111111,4,2,12,65,0,0
93373,-111.111111111111,4,2,2,65,0,0
93757,-111.111111111111,4,2,6,65,0,0
93834,-111.111111111111,4,2,2,65,0,0
94373,-111.111111111111,4,2,3,65,0,0
94835,-111.111111111111,4,2,12,65,0,0
94911,-111.111111111111,4,2,2,65,0,0
95142,-111.111111111111,4,2,8,65,0,0
95218,-111.111111111111,4,2,2,65,0,0
95450,-111.111111111111,4,2,8,65,0,0
95526,-111.111111111111,4,2,2,65,0,0
95758,-111.111111111111,4,2,12,65,0,0
95834,-111.111111111111,4,2,2,65,0,0
95911,-125,4,2,2,65,0,0
96219,-83.3333333333333,4,2,6,65,0,0
96295,-83.3333333333333,4,2,2,65,0,0
96835,-142.857142857143,4,2,6,65,0,0
96911,-142.857142857143,4,2,2,65,0,0
97450,-100,4,2,2,65,0,0
97604,-250,4,2,12,65,0,0
97680,-250,4,2,2,65,0,0
97911,-83.3333333333334,4,2,2,65,0,0
98065,-62.5,4,2,3,65,0,0
98373,-62.5,4,2,2,65,0,0
98681,-62.5,4,2,3,65,0,0
98988,-100,4,2,2,65,0,0
99296,-111.111111111111,4,2,2,70,0,0
99604,-111.111111111111,4,2,6,70,0,0
99681,-111.111111111111,4,2,2,70,0,0
99911,-111.111111111111,4,2,6,70,0,0
99988,-111.111111111111,4,2,2,70,0,0
100219,-111.111111111111,4,2,6,70,0,0
100296,-111.111111111111,4,2,2,70,0,0
100527,-111.111111111111,4,2,6,70,0,0
100604,-111.111111111111,4,2,2,70,0,0
100835,-111.111111111111,4,2,6,70,0,0
100912,-111.111111111111,4,2,2,70,0,0
101142,-111.111111111111,4,2,6,70,0,0
101219,-111.111111111111,4,2,2,70,0,0
101450,-111.111111111111,4,2,6,70,0,0
101527,-111.111111111111,4,2,2,70,0,0
101758,-111.111111111111,4,2,6,70,0,0
101835,-111.111111111111,4,2,2,70,0,0
102065,-111.111111111111,4,2,6,70,0,0
102142,-111.111111111111,4,2,2,70,0,0
102373,-111.111111111111,4,2,6,70,0,0
102450,-111.111111111111,4,2,2,70,0,0
102681,-111.111111111111,4,2,6,70,0,0
102758,-111.111111111111,4,2,2,70,0,0
102988,-111.111111111111,4,2,6,70,0,0
103065,-111.111111111111,4,2,2,70,0,0
103296,-111.111111111111,4,2,6,70,0,0
103373,-111.111111111111,4,2,2,70,0,0
103604,-111.111111111111,4,2,6,70,0,0
103681,-111.111111111111,4,2,2,70,0,0
103911,-111.111111111111,4,2,6,70,0,0
103988,-111.111111111111,4,2,2,70,0,0
104219,-111.111111111111,4,2,3,70,0,0
105604,-83.3333333333333,4,2,3,70,0,0
106219,-83.3333333333333,4,2,2,70,0,0
106373,-83.3333333333333,4,2,3,70,0,0
106527,-66.6666666666666,4,2,3,70,0,0
106835,-76.9230769230769,4,2,1,70,0,0
107142,-76.9230769230769,4,2,2,70,0,0
108527,-76.9230769230769,4,2,12,70,0,0
108604,-76.9230769230769,4,2,2,70,0,0
109142,-100,4,2,3,60,0,0
109450,-100,4,2,6,60,0,0
109527,-100,4,2,2,60,0,0
109758,-125,4,2,6,60,0,0
109835,-125,4,2,2,60,0,0
110065,-125,4,2,6,60,0,0
110142,-125,4,2,2,60,0,0
110373,-125,4,2,7,60,0,0
110450,-125,4,2,2,60,0,0
110681,-125,4,2,6,60,0,0
110758,-125,4,2,2,60,0,0
110988,-100,4,2,6,60,0,0
111065,-100,4,2,2,60,0,0
111296,-125,4,2,7,60,0,0
111373,-125,4,2,2,60,0,0
111604,-125,4,2,3,60,0,0
111911,-125,4,2,6,60,0,0
111988,-125,4,2,2,60,0,0
112219,-125,4,2,6,60,0,0
112296,-125,4,2,2,60,0,0
112527,-125,4,2,7,60,0,0
112604,-125,4,2,2,60,0,0
112835,-125,4,2,7,60,0,0
112912,-125,4,2,2,60,0,0
113142,-125,4,2,6,60,0,0
113219,-125,4,2,2,60,0,0
113450,-125,4,2,5,60,0,0
113758,-166.666666666667,4,2,5,60,0,0
114065,-83.3333333333333,4,2,2,70,0,0
114219,-83.3333333333333,4,2,2,50,0,0
114373,-83.3333333333333,4,2,2,53,0,0
114527,-83.3333333333333,4,2,2,56,0,0
114681,-83.3333333333333,4,2,2,59,0,0
114835,-83.3333333333333,4,2,2,61,0,0
114988,-83.3333333333333,4,2,2,64,0,0
115142,-83.3333333333333,4,2,2,67,0,0
115296,-83.3333333333333,4,2,3,70,0,0
115450,-83.3333333333333,4,2,2,50,0,0
115604,-83.3333333333333,4,2,2,53,0,0
115758,-83.3333333333333,4,2,2,56,0,0
115911,-83.3333333333333,4,2,2,59,0,0
116065,-83.3333333333333,4,2,1,61,0,0
116219,-83.3333333333333,4,2,2,64,0,0
116373,-83.3333333333333,4,2,3,67,0,0
116527,-83.3333333333333,4,2,2,70,0,0
116988,-83.3333333333333,4,2,1,70,0,0
117142,-83.3333333333333,4,2,2,70,0,0
117758,-83.3333333333333,4,2,3,70,0,0
118065,-83.3333333333333,4,2,6,70,0,0
118142,-83.3333333333333,4,2,2,70,0,0
118988,-166.666666666667,4,2,2,65,0,0
119296,-76.9230769230769,4,2,6,65,0,0
119373,-76.9230769230769,4,2,2,65,0,0
119604,-166.666666666667,4,2,8,65,0,0
119681,-166.666666666667,4,2,2,65,0,0
119911,-76.9230769230769,4,2,6,65,0,0
119988,-76.9230769230769,4,2,2,65,0,0
120219,-166.666666666667,4,2,8,65,0,0
120296,-166.666666666667,4,2,2,65,0,0
120527,-76.9230769230769,4,2,6,65,0,0
120604,-76.9230769230769,4,2,2,65,0,0
120835,-166.666666666667,4,2,8,65,0,0
120912,-166.666666666667,4,2,2,65,0,0
121142,-76.9230769230769,4,2,6,65,0,0
121219,-76.9230769230769,4,2,2,65,0,0
121450,-111.111111111111,4,2,3,70,0,0
121758,-111.111111111111,4,2,6,70,0,0
121835,-111.111111111111,4,2,2,70,0,0
122065,-111.111111111111,4,2,6,70,0,0
122142,-111.111111111111,4,2,2,70,0,0
122373,-111.111111111111,4,2,6,70,0,0
122450,-111.111111111111,4,2,2,70,0,0
122681,-111.111111111111,4,2,3,70,0,0
122988,-111.111111111111,4,2,2,70,0,0
123296,-111.111111111111,4,2,5,70,0,0
123604,-111.111111111111,4,2,2,70,0,0
123911,-83.3333333333333,4,2,2,75,0,0
124527,-125,4,2,12,75,0,0
124604,-125,4,2,2,75,0,0
124835,-83.3333333333333,4,2,2,75,0,0
124988,-66.6666666666667,4,2,2,75,0,0
125296,-66.6666666666667,4,2,1,75,0,0
125450,-66.6666666666667,4,2,2,75,0,0
125758,-37.037037037037,4,2,12,75,0,0
125835,-37.037037037037,4,2,2,75,0,0
125911,-37.037037037037,4,2,2,60,0,0
126373,-83.3333333333333,4,2,1,80,0,1
126450,-83.3333333333333,4,2,2,80,0,1
126681,-90.9090909090909,4,2,6,80,0,1
126758,-90.9090909090909,4,2,2,80,0,1
126989,-90.9090909090909,4,2,6,80,0,1
127066,-90.9090909090909,4,2,2,80,0,1
127296,-90.9090909090909,4,2,6,80,0,1
127373,-90.9090909090909,4,2,2,80,0,1
127604,-90.9090909090909,4,2,6,80,0,1
127681,-90.9090909090909,4,2,2,80,0,1
127912,-90.9090909090909,4,2,6,80,0,1
127989,-90.9090909090909,4,2,2,80,0,1
128219,-90.9090909090909,4,2,6,80,0,1
128296,-90.9090909090909,4,2,2,80,0,1
128527,-90.9090909090909,4,2,6,80,0,1
128604,-90.9090909090909,4,2,2,80,0,1
128835,-90.9090909090909,4,2,6,80,0,1
128912,-90.9090909090909,4,2,2,80,0,1
129143,-90.9090909090909,4,2,6,80,0,1
129220,-90.9090909090909,4,2,2,80,0,1
129450,-90.9090909090909,4,2,6,80,0,1
129527,-90.9090909090909,4,2,2,80,0,1
129758,-90.9090909090909,4,2,6,80,0,1
129835,-90.9090909090909,4,2,2,80,0,1
130066,-90.9090909090909,4,2,6,80,0,1
130143,-90.9090909090909,4,2,2,80,0,1
130373,-90.9090909090909,4,2,6,80,0,1
130450,-90.9090909090909,4,2,2,80,0,1
130681,-90.9090909090909,4,2,6,80,0,1
130758,-90.9090909090909,4,2,2,80,0,1
130989,-90.9090909090909,4,2,6,80,0,1
131066,-90.9090909090909,4,2,2,80,0,1
131296,-166.666666666667,4,2,3,80,0,1
131604,-83.3333333333333,4,2,2,80,0,1
131911,-90.9090909090909,4,2,6,80,0,1
131989,-90.9090909090909,4,2,2,80,0,1
132219,-90.9090909090909,4,2,6,80,0,1
132296,-90.9090909090909,4,2,2,80,0,1
132527,-90.9090909090909,4,2,3,80,0,1
132835,-90.9090909090909,4,2,2,80,0,1
133143,-90.9090909090909,4,2,6,80,0,1
133220,-90.9090909090909,4,2,2,80,0,1
133450,-90.9090909090909,4,2,6,80,0,1
133527,-90.9090909090909,4,2,2,80,0,1
133758,-90.9090909090909,4,2,3,80,0,1
134066,-90.9090909090909,4,2,6,80,0,1
134143,-90.9090909090909,4,2,2,80,0,1
134373,-90.9090909090909,4,2,6,80,0,1
134450,-90.9090909090909,4,2,2,80,0,1
134681,-90.9090909090909,4,2,6,80,0,1
134758,-90.9090909090909,4,2,2,80,0,1
134989,-90.9090909090909,4,2,6,80,0,1
135066,-90.9090909090909,4,2,2,80,0,1
135758,-90.9090909090909,4,2,1,80,0,1
135911,-90.9090909090909,4,2,2,80,0,1
136066,-90.9090909090909,4,2,3,80,0,1
136219,-90.9090909090909,4,2,2,80,0,1
136527,-90.9090909090909,4,2,6,80,0,1
136604,-90.9090909090909,4,2,2,80,0,1
136835,-90.9090909090909,4,2,6,80,0,1
136912,-90.9090909090909,4,2,2,80,0,1
137143,-90.9090909090909,4,2,6,80,0,1
137220,-90.9090909090909,4,2,2,80,0,1
137450,-90.9090909090909,4,2,6,80,0,1
137527,-90.9090909090909,4,2,2,80,0,1
137758,-90.9090909090909,4,2,6,80,0,1
137835,-90.9090909090909,4,2,2,80,0,1
138066,-90.9090909090909,4,2,6,80,0,1
138143,-90.9090909090909,4,2,2,80,0,1
138373,-90.9090909090909,4,2,6,80,0,1
138450,-90.9090909090909,4,2,2,80,0,1
138681,-90.9090909090909,4,2,6,80,0,1
138758,-90.9090909090909,4,2,2,80,0,1
138989,-90.9090909090909,4,2,6,80,0,1
139066,-90.9090909090909,4,2,2,80,0,1
139296,-90.9090909090909,4,2,6,80,0,1
139373,-90.9090909090909,4,2,2,80,0,1
139604,-90.9090909090909,4,2,6,80,0,1
139681,-90.9090909090909,4,2,2,80,0,1
139912,-90.9090909090909,4,2,6,80,0,1
139989,-90.9090909090909,4,2,2,80,0,1
140219,-90.9090909090909,4,2,6,80,0,1
140296,-90.9090909090909,4,2,2,80,0,1
140527,-90.9090909090909,4,2,6,80,0,1
140604,-90.9090909090909,4,2,2,80,0,1
140835,-90.9090909090909,4,2,6,80,0,1
140912,-90.9090909090909,4,2,2,80,0,1
141143,-90.9090909090909,4,2,3,80,0,1
141450,-66.6666666666667,4,2,2,80,0,1
141758,-90.9090909090909,4,2,2,80,0,1
142373,-90.9090909090909,4,2,3,80,0,1
142681,-90.9090909090909,4,2,2,80,0,1
143296,-90.9090909090909,4,2,5,80,0,1
143604,-90.9090909090909,4,2,3,80,0,1
143758,-90.9090909090909,4,2,1,80,0,1
143911,-90.9090909090909,4,2,2,80,0,1
145450,-90.9090909090909,4,2,3,80,0,1
145758,-90.9090909090909,4,2,2,80,0,1
146065,-83.3333333333333,4,2,3,50,0,0
146373,-83.3333333333333,4,2,8,50,0,0
146450,-83.3333333333333,4,2,2,50,0,0
146681,-83.3333333333333,4,2,9,50,0,0
146758,-83.3333333333333,4,2,2,50,0,0
146988,-83.3333333333333,4,2,8,50,0,0
147065,-83.3333333333333,4,2,2,50,0,0
147296,-83.3333333333333,4,2,8,50,0,0
147373,-83.3333333333333,4,2,2,50,0,0
147604,-83.3333333333333,4,2,9,50,0,0
147681,-83.3333333333333,4,2,2,50,0,0
147758,-83.3333333333333,4,2,9,50,0,0
147988,-83.3333333333333,4,2,2,50,0,0
148219,-83.3333333333333,4,2,5,50,0,0
148527,-83.3333333333333,4,2,8,50,0,0
148604,-83.3333333333333,4,2,2,50,0,0
148835,-83.3333333333333,4,2,9,50,0,0
148912,-83.3333333333333,4,2,2,50,0,0
149142,-83.3333333333333,4,2,8,50,0,0
149219,-83.3333333333333,4,2,2,50,0,0
149450,-83.3333333333333,4,2,8,50,0,0
149527,-83.3333333333333,4,2,2,50,0,0
149758,-83.3333333333333,4,2,9,50,0,0
149835,-83.3333333333333,4,2,2,50,0,0
150065,-83.3333333333333,4,2,8,50,0,0
150142,-83.3333333333333,4,2,2,50,0,0
150373,-50,4,2,2,60,0,0
150681,307.692307692308,4,2,2,70,1,0
150681,-100,4,2,2,70,0,0
150988,-100,4,2,6,70,0,0
151065,-100,4,2,2,70,0,0
151296,-100,4,2,6,70,0,0
151373,-100,4,2,2,70,0,0
151604,-100,4,2,6,70,0,0
151681,-100,4,2,2,70,0,0
151911,-100,4,2,6,70,0,0
151988,-100,4,2,2,70,0,0
152219,-100,4,2,6,70,0,0
152296,-100,4,2,2,70,0,0
152527,-100,4,2,6,70,0,0
152604,-100,4,2,2,70,0,0
152834,-100,4,2,6,70,0,0
152911,-100,4,2,2,70,0,0
153142,-83.3333333333333,4,2,2,70,0,0
154373,-66.6666666666667,4,2,2,70,0,0
154988,-83.3333333333333,4,2,2,70,0,0
155065,-71.4285714285714,4,2,2,70,0,0
155142,-62.5,4,2,2,70,0,0
155219,-55.5555555555556,4,2,2,70,0,0
155296,-50,4,2,2,70,0,0
155373,-45.4545454545455,4,2,2,70,0,0
155450,-41.6666666666667,4,2,2,70,0,0
155527,-38.4615384615385,4,2,2,70,0,0
155604,-76.9230769230769,4,2,2,75,0,1
155911,-76.9230769230769,4,2,6,75,0,1
155988,-76.9230769230769,4,2,2,75,0,1
156219,-90.9090909090909,4,2,6,75,0,1
156296,-90.9090909090909,4,2,2,75,0,1
156527,-90.9090909090909,4,2,6,75,0,1
156604,-90.9090909090909,4,2,2,75,0,1
156834,-90.9090909090909,4,2,6,75,0,1
156911,-90.9090909090909,4,2,2,75,0,1
157142,-90.9090909090909,4,2,6,75,0,1
157219,-90.9090909090909,4,2,2,75,0,1
157450,-90.9090909090909,4,2,6,75,0,1
157527,-90.9090909090909,4,2,2,75,0,1
157757,-90.9090909090909,4,2,6,75,0,1
157834,-90.9090909090909,4,2,2,75,0,1
158065,-90.9090909090909,4,2,6,75,0,1
158142,-90.9090909090909,4,2,2,75,0,1
158373,-90.9090909090909,4,2,6,75,0,1
158450,-90.9090909090909,4,2,2,75,0,1
158681,-71.4285714285714,4,2,6,75,0,1
158758,-71.4285714285714,4,2,2,75,0,1
158988,-90.9090909090909,4,2,6,75,0,1
159065,-90.9090909090909,4,2,2,75,0,1
159296,-90.9090909090909,4,2,6,75,0,1
159373,-90.9090909090909,4,2,2,75,0,1
159604,-90.9090909090909,4,2,6,75,0,1
159681,-90.9090909090909,4,2,2,75,0,1
159911,-125,4,2,6,75,0,1
159988,-125,4,2,2,75,0,1
160065,-55.5555555555556,4,2,2,75,0,1
160219,-55.5555555555556,4,2,6,75,0,1
160296,-55.5555555555556,4,2,2,75,0,1
160373,-66.6666666666667,4,2,2,75,0,1
160527,-66.6666666666667,4,2,3,75,0,1
160835,-83.3333333333333,4,2,6,75,0,1
160911,-83.3333333333333,4,2,2,75,0,1
161142,-55.5555555555556,4,2,6,75,0,1
161219,-55.5555555555556,4,2,2,75,0,1
161450,-55.5555555555556,4,2,6,75,0,1
161527,-55.5555555555556,4,2,2,75,0,1
161758,-83.3333333333333,4,2,6,75,0,1
161834,-83.3333333333333,4,2,2,75,0,1
162065,-100,4,2,6,75,0,1
162142,-100,4,2,2,75,0,1
162373,-100,4,2,6,75,0,1
162450,-100,4,2,2,75,0,1
162681,-100,4,2,6,75,0,1
162758,-100,4,2,2,75,0,1
162988,-76.9230769230769,4,2,3,75,0,1
163296,-76.9230769230769,4,2,5,75,0,1
164219,-83.3333333333333,4,2,2,75,0,1
164373,-83.3333333333333,4,2,1,75,0,1
164527,-83.3333333333333,4,2,2,75,0,1
165450,-71.4285714285714,4,2,3,75,0,1
165757,-71.4285714285714,4,2,6,75,0,1
165834,-71.4285714285714,4,2,2,75,0,1
166065,-71.4285714285714,4,2,6,75,0,1
166142,-71.4285714285714,4,2,2,75,0,1
166373,-71.4285714285714,4,2,6,75,0,1
166450,-71.4285714285714,4,2,2,75,0,1
166681,-90.9090909090909,4,2,6,75,0,1
166758,-90.9090909090909,4,2,2,75,0,1
166988,-90.9090909090909,4,2,6,75,0,1
167065,-90.9090909090909,4,2,2,75,0,1
167296,-90.9090909090909,4,2,6,75,0,1
167373,-90.9090909090909,4,2,2,75,0,1
167604,-76.9230769230769,4,2,6,75,0,1
167681,-76.9230769230769,4,2,2,75,0,1
167911,-90.9090909090909,4,2,3,75,0,1
168219,-90.9090909090909,4,2,2,75,0,1
168527,-90.9090909090909,4,2,6,75,0,1
168604,-90.9090909090909,4,2,2,75,0,1
168834,-90.9090909090909,4,2,6,75,0,1
168911,-90.9090909090909,4,2,2,75,0,1
169219,-90.9090909090909,4,2,1,75,0,1
169296,-90.9090909090909,4,2,2,75,0,1
169757,-90.9090909090909,4,2,1,75,0,1
169911,-90.9090909090909,4,2,2,75,0,1
170065,-90.9090909090909,4,2,3,75,0,1
170373,-76.9230769230769,4,2,2,75,0,1
170834,-76.9230769230769,4,2,5,75,0,1
171296,-76.9230769230769,4,2,3,75,0,1
171604,-76.9230769230769,4,2,2,75,0,1
172065,-76.9230769230769,4,2,5,75,0,1
172834,-76.9230769230769,4,2,2,75,0,1
174065,-76.9230769230769,4,2,3,75,0,1
174834,-76.9230769230769,4,2,1,75,0,1
174988,-76.9230769230769,4,2,2,75,0,1
175142,-76.9230769230769,4,2,3,75,0,1
175296,-83.3333333333333,4,2,1,70,0,0
175373,-83.3333333333333,4,2,2,70,0,0
175604,-111.111111111111,4,2,6,70,0,0
175681,-111.111111111111,4,2,2,70,0,0
175911,-111.111111111111,4,2,6,70,0,0
175988,-111.111111111111,4,2,2,70,0,0
176219,-111.111111111111,4,2,6,70,0,0
176296,-111.111111111111,4,2,2,70,0,0
176527,-111.111111111111,4,2,6,70,0,0
176604,-111.111111111111,4,2,2,70,0,0
176834,-111.111111111111,4,2,6,70,0,0
176911,-111.111111111111,4,2,2,70,0,0
177142,-111.111111111111,4,2,6,70,0,0
177219,-111.111111111111,4,2,2,70,0,0
177450,-111.111111111111,4,2,6,70,0,0
177527,-111.111111111111,4,2,2,70,0,0
177757,-111.111111111111,4,2,3,70,0,0
178065,-111.111111111111,4,2,6,70,0,0
178142,-111.111111111111,4,2,2,70,0,0
178373,-111.111111111111,4,2,6,70,0,0
178450,-111.111111111111,4,2,2,70,0,0
178681,-111.111111111111,4,2,6,70,0,0
178758,-111.111111111111,4,2,2,70,0,0
178988,-111.111111111111,4,2,6,70,0,0
179065,-111.111111111111,4,2,2,70,0,0
179296,-111.111111111111,4,2,6,70,0,0
179373,-111.111111111111,4,2,2,70,0,0
179604,-125,4,2,6,70,0,0
179681,-166.666666666667,4,2,2,70,0,0
179911,-83.3333333333333,4,2,6,70,0,0
179988,-83.3333333333333,4,2,2,70,0,0
180219,-111.111111111111,4,2,3,70,0,0
180527,-111.111111111111,4,2,6,70,0,0
180604,-111.111111111111,4,2,2,70,0,0
180834,-111.111111111111,4,2,6,70,0,0
180911,-111.111111111111,4,2,2,70,0,0
181142,-111.111111111111,4,2,6,70,0,0
181219,-111.111111111111,4,2,2,70,0,0
181450,-111.111111111111,4,2,6,70,0,0
181527,-111.111111111111,4,2,2,70,0,0
181757,-111.111111111111,4,2,6,70,0,0
181834,-111.111111111111,4,2,2,70,0,0
182065,-111.111111111111,4,2,6,70,0,0
182142,-111.111111111111,4,2,2,70,0,0
182373,-111.111111111111,4,2,5,70,0,0
182681,-83.3333333333333,4,2,3,70,0,0
183142,-83.3333333333333,4,2,1,70,0,0
183296,-83.3333333333333,4,2,3,70,0,0
184834,-66.6666666666667,4,2,3,70,0,0
185142,-83.3333333333333,4,2,3,70,0,0
185450,-83.3333333333333,4,2,6,70,0,0
185527,-83.3333333333333,4,2,2,70,0,0
185757,-83.3333333333333,4,2,6,70,0,0
185834,-83.3333333333333,4,2,2,70,0,0
186065,-83.3333333333333,4,2,6,70,0,0
186142,-83.3333333333333,4,2,2,70,0,0
186373,-83.3333333333333,4,2,6,70,0,0
186450,-83.3333333333333,4,2,2,70,0,0
186681,-83.3333333333333,4,2,6,70,0,0
186758,-83.3333333333333,4,2,2,70,0,0
186988,-83.3333333333333,4,2,6,70,0,0
187065,-83.3333333333333,4,2,2,70,0,0
187296,-83.3333333333333,4,2,6,70,0,0
187373,-83.3333333333333,4,2,2,70,0,0
187604,-83.3333333333333,4,2,6,70,0,0
187681,-83.3333333333333,4,2,2,70,0,0
187911,-83.3333333333333,4,2,6,70,0,0
187988,-83.3333333333333,4,2,2,70,0,0
188219,-83.3333333333333,4,2,6,70,0,0
188296,-83.3333333333333,4,2,2,70,0,0
188527,-83.3333333333333,4,2,6,70,0,0
188604,-83.3333333333333,4,2,2,70,0,0
188834,-83.3333333333333,4,2,6,70,0,0
188911,-83.3333333333333,4,2,2,70,0,0
189142,-83.3333333333333,4,2,6,70,0,0
189219,-83.3333333333333,4,2,2,70,0,0
189450,-83.3333333333333,4,2,6,70,0,0
189527,-83.3333333333333,4,2,2,70,0,0
189757,-83.3333333333333,4,2,6,70,0,0
189834,-83.3333333333333,4,2,2,70,0,0
190527,-83.3333333333333,4,2,1,70,0,0
190681,-83.3333333333333,4,2,2,70,0,0
192527,-90.9090909090909,4,2,3,65,0,0
192834,-90.9090909090909,4,2,6,65,0,0
192911,-90.9090909090909,4,2,2,65,0,0
193142,-90.9090909090909,4,2,6,65,0,0
193219,-90.9090909090909,4,2,2,65,0,0
193450,-90.9090909090909,4,2,7,65,0,0
193527,-90.9090909090909,4,2,2,65,0,0
193757,-90.9090909090909,4,2,6,65,0,0
193834,-90.9090909090909,4,2,2,65,0,0
194065,-90.9090909090909,4,2,6,65,0,0
194142,-90.9090909090909,4,2,2,65,0,0
194373,-111.111111111111,4,2,6,65,0,0
194450,-111.111111111111,4,2,2,65,0,0
194681,-111.111111111111,4,2,6,65,0,0
194758,-111.111111111111,4,2,2,65,0,0
194988,-125,4,2,3,65,0,0
195296,-125,4,2,6,65,0,0
195373,-125,4,2,2,65,0,0
195604,-125,4,2,6,65,0,0
195681,-125,4,2,2,65,0,0
195911,-125,4,2,7,65,0,0
195988,-125,4,2,2,65,0,0
196219,-125,4,2,6,65,0,0
196296,-125,4,2,2,65,0,0
196527,-125,4,2,7,65,0,0
196604,-125,4,2,2,65,0,0
196834,-166.666666666667,4,2,2,65,0,0
197142,-166.666666666667,4,2,7,65,0,0
197219,-166.666666666667,4,2,2,65,0,0
197450,-83.3333333333333,4,2,2,70,0,0
197604,-83.3333333333333,4,2,2,50,0,0
197757,-83.3333333333333,4,2,2,53,0,0
197911,-83.3333333333333,4,2,2,56,0,0
198065,-83.3333333333333,4,2,2,59,0,0
198219,-83.3333333333333,4,2,2,61,0,0
198373,-83.3333333333333,4,2,2,64,0,0
198527,-83.3333333333333,4,2,2,67,0,0
198681,-83.3333333333333,4,2,2,70,0,0
199604,-83.3333333333333,4,2,3,70,0,0
199911,-83.3333333333333,4,2,2,60,0,0
200219,-83.3333333333333,4,2,9,60,0,0
200296,-83.3333333333333,4,2,2,60,0,0
200527,-83.3333333333333,4,2,9,60,0,0
200604,-83.3333333333333,4,2,2,60,0,0
200834,-83.3333333333333,4,2,9,60,0,0
200911,-83.3333333333333,4,2,2,60,0,0
201142,-83.3333333333333,4,2,9,60,0,0
201219,-83.3333333333333,4,2,2,60,0,0
201450,-83.3333333333333,4,2,8,60,0,0
201527,-83.3333333333333,4,2,2,60,0,0
201757,-83.3333333333333,4,2,9,60,0,0
201834,-83.3333333333333,4,2,2,60,0,0
202065,-83.3333333333333,4,2,9,60,0,0
202142,-83.3333333333333,4,2,2,60,0,0
202219,-83.3333333333333,4,2,9,60,0,0
202296,-83.3333333333333,4,2,2,60,0,0
202373,-83.3333333333333,4,2,9,60,0,0
202450,-83.3333333333333,4,2,2,60,0,0
202681,-83.3333333333333,4,2,9,60,0,0
202758,-83.3333333333333,4,2,2,60,0,0
202988,-83.3333333333333,4,2,9,60,0,0
203065,-83.3333333333333,4,2,2,60,0,0
203296,-83.3333333333333,4,2,9,60,0,0
203373,-83.3333333333333,4,2,2,60,0,0
203604,-83.3333333333333,4,2,9,60,0,0
203681,-83.3333333333333,4,2,2,60,0,0
203911,-83.3333333333333,4,2,9,60,0,0
203988,-83.3333333333333,4,2,2,60,0,0
204065,-83.3333333333333,4,2,12,60,0,0
204142,-83.3333333333333,4,2,2,60,0,0
204219,-83.3333333333333,4,2,9,60,0,0
204296,-83.3333333333333,4,2,2,60,0,0
204373,-83.3333333333333,4,2,12,60,0,0
204450,-83.3333333333333,4,2,2,60,0,0
204527,-83.3333333333333,4,2,9,60,0,0
204604,-83.3333333333333,4,2,2,60,0,0
204834,-83.3333333333333,4,2,8,60,0,0
204911,-83.3333333333333,4,2,2,60,0,0
205142,-83.3333333333333,4,2,9,60,0,0
205219,-83.3333333333333,4,2,2,60,0,0
205450,-83.3333333333333,4,2,8,60,0,0
205527,-83.3333333333333,4,2,2,60,0,0
205757,-83.3333333333333,4,2,9,60,0,0
205834,-83.3333333333333,4,2,2,60,0,0
206065,-166.666666666667,4,2,6,60,0,0
206142,-166.666666666667,4,2,2,60,0,0
206527,-166.666666666667,4,2,12,60,0,0
206604,-166.666666666667,4,2,2,60,0,0
207142,-66.6666666666667,4,2,3,60,0,0
207296,-1000,4,2,2,65,0,0
208219,-1000,4,2,6,60,0,0
208296,-1000,4,2,2,60,0,0
208527,-83.3333333333333,4,2,2,70,0,0
208681,-71.4285714285714,4,2,2,70,0,0
209758,-500,4,2,2,50,0,0
210065,-66.6666666666667,4,2,2,75,0,1
210373,-83.3333333333333,4,2,2,75,0,0
212219,-76.9230769230769,4,2,1,80,0,1
212296,-90.9090909090909,4,2,2,80,0,1
212527,-90.9090909090909,4,2,6,80,0,1
212604,-90.9090909090909,4,2,2,80,0,1
212834,-90.9090909090909,4,2,6,80,0,1
212911,-90.9090909090909,4,2,2,80,0,1
213142,-90.9090909090909,4,2,6,80,0,1
213219,-90.9090909090909,4,2,2,80,0,1
213450,-90.9090909090909,4,2,6,80,0,1
213527,-90.9090909090909,4,2,2,80,0,1
213757,-90.9090909090909,4,2,6,80,0,1
213834,-90.9090909090909,4,2,2,80,0,1
214065,-90.9090909090909,4,2,6,80,0,1
214142,-90.9090909090909,4,2,2,80,0,1
214373,-90.9090909090909,4,2,6,80,0,1
214450,-90.9090909090909,4,2,2,80,0,1
214681,-166.666666666667,4,2,3,80,0,1
214988,-83.3333333333333,4,2,6,80,0,1
215065,-83.3333333333333,4,2,2,80,0,1
215296,-90.9090909090909,4,2,6,80,0,1
215373,-90.9090909090909,4,2,2,80,0,1
215603,-90.9090909090909,4,2,6,80,0,1
215680,-90.9090909090909,4,2,2,80,0,1
215911,-90.9090909090909,4,2,3,80,0,1
216219,-90.9090909090909,4,2,6,80,0,1
216296,-90.9090909090909,4,2,2,80,0,1
216527,-90.9090909090909,4,2,6,80,0,1
216604,-90.9090909090909,4,2,2,80,0,1
216834,-90.9090909090909,4,2,6,80,0,1
216911,-90.9090909090909,4,2,2,80,0,1
217142,-90.9090909090909,4,2,3,80,0,1
217450,-90.9090909090909,4,2,5,80,0,1
218373,-90.9090909090909,4,2,3,80,0,1
219603,-90.9090909090909,4,2,2,80,0,1
219911,-90.9090909090909,4,2,6,80,0,1
219988,-90.9090909090909,4,2,2,80,0,1
220219,-90.9090909090909,4,2,6,80,0,1
220296,-90.9090909090909,4,2,2,80,0,1
220527,-90.9090909090909,4,2,6,80,0,1
220604,-90.9090909090909,4,2,2,80,0,1
220834,-90.9090909090909,4,2,6,80,0,1
220911,-90.9090909090909,4,2,2,80,0,1
221142,-90.9090909090909,4,2,6,80,0,1
221219,-90.9090909090909,4,2,2,80,0,1
221450,-90.9090909090909,4,2,6,80,0,1
221527,-90.9090909090909,4,2,2,80,0,1
221757,-90.9090909090909,4,2,6,80,0,1
221834,-90.9090909090909,4,2,2,80,0,1
222065,-90.9090909090909,4,2,6,80,0,1
222142,-90.9090909090909,4,2,2,80,0,1
222373,-90.9090909090909,4,2,6,80,0,1
222450,-90.9090909090909,4,2,2,80,0,1
222680,-90.9090909090909,4,2,6,80,0,1
222757,-90.9090909090909,4,2,2,80,0,1
222988,-90.9090909090909,4,2,6,80,0,1
223065,-90.9090909090909,4,2,2,80,0,1
223296,-90.9090909090909,4,2,6,80,0,1
223373,-90.9090909090909,4,2,2,80,0,1
223603,-90.9090909090909,4,2,6,80,0,1
223680,-90.9090909090909,4,2,2,80,0,1
223911,-90.9090909090909,4,2,6,80,0,1
223988,-90.9090909090909,4,2,2,80,0,1
224219,-90.9090909090909,4,2,6,80,0,1
224296,-90.9090909090909,4,2,2,80,0,1
224527,-90.9090909090909,4,2,3,80,0,1
224834,-66.6666666666667,4,2,2,80,0,1
224988,-66.6666666666667,4,2,1,80,0,1
225142,-90.9090909090909,4,2,2,80,0,1
225450,-90.9090909090909,4,2,5,80,0,1
225757,-90.9090909090909,4,2,3,80,0,1
226219,-90.9090909090909,4,2,1,80,0,1
226373,-90.9090909090909,4,2,2,80,0,1
226988,-90.9090909090909,4,2,5,80,0,1
227834,-90.9090909090909,4,2,2,80,0,1
228219,-66.6666666666667,4,2,2,80,0,1
228988,-66.6666666666667,4,2,1,80,0,1
229142,-66.6666666666667,4,2,2,80,0,1
229296,-66.6666666666667,4,2,3,80,0,1
229450,-76.9230769230769,4,2,2,80,0,1
229911,-76.9230769230769,4,2,5,80,0,1
230373,-76.9230769230769,4,2,3,80,0,1
230680,-76.9230769230769,4,2,2,80,0,1
231142,-76.9230769230769,4,2,3,80,0,1
231603,-76.9230769230769,4,2,2,80,0,1
231911,-76.9230769230769,4,2,3,80,0,1
232065,-76.9230769230769,4,2,1,80,0,1
232219,-76.9230769230769,4,2,2,80,0,1
232834,-76.9230769230769,4,2,5,80,0,1
233142,-76.9230769230769,4,2,3,80,0,1
233219,-76.9230769230769,4,2,2,80,0,1
233296,-76.9230769230769,4,2,3,80,0,1
233681,-76.9230769230769,4,2,2,80,0,1
233757,-76.9230769230769,4,2,3,80,0,1
234065,-76.9230769230769,4,2,5,80,0,1
234373,-90.9090909090909,4,2,3,80,0,1
234681,-90.9090909090909,4,2,6,80,0,1
234758,-90.9090909090909,4,2,2,80,0,1
234988,-90.9090909090909,4,2,6,80,0,1
235065,-90.9090909090909,4,2,2,80,0,1
235296,-90.9090909090909,4,2,6,80,0,1
235373,-90.9090909090909,4,2,2,80,0,1
235604,-90.9090909090909,4,2,6,80,0,1
235681,-90.9090909090909,4,2,2,80,0,1
235911,-90.9090909090909,4,2,6,80,0,1
235988,-90.9090909090909,4,2,2,80,0,1
236219,-90.9090909090909,4,2,6,80,0,1
236296,-90.9090909090909,4,2,2,80,0,1
236527,-90.9090909090909,4,2,6,80,0,1
236604,-90.9090909090909,4,2,2,80,0,1
236834,-90.9090909090909,4,2,3,80,0,1
237142,-90.9090909090909,4,2,6,80,0,1
237219,-90.9090909090909,4,2,2,80,0,1
237450,-90.9090909090909,4,2,7,80,0,1
237527,-90.9090909090909,4,2,2,80,0,1
237757,-71.4285714285714,4,2,5,80,0,1
238065,-90.9090909090909,4,2,2,80,0,1
238373,-90.9090909090909,4,2,5,80,0,1
239296,-71.4285714285714,4,2,3,80,0,1
240527,-71.4285714285714,4,2,2,80,0,1
240681,-71.4285714285714,4,2,2,50,0,1
240834,-71.4285714285714,4,2,2,54,0,1
240988,-71.4285714285714,4,2,2,59,0,1
241142,-71.4285714285714,4,2,2,63,0,1
241296,-71.4285714285714,4,2,2,67,0,1
241450,-71.4285714285714,4,2,2,71,0,1
241604,-71.4285714285714,4,2,2,76,0,1
241757,-71.4285714285714,4,2,2,80,0,1
242681,-90.9090909090909,4,2,2,80,0,1
242988,-83.3333333333333,4,2,4,80,0,0
243296,-83.3333333333333,4,2,2,50,0,0
244219,-83.3333333333333,4,2,2,70,0,0
244373,-83.3333333333333,4,2,12,70,0,0
244450,-83.3333333333333,4,2,2,70,0,0
245296,-250,4,2,12,70,0,0
245373,-250,4,2,2,70,0,0
246527,-250,4,2,1,70,0,0

[Colours]
Combo1 : 202,179,182
Combo2 : 149,165,242
Combo3 : 242,83,87

[HitObjects]
203,97,834,6,0,P|208:127|212:157,1,45,14|8,0:1|0:0,0:0:0:0:
119,275,988,1,8,0:0:0:0:
144,309,1065,1,8,0:0:0:0:
184,325,1142,1,8,0:0:0:0:
226,319,1219,1,8,0:0:0:0:
258,290,1296,6,0,P|263:261|271:220,1,53.9999983520508,14|8,0:1|0:0,0:0:0:0:
387,332,1450,1,8,0:0:0:0:
387,332,1527,1,8,0:0:0:0:
387,332,1604,2,0,P|395:372|400:403,1,53.9999983520508,8|8,0:0|0:0,0:0:0:0:
460,219,1758,6,0,P|486:226|522:234,1,53.9999983520508,14|8,0:1|0:0,0:0:0:0:
512,80,1911,1,8,0:0:0:0:
471,96,1988,1,8,0:0:0:0:
427,92,2065,1,8,0:0:0:0:
395,62,2142,1,8,0:0:0:0:
384,20,2219,5,14,0:1:0:0:
413,51,2296,1,8,0:0:0:0:
409,94,2373,1,8,0:0:0:0:
380,126,2450,1,8,0:0:0:0:
355,161,2527,1,8,0:0:0:0:
357,204,2604,1,8,0:0:0:0:
380,240,2681,6,0,P|376:214|370:171,1,53.9999983520508,14|8,0:1|0:0,0:0:0:0:
239,94,2834,2,0,P|242:120|246:147,1,53.9999983520508,8|8,0:0|0:0,0:0:0:0:
130,238,2988,5,14,0:1:0:0:
114,235,3065,1,8,0:0:0:0:
98,232,3142,1,8,0:0:0:0:
82,229,3219,1,8,0:0:0:0:
66,226,3296,5,14,0:1:0:0:
103,265,3373,1,8,0:0:0:0:
156,273,3450,1,8,0:0:0:0:
198,238,3527,1,8,0:0:0:0:
230,194,3604,1,8,0:0:0:0:
283,184,3681,1,8,0:0:0:0:
336,219,3758,6,0,P|308:213|280:209,1,53.9999983520508,14|8,0:1|0:0,0:0:0:0:
190,58,3911,1,8,0:0:0:0:
190,58,3988,1,8,0:0:0:0:
190,58,4065,2,0,P|195:33|207:-1,1,53.9999983520508,8|8,0:0|0:0,0:0:0:0:
0,128,4219,5,14,0:1:0:0:
32,99,4296,1,8,0:0:0:0:
74,92,4373,1,8,0:0:0:0:
113,110,4450,1,8,0:0:0:0:
133,148,4527,2,0,P|110:143|69:132,1,53.9999983520508,8|8,0:0|0:0,0:0:0:0:
0,265,4681,6,0,P|31:253|66:242,1,53.9999983520508,14|8,0:1|0:0,0:0:0:0:
115,384,4835,1,8,0:0:0:0:
115,384,4911,1,8,0:0:0:0:
115,384,4988,2,0,P|121:356|132:315,1,53.9999983520508,8|8,0:0|0:0,0:0:0:0:
383,257,5142,5,14,0:1:0:0:
346,289,5219,1,8,0:0:0:0:
297,295,5296,1,8,0:0:0:0:
253,272,5373,1,8,0:0:0:0:
229,228,5450,5,10,0:3:0:0:
223,247,5527,1,8,0:3:0:0:
217,266,5604,1,8,0:3:0:0:
211,285,5681,1,8,0:3:0:0:
205,304,5758,5,14,0:1:0:0:
247,270,5835,1,8,0:0:0:0:
300,266,5911,1,8,0:0:0:0:
340,301,5988,1,8,0:0:0:0:
366,348,6065,1,8,0:0:0:0:
417,365,6142,1,8,0:0:0:0:
469,350,6219,6,0,P|440:347|396:337,1,53.9999983520508,14|8,0:1|0:0,0:0:0:0:
502,194,6373,1,8,0:0:0:0:
502,194,6450,1,8,0:0:0:0:
502,194,6527,2,0,P|508:227|514:254,1,53.9999983520508,8|8,0:0|0:0,0:0:0:0:
386,189,6681,5,14,0:1:0:0:
359,154,6758,1,8,0:0:0:0:
353,111,6835,1,8,0:0:0:0:
370,72,6911,1,8,0:0:0:0:
406,49,6988,1,8,0:0:0:0:
448,44,7065,1,8,0:0:0:0:
486,62,7142,5,14,0:1:0:0:
444,87,7219,1,8,0:0:0:0:
395,85,7296,1,8,0:0:0:0:
356,54,7373,1,8,0:0:0:0:
324,16,7450,1,8,0:0:0:0:
275,10,7527,1,8,0:0:0:0:
232,33,7604,6,0,P|260:38|289:44,1,53.9999983520508,14|8,0:1|0:0,0:0:0:0:
192,245,7758,1,8,0:0:0:0:
192,245,7835,1,8,0:0:0:0:
192,245,7911,2,0,P|164:236|126:225,1,53.9999983520508,14|8,0:1|0:0,0:0:0:0:
61,171,8065,2,0,P|33:181|4:187,1,53.9999983520508,8|8,0:0|0:0,0:0:0:0:
194,72,8219,5,14,0:1:0:0:
194,72,8527,5,10,0:0:0:0:
455,308,8681,1,10,0:0:0:0:
362,17,8835,5,10,0:0:0:0:
286,361,8988,1,10,0:0:0:0:
493,135,9142,5,10,0:0:0:0:
156,242,9296,1,10,0:0:0:0:
512,229,9450,5,10,0:0:0:0:
471,255,9527,1,8,0:0:0:0:
420,254,9604,1,8,0:0:0:0:
381,224,9681,1,8,0:0:0:0:
366,177,9758,1,10,0:0:0:0:
341,135,9835,1,8,0:0:0:0:
296,116,9911,1,10,0:0:0:0:
247,116,9988,1,8,0:0:0:0:
210,148,10065,5,10,0:0:0:0:
266,165,10142,1,8,0:0:0:0:
320,141,10219,1,10,0:0:0:0:
341,79,10296,1,8,0:0:0:0:
311,19,10373,2,0,P|284:10|243:-6,1,53.9999983520508,10|0,0:0|0:0,0:0:0:0:
476,109,10527,1,10,0:1:0:0:
355,294,12373,5,10,0:1:0:0:
355,294,12450,1,8,0:1:0:0:
355,294,12527,1,10,0:0:0:0:
170,366,12681,1,10,0:1:0:0:
170,366,12988,1,8,0:0:0:0:
170,366,13065,1,8,0:0:0:0:
170,366,13142,6,0,P|175:310|185:241,1,121.499996292114,14|0,0:1|0:0,0:0:0:0:
117,190,13450,2,0,B|59:204|92:209|32:224,1,80.9999975280763,10|8,0:0|0:1,0:0:0:0:
301,118,13758,2,0,B|281:80|281:80|287:36,1,80.9999975280763,10|8,0:1|0:1,0:0:0:0:
408,210,14065,6,0,P|403:233|400:259,1,40.4999987640381,10|0,0:0|0:0,0:0:0:0:
512,197,14219,2,0,P|476:178|436:178,1,80.9999975280763,10|8,0:1|0:1,0:0:0:0:
251,280,14527,5,8,0:1:0:0:
447,362,14681,1,10,0:0:0:0:
312,330,14835,1,8,0:1:0:0:
389,299,14988,1,10,0:1:0:0:
332,185,15142,5,10,0:1:0:0:
201,375,15296,1,8,0:0:0:0:
28,286,15450,6,0,P|52:281|81:276,1,40.4999987640381,10|0,0:1|0:0,0:0:0:0:
152,307,15604,2,0,B|157:268|157:268|139:222,1,80.9999975280763,10|8,0:1|0:1,0:0:0:0:
245,17,15911,5,10,0:0:0:0:
221,170,16065,1,8,0:1:0:0:
81,54,16219,6,0,P|126:62|172:69,1,80.9999975280763,10|8,0:1|0:1,0:0:0:0:
461,140,16527,2,0,P|400:144|346:170,1,121.499996292114,10|0,0:0|0:0,0:0:0:0:
328,194,16835,5,10,0:1:0:0:
387,262,16988,1,8,0:1:0:0:
218,144,17142,5,8,0:0:0:0:
262,309,17296,1,10,0:1:0:0:
303,226,17450,5,10,0:1:0:0:
185,260,17604,1,8,0:1:0:0:
337,111,17758,5,8,0:0:0:0:
139,2,17911,1,8,0:0:0:0:
139,2,17988,1,8,0:0:0:0:
139,2,18065,2,0,P|149:54|155:95,1,80.9999975280763,14|8,0:1|0:1,0:0:0:0:
90,299,18373,5,10,0:0:0:0:
112,183,18527,1,8,0:1:0:0:
10,269,18681,5,10,0:1:0:0:
199,211,18835,1,8,0:1:0:0:
91,154,18988,5,10,0:0:0:0:
322,288,19142,1,8,0:1:0:0:
283,212,19296,5,10,0:1:0:0:
252,346,19450,1,8,0:1:0:0:
374,168,19604,5,8,0:0:0:0:
197,272,19758,1,8,0:1:0:0:
428,384,19911,6,0,P|423:343|412:282,1,80.9999975280763,10|8,0:1|0:1,0:0:0:0:
224,56,20219,2,0,P|229:97|240:158,1,80.9999975280763,10|8,0:0|0:1,0:0:0:0:
498,150,20527,5,14,0:1:0:0:
439,267,20681,1,8,0:1:0:0:
383,126,20835,5,10,0:0:0:0:
423,287,20988,1,8,0:1:0:0:
360,116,21142,5,10,0:0:0:0:
280,323,21296,1,8,0:1:0:0:
166,71,21450,5,10,0:0:0:0:
255,333,21604,1,0,0:0:0:0:
302,99,21758,5,10,0:1:0:0:
115,306,21911,1,8,0:1:0:0:
346,230,22065,5,14,0:0:0:0:
73,174,22219,1,8,0:1:0:0:
323,384,22373,6,0,P|345:378|373:374,1,40.4999987640381,14|0,0:0|0:0,0:0:0:0:
186,285,22527,2,0,P|164:291|136:295,1,40.4999987640381,8|8,0:0|0:0,0:0:0:0:
265,214,22681,5,10,0:0:0:0:
274,191,22758,1,8,0:0:0:0:
273,166,22835,1,8,0:3:0:0:
263,144,22911,1,8,0:3:0:0:
244,128,22988,6,0,B|185:135|220:141|158:155,1,80.9999975280763,14|8,0:1|0:1,0:0:0:0:
343,65,23296,2,0,B|404:51|404:51|463:83,1,121.499996292114,10|0,0:0|0:0,0:0:0:0:
476,98,23604,5,10,0:1:0:0:
366,281,23758,1,8,0:1:0:0:
304,188,23911,5,10,0:0:0:0:
473,304,24065,1,10,0:1:0:0:
473,304,24142,1,8,0:1:0:0:
473,304,24219,1,8,0:1:0:0:
318,379,24373,5,8,0:1:0:0:
482,205,24527,2,0,P|490:255|496:290,1,80.9999975280763,10|8,0:0|0:1,0:0:0:0:
282,175,24835,5,10,0:1:0:0:
401,256,24988,1,10,0:1:0:0:
380,154,25142,5,10,0:0:0:0:
262,302,25296,1,10,0:1:0:0:
262,302,25373,1,8,0:1:0:0:
262,302,25450,2,0,P|219:290|172:285,1,80.9999975280763,10|8,0:1|0:1,0:0:0:0:
99,368,25758,5,10,0:0:0:0:
195,124,25911,2,0,B|178:165|178:165|184:207,1,80.9999975280763,10|8,0:1|0:1,0:0:0:0:
282,175,26219,5,10,0:1:0:0:
96,66,26373,1,8,0:0:0:0:
18,185,26527,1,10,0:1:0:0:
18,185,26604,1,8,0:1:0:0:
18,184,26681,2,0,P|58:180|95:196,1,80.9999975280763,10|8,0:1|0:1,0:0:0:0:
264,265,26988,5,10,0:0:0:0:
167,384,27142,1,8,0:1:0:0:
167,384,27219,1,8,0:1:0:0:
167,384,27296,2,0,L|175:296,1,80.9999975280763,10|8,0:1|0:1,0:0:0:0:
338,167,27604,1,10,0:0:0:0:
272,86,27758,5,8,0:0:0:0:
272,86,27835,1,8,0:0:0:0:
272,86,27911,2,0,P|339:128|417:116,1,161.999995056153,14|8,0:1|0:1,0:0:0:0:
512,269,28373,5,10,0:0:0:0:
512,269,28450,1,8,0:0:0:0:
512,269,28527,2,0,B|405:277|470:301|355:316,1,161.999995056153,14|8,0:1|0:1,0:0:0:0:
229,380,28988,5,10,0:0:0:0:
236,368,29065,1,8,0:0:0:0:
243,356,29142,2,0,P|240:335|235:303,1,40.4999987640381,14|0,0:1|0:0,0:0:0:0:
137,212,29296,5,8,0:0:0:0:
171,233,29373,1,8,0:0:0:0:
211,234,29450,1,10,0:0:0:0:
240,206,29527,1,8,0:0:0:0:
267,176,29604,1,8,0:1:0:0:
307,171,29681,1,8,0:1:0:0:
342,189,29758,1,10,0:0:0:0:
103,140,29911,5,10,0:1:0:0:
229,380,30065,1,10,0:0:0:0:
390,244,30219,6,0,B|344:250|281:212|327:200|277:162|212:166,1,202.500007724762,14|0,0:1|0:0,0:0:0:0:
213,165,30527,6,0,P|223:207|230:244,1,58.4999973220826,10|0,0:0|0:0,0:0:0:0:
432,154,30681,6,0,P|462:144|490:122,1,58.4999973220826,10|0,0:0|0:0,0:0:0:0:
379,353,30835,2,0,P|407:359|433:372,1,58.4999973220826,8|8,0:1|0:1,0:0:0:0:
261,269,30988,5,10,0:0:0:0:
232,275,31065,1,8,0:0:0:0:
202,271,31142,1,10,0:3:0:0:
177,255,31219,1,8,0:3:0:0:
159,231,31296,2,0,P|164:268|168:305,1,58.4999973220826,10|8,0:3|0:3,0:0:0:0:
219,384,31450,6,0,B|251:318|216:266|211:306|171:255|201:194,1,202.500007724762,14|0,0:1|0:0,0:0:0:0:
276,10,31758,2,0,P|272:46|269:77,1,58.4999973220826,10|8,0:3|0:3,0:0:0:0:
0,114,31911,5,10,0:3:0:0:
31,99,31988,1,8,0:3:0:0:
66,97,32065,1,8,0:1:0:0:
99,108,32142,1,8,0:1:0:0:
120,136,32219,1,10,0:0:0:0:
109,216,32527,6,0,P|113:180|121:130,1,80.9999975280763,2|0,0:0|0:0,0:0:0:0:
154,0,32835,6,0,P|161:38|166:72,1,53.9999983520508,14|0,0:1|0:0,0:0:0:0:
339,99,33450,6,0,P|331:137|327:171,1,53.9999983520508,14|0,0:0|0:0,0:0:0:0:
117,281,34065,6,0,P|138:297|164:303,1,53.9999983520508,12|0,0:1|0:0,0:0:0:0:
334,380,34681,6,0,P|358:366|383:362,1,53.9999983520508,12|0,0:0|0:0,0:0:0:0:
498,241,35296,6,0,P|469:233|416:222,1,53.9999983520508,14|0,0:1|0:0,0:0:0:0:
318,104,35911,6,0,P|289:112|236:123,1,53.9999983520508,14|0,0:0|0:0,0:0:0:0:
209,289,36527,6,0,P|180:281|127:270,1,53.9999983520508,14|0,0:1|0:0,0:0:0:0:
90,130,36988,5,10,0:1:0:0:
0,222,37142,2,0,P|32:212|94:199,1,53.9999983520508,14|0,0:0|0:0,0:0:0:0:
195,244,37296,1,8,0:1:0:0:
195,244,37373,1,8,0:1:0:0:
195,244,37450,6,0,P|116:252|51:207,1,161.999995056153,12|0,0:0|0:0,0:0:0:0:
177,145,37758,5,14,0:1:0:0:
210,127,37835,1,8,0:0:0:0:
247,126,37911,1,10,0:0:0:0:
276,147,37988,1,8,0:0:0:0:
296,179,38065,1,10,0:0:0:0:
311,213,38142,1,8,0:0:0:0:
333,243,38219,1,10,0:0:0:0:
366,261,38296,1,8,0:0:0:0:
403,264,38373,1,10,0:0:0:0:
440,256,38450,1,8,0:0:0:0:
465,227,38527,2,0,P|431:222|404:217,1,49.5000015106202,8|8,0:0|0:0,0:0:0:0:
465,130,38681,6,0,P|491:123|521:114,1,49.5000015106202,10|8,0:0|0:0,0:0:0:0:
353,0,38835,1,10,0:0:0:0:
353,0,38911,1,8,0:0:0:0:
353,0,38988,6,0,P|345:39|341:82,1,49.5000015106202,12|8,0:1|0:0,0:0:0:0:
255,134,39142,1,10,0:0:0:0:
227,175,39219,1,8,0:0:0:0:
231,224,39296,1,10,0:0:0:0:
268,256,39373,1,8,0:0:0:0:
314,274,39450,1,8,0:0:0:0:
341,315,39527,1,8,0:0:0:0:
330,363,39604,5,8,0:0:0:0:
322,344,39681,1,8,0:0:0:0:
323,324,39758,1,8,0:3:0:0:
330,305,39835,1,8,0:3:0:0:
343,290,39911,1,10,0:3:0:0:
360,281,39988,1,8,0:3:0:0:
379,279,40065,1,10,0:3:0:0:
398,282,40142,1,8,0:3:0:0:
415,290,40219,6,0,P|422:325|428:353,1,49.5000015106202,14|0,0:1|0:0,0:0:0:0:
512,200,40373,1,8,0:0:0:0:
512,200,40450,1,8,0:0:0:0:
512,200,40527,2,0,P|486:194|454:191,1,49.5000015106202,10|0,0:0|0:0,0:0:0:0:
330,126,40681,2,0,P|306:133|281:136,1,49.5000015106202,8|0,0:3|0:0,0:0:0:0:
161,230,40835,5,10,0:0:0:0:
120,257,40911,1,8,0:0:0:0:
70,252,40988,1,8,0:0:0:0:
32,219,41065,1,8,0:0:0:0:
21,170,41142,2,0,P|27:144|35:105,1,49.5000015106202,10|0,0:0|0:0,0:0:0:0:
210,0,41296,5,8,0:0:0:0:
210,0,41373,1,8,0:0:0:0:
210,0,41450,2,0,P|215:37|218:74,1,49.5000015106202,14|0,0:1|0:0,0:0:0:0:
340,179,41604,5,8,0:0:0:0:
340,179,41681,1,8,0:0:0:0:
340,179,41758,2,0,P|335:216|332:253,1,49.5000015106202,8|0,0:1|0:0,0:0:0:0:
194,379,41911,5,8,0:0:0:0:
194,379,41988,1,8,0:0:0:0:
194,379,42065,1,10,0:0:0:0:
377,308,42219,1,8,0:3:0:0:
144,197,42373,5,10,0:3:0:0:
352,299,42527,1,8,0:3:0:0:
272,338,42681,6,0,P|262:257|252:155,1,175.499991966248,14|0,0:1|0:0,0:0:0:0:
250,144,42988,1,10,0:1:0:0:
345,186,43142,1,10,0:1:0:0:
183,36,43296,6,0,P|98:30|40:92,1,175.499991966248,10|0,0:0|0:0,0:0:0:0:
39,109,43604,1,10,0:0:0:0:
201,224,43758,1,14,0:1:0:0:
214,234,44065,6,0,B|170:224|170:224|131:245,1,90,14|2,0:1|0:0,0:0:0:0:
267,384,44373,1,8,0:1:0:0:
267,384,44450,1,8,0:1:0:0:
267,384,44527,2,0,P|263:354|256:320,1,45,10|0,0:0|0:0,0:0:0:0:
327,106,44681,2,0,P|331:154|340:194,1,90,8|2,0:0|0:3,0:0:0:0:
340,194,44988,1,8,0:0:0:0:
505,240,45142,6,0,B|395:250|455:267|347:291,1,161.999995056153,14|0,0:1|0:0,0:0:0:0:
352,289,45450,6,0,P|358:316|361:348,1,36,8|0,0:1|0:0,0:0:0:0:
267,384,45604,2,0,P|264:366|259:348,1,36,10|0,0:1|0:0,0:0:0:0:
182,139,45758,5,10,0:0:0:0:
341,195,45911,1,8,0:1:0:0:
141,283,46065,5,8,0:0:0:0:
407,137,46219,1,8,0:1:0:0:
198,0,46373,6,0,P|205:39|209:68,1,53.9999983520508,14|0,0:0|0:0,0:0:0:0:
90,177,46527,1,8,0:3:0:0:
81,163,46604,1,8,0:3:0:0:
66,154,46681,1,10,0:3:0:0:
50,150,46758,1,8,0:3:0:0:
33,150,46835,1,10,0:3:0:0:
17,154,46911,1,8,0:3:0:0:
3,162,46988,5,10,0:3:0:0:
44,187,47065,1,8,0:3:0:0:
92,184,47142,1,10,0:3:0:0:
127,150,47219,1,8,0:3:0:0:
155,110,47296,1,10,0:1:0:0:
203,103,47373,1,8,0:1:0:0:
242,126,47450,1,10,0:0:0:0:
77,0,47758,6,0,L|85:53,1,53.9999983520508,2|0,0:1|0:0,0:0:0:0:
72,12,47911,6,0,L|80:66,1,53.9999983520508,2|0,0:1|0:0,0:0:0:0:
406,241,48219,6,0,L|398:294,1,53.9999983520508,2|0,0:1|0:0,0:0:0:0:
411,254,48372,6,0,L|403:307,1,53.9999983520508,2|0,0:1|0:0,0:0:0:0:
156,220,48681,6,0,B|138:245|110:246|110:246|181:264|224:187,1,175.499991966248,14|0,0:1|0:0,0:0:0:0:
225,103,48988,6,0,B|299:23|262:-54|146:50|58:279|268:328|606:113|16:178|348:-179|770:171|459:272|411:237|385:219,1,607.500002317429,10|8,0:0|0:1,0:0:0:0:
366,294,49450,6,0,P|359:263|351:232,1,63,10|0,0:0|0:0,0:0:0:0:
351,232,50065,6,0,P|342:293|337:347,1,107.999996704102,14|8,0:1|0:1,0:0:0:0:
179,152,50373,1,10,0:0:0:0:
96,289,50527,5,8,0:1:0:0:
96,289,50604,1,8,0:0:0:0:
96,289,50681,1,10,0:1:0:0:
302,108,50835,1,8,0:1:0:0:
119,9,50988,5,10,0:0:0:0:
273,191,51142,1,0,0:0:0:0:
470,47,51296,6,0,P|391:36|332:77,1,148.50000453186,10|0,0:1|0:0,0:0:0:0:
421,146,51604,2,0,B|499:161|451:164|540:191,1,99.0000030212403,8|8,0:0|0:1,0:0:0:0:
201,315,51911,5,10,0:1:0:0:
338,244,52065,1,10,0:1:0:0:
121,191,52219,5,10,0:0:0:0:
303,335,52373,1,2,0:0:0:0:
54,384,52527,6,0,P|47:331|38:282,1,99.0000030212403,10|8,0:1|0:1,0:0:0:0:
351,8,52835,2,0,P|358:61|368:111,1,99.0000030212403,10|8,0:0|0:1,0:0:0:0:
205,290,53142,5,10,0:1:0:0:
323,193,53296,1,8,0:1:0:0:
323,193,53373,1,8,0:1:0:0:
323,193,53450,1,10,0:0:0:0:
192,115,53604,5,0,0:0:0:0:
356,344,53758,2,0,P|426:306|501:314,1,148.50000453186,10|0,0:1|0:0,0:0:0:0:
512,322,54065,5,10,0:0:0:0:
414,120,54219,1,8,0:1:0:0:
397,225,54373,5,10,0:1:0:0:
512,178,54527,1,10,0:1:0:0:
173,289,54681,5,10,0:0:0:0:
381,381,54835,1,0,0:0:0:0:
277,90,54988,6,0,P|284:134|290:172,1,80.9999975280763,14|0,0:1|0:0,0:0:0:0:
304,191,55296,6,0,B|329:77|280:155|320:5,1,161.999995056153,14|8,0:0|0:0,0:0:0:0:
321,15,55604,1,8,0:1:0:0:
407,95,55758,1,8,0:1:0:0:
131,143,55911,5,10,0:0:0:0:
338,44,56065,1,2,0:0:0:0:
276,230,56219,6,0,P|268:181|259:132,1,99.0000030212403,14|8,0:1|0:1,0:0:0:0:
23,330,56527,2,0,P|87:365|160:363,1,148.50000453186,14|8,0:0|0:0,0:0:0:0:
160,363,56835,6,0,L|144:275,1,49.5000015106202,10|0,0:1|0:0,0:0:0:0:
384,171,56988,2,0,B|364:222|364:222|376:271,1,99.0000030212403,10|8,0:1|0:0,0:0:0:0:
223,0,57296,1,2,0:0:0:0:
479,127,57450,6,0,P|403:134|326:150,1,148.50000453186,14|0,0:1|0:0,0:0:0:0:
244,208,57758,2,0,P|247:167|255:99,1,99.0000030212403,10|8,0:0|0:1,0:0:0:0:
344,370,58065,5,10,0:1:0:0:
162,266,58219,1,10,0:1:0:0:
384,114,58373,5,10,0:0:0:0:
171,285,58527,1,0,0:0:0:0:
29,123,58681,5,10,0:1:0:0:
53,160,58758,1,8,0:0:0:0:
93,177,58835,1,8,0:0:0:0:
136,174,58911,1,8,0:0:0:0:
168,143,58988,2,0,P|163:115|155:79,1,49.5000015106202,8|0,0:0|0:0,0:0:0:0:
340,0,59142,1,8,0:0:0:0:
340,0,59219,1,8,0:0:0:0:
340,0,59296,2,0,L|329:70,1,49.5000015106202,10|0,0:1|0:0,0:0:0:0:
283,119,59450,5,10,0:0:0:0:
316,91,59527,1,8,0:0:0:0:
360,93,59604,1,10,0:0:0:0:
396,118,59681,1,8,0:0:0:0:
419,156,59758,1,10,0:3:0:0:
461,169,59835,1,8,0:3:0:0:
500,150,59911,6,0,B|402:165|462:185|342:210,1,148.50000453186,14|0,0:1|0:0,0:0:0:0:
344,202,60219,1,10,0:0:0:0:
436,331,60373,1,8,0:1:0:0:
464,223,60527,5,10,0:1:0:0:
292,379,60681,1,8,0:1:0:0:
198,135,60835,5,10,0:0:0:0:
373,246,60988,1,0,0:0:0:0:
118,349,61142,6,0,B|126:284|135:323|141:238,1,99.0000030212403,10|8,0:1|0:1,0:0:0:0:
0,78,61450,2,0,P|48:80|92:58,1,99.0000030212403,8|8,0:0|0:1,0:0:0:0:
107,41,61681,1,8,0:0:0:0:
107,41,61758,1,10,0:1:0:0:
328,138,61911,1,8,0:1:0:0:
288,0,62065,5,10,0:0:0:0:
229,239,62219,1,2,0:0:0:0:
509,161,62373,6,0,B|464:170|464:170|414:150,1,99.0000030212403,10|8,0:1|0:1,0:0:0:0:
221,252,62681,2,0,P|274:250|318:232,1,99.0000030212403,10|8,0:0|0:1,0:0:0:0:
165,166,62988,5,10,0:1:0:0:
406,276,63142,1,8,0:1:0:0:
146,384,63296,2,0,P|139:338|130:283,1,99.0000030212403,10|0,0:0|0:0,0:0:0:0:
407,26,63604,6,0,P|414:72|423:127,1,99.0000030212403,10|8,0:1|0:1,0:0:0:0:
217,104,63911,1,10,0:0:0:0:
380,233,64065,1,8,0:1:0:0:
380,233,64142,1,8,0:0:0:0:
380,233,64219,1,10,0:1:0:0:
157,225,64373,5,10,0:1:0:0:
469,131,64527,1,10,0:0:0:0:
361,371,64681,1,0,0:0:0:0:
271,235,64835,5,14,0:1:0:0:
446,336,64988,1,8,0:1:0:0:
244,384,65142,6,0,P|248:329|264:197,1,135.000005149842,14|8,0:0|0:1,0:0:0:0:
355,200,65373,1,8,0:0:0:0:
355,200,65450,6,0,P|352:172|348:139,1,49.5000015106202,8|8,0:1|0:1,0:0:0:0:
289,39,65604,2,0,P|292:67|296:100,1,49.5000015106202,8|8,0:1|0:1,0:0:0:0:
186,240,65758,5,10,0:0:0:0:
431,89,65911,1,2,0:0:0:0:
206,0,66065,6,0,B|190:51|190:51|197:98,1,99.0000030212403,14|8,0:1|0:1,0:0:0:0:
0,181,66373,2,0,B|76:193|36:201|108:215,1,99.0000030212403,14|8,0:0|0:1,0:0:0:0:
124,209,66604,1,8,0:0:0:0:
173,175,66681,5,10,0:1:0:0:
164,198,66758,1,8,0:1:0:0:
167,222,66835,1,10,0:1:0:0:
177,244,66911,1,8,0:1:0:0:
196,259,66988,1,12,0:0:0:0:
54,330,67142,2,0,P|80:322|120:316,1,49.5000015106202,2|0,0:0|0:0,0:0:0:0:
233,364,67296,5,14,0:1:0:0:
271,356,67373,1,8,0:0:0:0:
310,351,67450,1,8,0:0:0:0:
349,344,67527,1,8,0:0:0:0:
388,338,67604,5,10,0:0:0:0:
358,360,67681,1,8,0:0:0:0:
319,367,67758,1,12,0:1:0:0:
279,351,67835,1,8,0:0:0:0:
255,321,67911,1,8,0:0:0:0:
245,280,67988,1,8,0:0:0:0:
257,241,68065,1,8,0:0:0:0:
287,212,68142,1,8,0:0:0:0:
320,206,68219,5,10,0:1:0:0:
336,211,68296,1,8,0:0:0:0:
352,217,68373,1,8,0:0:0:0:
368,222,68450,1,8,0:0:0:0:
384,228,68527,6,0,P|411:223|441:219,1,49.5000015106202,14|8,0:1|0:0,0:0:0:0:
512,85,68681,1,8,0:0:0:0:
464,110,68758,1,8,0:0:0:0:
409,106,68835,1,8,0:0:0:0:
371,67,68911,1,8,0:0:0:0:
334,26,68988,1,8,0:1:0:0:
279,21,69065,1,8,0:1:0:0:
233,51,69142,6,0,P|238:86|242:111,1,49.5000015106202,10|8,0:0|0:0,0:0:0:0:
191,182,69296,1,8,0:3:0:0:
147,211,69373,1,8,0:3:0:0:
90,212,69450,1,8,0:3:0:0:
39,192,69527,1,8,0:3:0:0:
8,147,69604,1,8,0:1:0:0:
0,93,69681,1,8,0:1:0:0:
20,42,69758,5,14,0:0:0:0:
282,175,69911,1,10,0:1:0:0:
282,175,70065,1,10,0:1:0:0:
107,120,70219,5,12,0:0:0:0:
349,41,70373,1,10,0:1:0:0:
349,41,70527,1,8,0:1:0:0:
181,234,70681,5,14,0:0:0:0:
205,0,70835,1,8,0:1:0:0:
377,188,70988,5,14,0:0:0:0:
282,122,71142,1,8,0:1:0:0:
355,300,71296,1,10,0:1:0:0:
463,149,71450,5,12,0:0:0:0:
264,281,71604,1,8,0:1:0:0:
468,384,71758,1,8,0:1:0:0:
177,153,71911,5,14,0:0:0:0:
431,258,72065,1,10,0:1:0:0:
159,343,72219,5,14,0:0:0:0:
316,118,72373,1,10,0:1:0:0:
316,118,72527,1,10,0:1:0:0:
285,241,72681,5,14,0:0:0:0:
138,0,72835,1,10,0:1:0:0:
138,0,72988,1,8,0:1:0:0:
49,96,73142,5,14,0:0:0:0:
268,18,73296,1,10,0:1:0:0:
191,241,73450,5,14,0:0:0:0:
196,91,73604,1,8,0:1:0:0:
329,172,73758,1,10,0:1:0:0:
0,244,73911,5,12,0:0:0:0:
243,167,74065,1,10,0:1:0:0:
202,384,74219,1,10,0:1:0:0:
87,127,74373,5,12,0:0:0:0:
44,368,74527,1,8,0:1:0:0:
286,278,74681,6,0,P|256:271|225:264,1,53.9999983520508,14|8,0:1|0:0,0:0:0:0:
0,244,74835,1,8,0:0:0:0:
36,266,74911,1,8,0:0:0:0:
78,271,74988,1,10,0:0:0:0:
117,253,75065,1,8,0:0:0:0:
143,218,75142,2,0,P|138:190|127:143,1,53.9999983520508,8|8,0:3|0:3,0:0:0:0:
456,108,75296,5,10,0:1:0:0:
409,136,75372,1,8,0:0:0:0:
357,136,75449,1,8,0:0:0:0:
313,114,75526,1,8,0:0:0:0:
291,70,75603,2,0,P|296:42|307:-5,1,53.9999983520508,10|8,0:0|0:0,0:0:0:0:
326,297,75758,5,8,0:0:0:0:
331,315,75835,1,8,0:0:0:0:
336,333,75911,1,14,0:1:0:0:
392,34,76219,5,10,0:0:0:0:
292,284,76373,1,8,0:0:0:0:
183,66,76527,5,10,0:0:0:0:
426,370,76681,1,10,0:0:0:0:
128,248,76835,5,10,0:0:0:0:
500,158,76988,1,10,0:0:0:0:
259,384,77142,6,0,P|263:358|269:315,1,53.9999983520508,14|0,0:0|0:0,0:0:0:0:
436,234,77296,1,8,0:3:0:0:
436,234,77373,1,8,0:3:0:0:
436,234,77450,2,0,P|442:259|453:298,1,53.9999983520508,10|8,0:3|0:3,0:0:0:0:
82,284,77604,2,0,P|86:257|92:231,1,53.9999983520508,12|0,0:0|0:0,0:0:0:0:
331,164,77758,5,10,0:3:0:0:
286,193,77835,1,8,0:3:0:0:
226,197,77911,1,8,0:3:0:0:
180,164,77988,1,8,0:3:0:0:
146,119,78065,1,14,0:0:0:0:
80,114,78142,1,0,0:0:0:0:
30,158,78219,2,0,P|63:152|89:145,1,53.9999983520508,8|8,0:1|0:1,0:0:0:0:
256,0,78373,5,14,0:0:0:0:
309,97,79604,6,0,P|304:127|300:157,1,53.9999983520508,14|0,0:1|0:0,0:0:0:0:
393,275,79758,1,8,0:0:0:0:
368,309,79835,1,8,0:0:0:0:
328,325,79912,1,8,0:0:0:0:
286,319,79989,1,8,0:0:0:0:
254,290,80066,6,0,P|249:261|241:220,1,53.9999983520508,14|8,0:1|0:0,0:0:0:0:
125,332,80220,1,8,0:0:0:0:
125,332,80297,1,8,0:0:0:0:
125,332,80374,2,0,P|117:372|112:403,1,53.9999983520508,8|8,0:0|0:0,0:0:0:0:
52,219,80528,6,0,P|26:226|-10:234,1,53.9999983520508,14|8,0:1|0:0,0:0:0:0:
0,80,80681,1,8,0:0:0:0:
41,96,80758,1,8,0:0:0:0:
85,92,80835,1,8,0:0:0:0:
117,62,80912,1,8,0:0:0:0:
128,20,80989,5,14,0:1:0:0:
99,51,81066,1,8,0:0:0:0:
103,94,81143,1,8,0:0:0:0:
132,126,81220,1,8,0:0:0:0:
157,161,81297,1,8,0:0:0:0:
155,204,81374,1,8,0:0:0:0:
132,240,81451,6,0,P|136:214|142:171,1,53.9999983520508,10|8,0:1|0:0,0:0:0:0:
273,94,81604,2,0,P|270:120|266:147,1,53.9999983520508,8|8,0:0|0:0,0:0:0:0:
382,238,81758,5,10,0:1:0:0:
398,235,81835,1,8,0:0:0:0:
414,232,81912,1,8,0:0:0:0:
430,229,81989,1,8,0:0:0:0:
446,226,82066,5,14,0:1:0:0:
409,265,82143,1,8,0:0:0:0:
356,273,82220,1,8,0:0:0:0:
314,238,82297,1,8,0:0:0:0:
282,194,82374,1,8,0:0:0:0:
229,184,82451,1,8,0:0:0:0:
176,219,82528,6,0,P|204:213|232:209,1,53.9999983520508,14|8,0:1|0:0,0:0:0:0:
322,58,82681,1,8,0:0:0:0:
322,58,82758,1,8,0:0:0:0:
322,58,82835,2,0,P|317:33|305:-1,1,53.9999983520508,8|8,0:0|0:0,0:0:0:0:
512,128,82989,5,14,0:1:0:0:
480,99,83066,1,8,0:0:0:0:
438,92,83143,1,8,0:0:0:0:
399,110,83220,1,8,0:0:0:0:
379,148,83297,2,0,P|402:143|443:132,1,53.9999983520508,8|8,0:0|0:0,0:0:0:0:
512,265,83451,6,0,P|481:253|446:242,1,53.9999983520508,14|8,0:1|0:0,0:0:0:0:
397,384,83605,1,8,0:0:0:0:
397,384,83681,1,8,0:0:0:0:
397,384,83758,2,0,P|391:356|380:315,1,53.9999983520508,8|8,0:0|0:0,0:0:0:0:
129,257,83912,5,10,0:0:0:0:
166,289,83989,1,8,0:0:0:0:
215,295,84066,1,8,0:3:0:0:
259,272,84143,1,8,0:3:0:0:
283,228,84220,5,10,0:3:0:0:
274,213,84297,1,8,0:3:0:0:
265,198,84373,1,8,0:1:0:0:
256,183,84450,1,8,0:1:0:0:
247,168,84527,6,0,P|250:144|260:96,1,53.9999983520508,10|0,0:0|0:0,0:0:0:0:
384,304,84681,1,8,0:1:0:0:
384,304,84758,1,8,0:1:0:0:
384,304,84835,2,0,P|416:296|460:291,1,53.9999983520508,10|0,0:0|0:0,0:0:0:0:
88,188,84988,2,0,P|56:196|12:201,1,53.9999983520508,10|0,0:0|0:0,0:0:0:0:
195,53,85142,5,8,0:1:0:0:
195,53,85219,1,8,0:1:0:0:
195,53,85296,2,0,P|192:28|183:-12,1,53.9999983520508,10|0,0:0|0:0,0:0:0:0:
301,182,85450,2,0,P|296:210|292:249,1,53.9999983520508,10|0,0:0|0:0,0:0:0:0:
462,139,85604,5,8,0:1:0:0:
462,139,85681,1,8,0:1:0:0:
462,139,85758,2,0,P|492:131|531:111,1,53.9999983520508,10|0,0:0|0:0,0:0:0:0:
325,0,85911,2,0,P|320:26|317:53,1,53.9999983520508,10|0,0:0|0:0,0:0:0:0:
94,237,86065,5,8,0:1:0:0:
94,237,86142,1,8,0:1:0:0:
94,237,86219,2,0,P|69:244|31:271,1,53.9999983520508,10|0,0:0|0:0,0:0:0:0:
382,306,86373,2,0,P|414:317|441:334,1,53.9999983520508,10|0,0:0|0:0,0:0:0:0:
215,384,86527,1,8,0:1:0:0:
215,384,86604,1,8,0:1:0:0:
215,384,86681,6,0,P|206:326|191:240,1,135,10|0,0:0|0:0,0:0:0:0:
280,138,86988,6,0,P|274:174|270:198,1,53.9999983520508,14|0,0:1|0:0,0:0:0:0:
358,222,87142,2,0,P|387:213|420:209,1,53.9999983520508,10|0,0:1|0:0,0:0:0:0:
196,84,87296,2,0,P|167:93|134:97,1,53.9999983520508,10|0,0:0|0:0,0:0:0:0:
333,21,87450,6,0,P|340:57|344:86,1,53.9999983520508
182,244,87604,2,0,P|175:208|171:179,1,53.9999983520508,10|8,0:1|0:0,0:0:0:0:
342,10,87758,2,0,P|349:46|353:75,1,53.9999983520508,8|0,0:1|0:0,0:0:0:0:
512,162,87911,6,0,P|485:158|459:153,1,53.9999983520508,10|0,0:0|0:0,0:0:0:0:
354,321,88065,1,10,0:0:0:0:
354,321,88142,1,8,0:0:0:0:
354,321,88219,2,0,P|348:291|341:260,1,53.9999983520508,12|0,0:1|0:0,0:0:0:0:
165,85,88373,1,10,0:0:0:0:
165,85,88450,1,8,0:0:0:0:
165,85,88527,2,0,P|159:114|152:146,1,53.9999983520508,10|0,0:0|0:0,0:0:0:0:
10,290,88681,5,8,0:3:0:0:
189,213,88835,1,10,0:3:0:0:
311,340,88988,5,8,0:3:0:0:
203,304,89142,1,10,0:3:0:0:
127,384,89296,1,10,0:3:0:0:
127,384,89373,1,8,0:3:0:0:
127,384,89450,6,0,B|88:285|136:322|107:216,1,161.999995056153,14|0,0:1|0:0,0:0:0:0:
39,179,89758,6,0,P|118:187|183:142,1,161.999995056153,10|10,0:1|0:0,0:0:0:0:
182,142,90373,5,10,0:1:0:0:
343,274,90527,1,10,0:0:0:0:
218,249,90681,5,8,0:1:0:0:
292,204,90835,1,8,0:0:0:0:
150,339,90988,1,10,0:1:0:0:
150,339,91296,5,10,0:1:0:0:
263,247,91450,1,10,0:0:0:0:
255,237,91527,1,8,0:0:0:0:
248,227,91604,2,0,P|253:193|258:169,1,40.4999987640381,8|0,0:1|0:0,0:0:0:0:
328,338,91758,1,10,0:0:0:0:
328,338,91835,1,8,0:0:0:0:
328,338,91911,6,0,P|399:372|479:365,1,161.999995056153,14|10,0:1|0:1,0:0:0:0:
480,366,92527,2,0,B|462:331|462:331|467:288,1,80.9999975280763,10|0,0:0|0:0,0:0:0:0:
374,132,92835,5,10,0:1:0:0:
512,193,92988,1,8,0:0:0:0:
287,221,93142,5,10,0:1:0:0:
464,102,93296,1,8,0:0:0:0:
464,102,93604,6,0,P|488:108|524:113,1,40.4999987640381,2|0,0:0|0:0,0:0:0:0:
375,28,93758,1,10,0:1:0:0:
347,20,93835,1,8,0:1:0:0:
318,20,93911,1,8,0:0:0:0:
294,36,93988,1,8,0:0:0:0:
277,59,94065,1,8,0:1:0:0:
252,73,94142,1,8,0:0:0:0:
224,78,94219,1,8,0:0:0:0:
196,71,94296,1,8,0:0:0:0:
173,53,94373,6,0,P|185:122|188:187,1,121.499996292114,14|0,0:1|0:0,0:0:0:0:
184,193,94681,1,10,0:1:0:0:
82,153,94835,1,8,0:0:0:0:
23,249,94988,1,10,0:1:0:0:
29,266,95296,5,10,0:0:0:0:
35,283,95604,5,10,0:1:0:0:
209,226,95758,1,8,0:0:0:0:
166,369,95911,6,0,P|168:324|180:253,1,108,8|0,0:1|0:0,0:0:0:0:
303,117,96219,6,0,P|310:153|313:177,1,53.9999983520508,10|8,0:1|0:0,0:0:0:0:
296,319,96373,1,8,0:0:0:0:
331,343,96450,1,8,0:0:0:0:
374,339,96527,1,10,0:0:0:0:
404,308,96604,1,8,0:0:0:0:
432,275,96681,1,8,0:0:0:0:
474,269,96758,1,8,0:0:0:0:
512,287,96835,6,0,B|388:257|469:241|339:215,1,188.999994232178,10|8,0:1|0:1,0:0:0:0:
339,215,97373,1,8,0:1:0:0:
339,215,97450,2,0,P|341:192|345:169,1,45,10|0,0:0|0:0,0:0:0:0:
156,14,97604,6,0,P|160:45|164:76,1,54,8|0,0:1|0:0,0:0:0:0:
194,263,97911,6,0,P|165:255|124:249,1,53.9999983520508,8|8,0:0|0:0,0:0:0:0:
14,199,98065,6,0,P|89:271|194:263,1,216,14|0,0:1|0:0,0:0:0:0:
246,136,98373,6,0,L|226:351,1,216,14|0,0:0|0:0,0:0:0:0:
331,384,98681,5,14,0:1:0:0:
330,378,98757,1,8,0:1:0:0:
329,371,98834,1,8,0:1:0:0:
327,364,98911,1,8,0:1:0:0:
326,357,98988,6,0,P|329:324|337:270,1,45,14|0,0:0|0:0,0:0:0:0:
489,281,99142,2,0,P|501:299|520:346,1,45
512,151,99296,6,0,P|459:180|400:173,1,121.499996292114,14|0,0:1|0:0,0:0:0:0:
384,150,99604,2,0,B|375:114|375:114|395:58,1,80.9999975280763,10|10,0:0|0:1,0:0:0:0:
368,269,99911,5,10,0:1:0:0:
216,194,100065,1,8,0:1:0:0:
216,194,100142,1,8,0:1:0:0:
216,194,100219,1,8,0:0:0:0:
89,314,100373,2,0,P|102:261|112:173,1,121.499996292114,10|0,0:1|0:0,0:0:0:0:
109,182,100681,5,8,0:1:0:0:
232,378,100835,2,0,P|270:362|317:363,1,80.9999975280763,10|8,0:0|0:1,0:0:0:0:
194,231,101142,5,10,0:1:0:0:
354,121,101296,1,10,0:1:0:0:
221,10,101450,1,10,0:0:0:0:
317,221,101604,1,10,0:1:0:0:
317,221,101681,1,8,0:1:0:0:
317,221,101758,6,0,P|321:183|330:126,1,80.9999975280763,8|8,0:1|0:1,0:0:0:0:
141,306,102065,1,10,0:0:0:0:
1,153,102219,2,0,P|47:171|103:180,1,80.9999975280763,10|8,0:1|0:1,0:0:0:0:
167,283,102527,5,10,0:1:0:0:
64,383,102681,1,8,0:0:0:0:
91,214,102835,1,10,0:1:0:0:
249,323,102988,6,0,P|292:314|348:307,1,80.9999975280763,10|8,0:1|0:1,0:0:0:0:
437,211,103296,5,10,0:0:0:0:
512,308,103450,1,8,0:1:0:0:
512,156,103604,5,10,0:1:0:0:
435,372,103758,1,8,0:1:0:0:
280,215,103911,1,10,0:0:0:0:
403,280,104065,5,8,0:0:0:0:
403,280,104142,1,8,0:0:0:0:
403,280,104219,2,0,B|421:166|390:236|410:93,1,161.999995056153,14|8,0:1|0:1,0:0:0:0:
124,206,104681,5,10,0:3:0:0:
124,206,104758,1,8,0:3:0:0:
124,206,104835,2,0,P|194:242|274:233,1,161.999995056153,14|8,0:1|0:1,0:0:0:0:
227,16,105296,5,10,0:3:0:0:
220,28,105373,1,8,0:3:0:0:
213,40,105450,2,0,P|216:61|221:93,1,40.4999987640381,14|0,0:1|0:0,0:0:0:0:
369,147,105604,6,0,P|343:153|297:158,1,53.9999983520508,8|0,0:0|0:0,0:0:0:0:
43,296,105758,2,0,P|69:290|115:285,1,53.9999983520508,10|0,0:0|0:0,0:0:0:0:
271,351,105911,1,8,0:1:0:0:
276,335,105988,1,8,0:1:0:0:
281,319,106065,1,10,0:0:0:0:
211,151,106219,5,10,0:3:0:0:
387,307,106373,1,10,0:3:0:0:
114,384,106527,6,0,B|91:330|109:274|129:312|154:244|125:188,1,202.500007724762,14|0,0:1|0:0,0:0:0:0:
126,191,106835,6,0,P|100:197|61:202,1,58.4999973220826,10|8,0:3|0:3,0:0:0:0:
0,91,106989,6,0,P|30:81|58:59,1,58.4999973220826,10|8,0:3|0:3,0:0:0:0:
281,206,107142,2,0,P|251:216|223:238,1,58.4999973220826,8|8,0:1|0:1,0:0:0:0:
35,286,107296,5,10,0:3:0:0:
64,292,107373,1,8,0:3:0:0:
94,288,107450,1,10,0:3:0:0:
119,272,107527,1,8,0:3:0:0:
137,248,107604,2,0,P|130:211|119:169,1,58.4999973220826,10|8,0:1|0:1,0:0:0:0:
239,326,107758,6,0,B|354:343|294:358|410:385,1,175.499991966248,14|0,0:0|0:0,0:0:0:0:
333,75,108066,2,0,P|329:111|326:142,1,58.4999973220826,10|8,0:0|0:0,0:0:0:0:
475,326,108219,5,10,0:0:0:0:
501,304,108296,1,8,0:0:0:0:
512,269,108373,1,8,0:1:0:0:
503,228,108450,1,8,0:1:0:0:
434,262,108527,5,10,0:0:0:0:
418,255,108835,5,2,0:0:0:0:
299,384,108988,1,2,0:0:0:0:
299,384,109065,1,2,0:0:0:0:
299,384,109142,6,0,P|291:344|284:290,1,90,14|0,0:1|0:0,0:0:0:0:
375,121,109450,1,10,0:1:0:0:
375,121,109604,1,8,0:1:0:0:
512,210,109758,6,0,B|411:197|467:231|356:225,1,144,10|2,0:0|0:0,0:0:0:0:
371,225,110219,2,0,B|386:260|386:260|383:295,1,72,12|2,0:1|0:0,0:0:0:0:
230,127,110527,2,0,P|225:73|244:23,1,108,8|0,0:0|0:0,0:0:0:0:
244,23,110835,2,0,P|247:53|250:75,1,36,8|8,0:1|0:1,0:0:0:0:
183,207,110988,6,0,P|122:236|56:230,1,135,8|0,0:0|0:0,0:0:0:0:
44,224,111296,2,0,B|31:196|31:196|36:151,1,72,2|8,0:0|0:0,0:0:0:0:
2,347,111604,6,0,P|33:329|70:327,1,72,14|0,0:1|0:0,0:0:0:0:
197,384,111911,1,10,0:1:0:0:
197,384,112065,1,8,0:1:0:0:
282,158,112219,2,0,P|291:206|297:247,1,72,10|0,0:0|0:0,0:0:0:0:
294,228,112527,5,2,0:0:0:0:
198,210,112681,1,8,0:1:0:0:
471,131,112835,1,2,0:0:0:0:
370,343,112988,6,0,P|375:291|388:199,1,144,8|10,0:1|0:1,0:0:0:0:
395,185,113373,1,8,0:1:0:0:
395,185,113450,1,14,0:0:0:0:
492,295,113604,1,8,0:1:0:0:
265,137,113758,6,0,P|299:130|333:124,1,53.9999983520508,12|2,0:0|0:0,0:0:0:0:
194,279,114065,6,0,P|189:252|180:207,1,53.9999983520508,14|0,0:1|0:0,0:0:0:0:
149,108,114219,1,10,0:0:0:0:
149,108,114296,1,8,0:0:0:0:
149,108,114373,5,10,0:0:0:0:
101,129,114450,1,8,0:0:0:0:
88,186,114527,1,10,0:0:0:0:
116,233,114604,1,8,0:0:0:0:
161,262,114681,1,10,0:0:0:0:
180,318,114758,1,8,0:0:0:0:
145,366,114835,6,0,P|147:343|153:304,1,53.9999983520508,8|8,0:0|0:0,0:0:0:0:
0,195,114988,2,0,P|33:187|59:181,1,53.9999983520508,10|8,0:0|0:0,0:0:0:0:
196,10,115142,1,10,0:0:0:0:
196,10,115219,1,8,0:0:0:0:
196,10,115296,6,0,P|203:40|205:65,1,53.9999983520508,14|0,0:1|0:0,0:0:0:0:
324,227,115450,1,10,0:0:0:0:
324,227,115527,1,8,0:0:0:0:
324,227,115604,2,0,P|327:197|332:162,1,53.9999983520508,10|8,0:0|0:0,0:0:0:0:
512,121,115758,1,8,0:0:0:0:
512,121,115835,1,8,0:0:0:0:
512,121,115911,5,8,0:0:0:0:
485,115,115988,1,8,0:0:0:0:
458,121,116065,1,8,0:3:0:0:
437,138,116142,1,8,0:3:0:0:
426,162,116219,1,10,0:3:0:0:
426,189,116296,1,8,0:3:0:0:
436,213,116373,1,8,0:3:0:0:
456,230,116450,1,8,0:3:0:0:
482,235,116527,6,0,P|476:202|470:176,1,53.9999983520508,14|0,0:1|0:0,0:0:0:0:
350,350,116681,1,8,0:0:0:0:
350,350,116758,1,8,0:0:0:0:
350,350,116835,2,0,P|326:340|274:328,1,53.9999983520508,10|0,0:0|0:0,0:0:0:0:
135,272,116988,2,0,P|166:266|205:256,1,53.9999983520508,8|0,0:3|0:0,0:0:0:0:
259,384,117142,5,10,0:0:0:0:
264,345,117219,1,8,0:0:0:0:
269,307,117296,1,8,0:0:0:0:
274,268,117373,1,8,0:0:0:0:
280,230,117450,2,0,P|275:201|266:161,1,53.9999983520508,10|0,0:0|0:0,0:0:0:0:
57,151,117604,1,8,0:0:0:0:
57,151,117681,1,8,0:0:0:0:
57,151,117758,2,0,P|31:145|-4:128,1,53.9999983520508,14|0,0:1|0:0,0:0:0:0:
201,5,117911,5,8,0:0:0:0:
201,5,117988,1,8,0:0:0:0:
201,5,118065,2,0,P|209:40|212:72,1,53.9999983520508,8|0,0:1|0:0,0:0:0:0:
346,203,118219,5,8,0:0:0:0:
346,203,118296,1,8,0:0:0:0:
346,203,118373,2,0,P|338:238|335:270,1,53.9999983520508,10|0,0:0|0:0,0:0:0:0:
191,379,118527,6,0,P|187:356|178:312,1,53.9999983520508,8|0,0:0|0:0,0:0:0:0:
0,204,118681,1,10,0:0:0:0:
0,204,118758,1,8,0:0:0:0:
0,204,118835,2,0,P|32:198|67:186,1,53.9999983520508,8|8,0:0|0:0,0:0:0:0:
113,276,118988,6,0,P|118:261|121:241,1,26.9999991760254,10|0,0:1|0:0,0:0:0:0:
172,222,119142,2,0,P|168:207|165:187,1,26.9999991760254,10|0,0:1|0:0,0:0:0:0:
260,308,119296,6,0,L|282:158,1,116.999994644165,10|0,0:0|0:0,0:0:0:0:
432,248,119604,6,0,P|435:261|437:274,1,26.9999991760254,10|0,0:1|0:0,0:0:0:0:
366,172,119758,2,0,P|361:189|359:208,1,26.9999991760254,10|0,0:1|0:0,0:0:0:0:
492,114,119911,6,0,P|505:189|516:247,1,116.999994644165,10|0,0:0|0:0,0:0:0:0:
390,92,120219,6,0,P|407:86|428:80,1,26.9999991760254,10|0,0:1|0:0,0:0:0:0:
329,15,120373,2,0,P|347:20|367:29,1,26.9999991760254,10|0,0:1|0:0,0:0:0:0:
216,141,120527,6,0,B|231:71|210:110|227:10,1,116.999994644165,10|0,0:0|0:0,0:0:0:0:
63,279,120835,6,0,P|48:284|29:290,1,26.9999991760254,10|0,0:1|0:0,0:0:0:0:
128,210,120988,2,0,P|110:204|93:193,1,26.9999991760254,10|0,0:1|0:0,0:0:0:0:
311,378,121142,6,0,B|298:307|320:343|306:261,1,116.999994644165,10|0,0:0|0:0,0:0:0:0:
210,0,121450,5,14,0:1:0:0:
326,123,121604,1,8,0:1:0:0:
185,160,121758,5,8,0:0:0:0:
367,38,121911,1,2,0:0:0:0:
367,38,121988,1,2,0:0:0:0:
367,38,122065,1,10,0:1:0:0:
406,254,122219,1,8,0:1:0:0:
236,85,122373,5,8,0:0:0:0:
153,319,122527,1,8,0:1:0:0:
295,157,122681,5,14,0:0:0:0:
418,362,122835,1,10,0:1:0:0:
396,19,122988,5,12,0:0:0:0:
278,310,123142,1,10,0:1:0:0:
498,150,123296,5,8,0:0:0:0:
164,185,123450,1,10,0:1:0:0:
455,284,123604,5,14,0:0:0:0:
221,39,123758,1,8,0:1:0:0:
90,334,123911,6,0,P|120:325|162:318,1,53.9999983520508,10|0,0:0|0:0,0:0:0:0:
221,242,124065,2,0,P|217:219|208:177,1,53.9999983520508,10|0,0:0|0:0,0:0:0:0:
512,196,124219,1,8,0:1:0:0:
512,196,124296,1,8,0:1:0:0:
512,196,124373,2,0,P|489:190|456:184,1,53.9999983520508,10|0,0:0|0:0,0:0:0:0:
354,383,124527,6,0,P|360:335|369:277,1,108,10|0,0:1|0:0,0:0:0:0:
155,113,124835,6,0,P|162:147|166:176,1,53.9999983520508,14|0,0:0|0:0,0:0:0:0:
139,273,124988,6,0,B|52:288|101:300|5:324,1,135.000005149842,14|8,0:0|0:0,0:0:0:0:
15,322,125219,1,8,0:0:0:0:
34,340,125296,1,8,0:3:0:0:
58,350,125373,1,8,0:3:0:0:
84,352,125450,1,8,0:3:0:0:
108,341,125527,1,8,0:3:0:0:
124,319,125604,2,0,P|119:292|110:252,1,67.5000025749208,8|8,0:1|0:1,0:0:0:0:
311,383,125758,6,0,B|348:237|530:137|614:439|761:386|494:-78|-22:320|685:378|221:481|1:362|80:0|300:-68|436:151|150:255|125:252,1,850.5000032444,10|0,0:0|0:0,0:0:0:0:
105,236,126373,6,0,P|59:223|-13:214,1,107.999996704102,14|8,0:1|0:1,0:0:0:0:
226,34,126681,1,10,0:0:0:0:
137,147,126835,5,8,0:1:0:0:
137,147,126910,1,8,0:0:0:0:
137,147,126988,1,10,0:1:0:0:
0,69,127143,1,8,0:1:0:0:
120,252,127296,5,10,0:0:0:0:
278,155,127450,1,0,0:0:0:0:
0,268,127604,6,0,P|69:263|134:304,1,148.50000453186,10|0,0:1|0:0,0:0:0:0:
229,290,127911,2,0,B|210:338|210:338|220:390,1,99.0000030212403,8|8,0:0|0:1,0:0:0:0:
347,245,128219,5,10,0:1:0:0:
161,155,128373,1,10,0:1:0:0:
229,290,128527,5,10,0:0:0:0:
396,91,128681,1,2,0:0:0:0:
496,344,128835,6,0,P|502:298|512:242,1,99.0000030212403,10|8,0:1|0:1,0:0:0:0:
259,0,129143,2,0,P|252:53|245:104,1,99.0000030212403,10|8,0:0|0:1,0:0:0:0:
301,338,129450,5,10,0:1:0:0:
113,180,129604,1,8,0:1:0:0:
113,180,129681,1,8,0:1:0:0:
113,180,129758,1,10,0:0:0:0:
203,384,129912,5,0,0:0:0:0:
355,212,130065,2,0,B|253:234|306:243|207:265,1,148.50000453186,10|0,0:1|0:0,0:0:0:0:
191,272,130373,5,10,0:0:0:0:
11,221,130527,1,8,0:1:0:0:
83,303,130681,5,10,0:1:0:0:
212,99,130835,1,10,0:1:0:0:
113,180,130989,5,10,0:0:0:0:
350,297,131143,1,0,0:0:0:0:
203,384,131296,6,0,P|209:343|215:303,1,80.9999975280763,14|0,0:1|0:0,0:0:0:0:
285,235,131604,6,0,B|388:261|325:268|433:297,1,161.999995056153,14|8,0:0|0:0,0:0:0:0:
452,296,131912,1,8,0:1:0:0:
411,191,132066,1,8,0:1:0:0:
319,379,132219,5,10,0:0:0:0:
506,220,132373,1,2,0:0:0:0:
296,104,132527,6,0,P|304:152|312:201,1,99.0000030212403,14|8,0:1|0:1,0:0:0:0:
10,78,132835,2,0,B|83:90|83:90|154:58,1,148.50000453186,14|8,0:0|0:0,0:0:0:0:
150,59,133143,6,0,P|144:30|126:-30,1,49.5000015106202,10|0,0:1|0:0,0:0:0:0:
37,170,133296,2,0,P|19:216|17:265,1,99.0000030212403,10|8,0:1|0:0,0:0:0:0:
183,154,133604,1,2,0:0:0:0:
386,261,133758,6,0,B|291:272|344:290|248:309,1,148.50000453186,14|0,0:1|0:0,0:0:0:0:
173,252,134065,2,0,P|178:208|183:152,1,99.0000030212403,10|8,0:0|0:1,0:0:0:0:
98,357,134373,5,10,0:1:0:0:
257,190,134527,1,10,0:1:0:0:
0,157,134681,5,10,0:0:0:0:
189,272,134835,1,0,0:0:0:0:
99,11,134988,5,10,0:1:0:0:
74,41,135065,1,8,0:0:0:0:
72,80,135142,1,8,0:0:0:0:
93,113,135219,1,8,0:0:0:0:
130,126,135296,2,0,P|156:119|193:114,1,49.5000015106202,8|8,0:0|0:0,0:0:0:0:
30,288,135450,1,8,0:0:0:0:
14,280,135527,1,8,0:0:0:0:
0,272,135604,5,10,0:0:0:0:
38,236,135681,1,8,0:0:0:0:
95,234,135758,1,10,0:3:0:0:
142,269,135835,1,8,0:3:0:0:
157,316,135911,1,10,0:3:0:0:
194,347,135988,1,8,0:3:0:0:
237,350,136065,1,10,0:3:0:0:
266,338,136142,1,8,0:3:0:0:
278,325,136219,6,0,B|174:342|242:351|127:385,1,148.50000453186,14|0,0:1|0:0,0:0:0:0:
126,381,136527,1,10,0:0:0:0:
331,237,136681,1,8,0:1:0:0:
151,146,136835,5,10,0:1:0:0:
278,325,136989,1,8,0:1:0:0:
342,85,137143,5,10,0:0:0:0:
188,243,137296,1,0,0:0:0:0:
449,363,137450,6,0,B|444:292|435:331|427:266,1,99.0000030212403,10|8,0:1|0:1,0:0:0:0:
176,38,137758,2,0,P|225:40|271:18,1,99.0000030212403,8|8,0:0|0:1,0:0:0:0:
285,2,137988,1,8,0:0:0:0:
285,2,138065,1,10,0:1:0:0:
147,209,138219,1,8,0:1:0:0:
49,132,138373,5,10,0:0:0:0:
264,189,138527,1,2,0:0:0:0:
192,0,138681,6,0,P|185:56|181:104,1,99.0000030212403,10|8,0:1|0:1,0:0:0:0:
367,384,138989,2,0,P|372:343|380:286,1,99.0000030212403,10|8,0:0|0:1,0:0:0:0:
164,165,139296,5,10,0:1:0:0:
353,257,139450,1,8,0:1:0:0:
69,330,139604,2,0,P|111:313|179:300,1,99.0000030212403,10|0,0:0|0:0,0:0:0:0:
88,116,139912,6,0,P|37:108|-2:79,1,99.0000030212403,10|8,0:1|0:1,0:0:0:0:
206,0,140219,1,10,0:0:0:0:
81,211,140373,1,8,0:1:0:0:
81,211,140450,1,8,0:0:0:0:
81,211,140527,1,10,0:1:0:0:
276,131,140681,5,10,0:1:0:0:
106,36,140835,1,10,0:0:0:0:
210,265,140989,1,0,0:0:0:0:
0,167,141143,5,14,0:1:0:0:
232,50,141296,1,8,0:1:0:0:
152,347,141450,6,0,P|156:292|172:160,1,135.000005149842,14|8,0:0|0:1,0:0:0:0:
259,187,141681,1,8,0:0:0:0:
259,187,141758,6,0,P|291:182|326:176,1,49.5000015106202,8|8,0:1|0:1,0:0:0:0:
438,206,141912,2,0,P|413:208|385:214,1,49.5000015106202,8|8,0:1|0:1,0:0:0:0:
313,92,142066,5,10,0:0:0:0:
512,257,142219,1,2,0:0:0:0:
344,374,142373,6,0,B|324:331|324:331|331:276,1,99.0000030212403,14|8,0:1|0:1,0:0:0:0:
7,321,142681,2,0,B|83:309|43:301|115:287,1,99.0000030212403,14|8,0:0|0:1,0:0:0:0:
117,289,142912,1,8,0:0:0:0:
163,312,142989,5,10,0:1:0:0:
154,289,143066,1,8,0:1:0:0:
157,265,143143,1,10,0:1:0:0:
167,243,143219,1,8,0:1:0:0:
186,228,143296,1,12,0:0:0:0:
20,147,143450,2,0,P|31:173|38:200,1,49.5000015106202,10|0,0:1|0:0,0:0:0:0:
163,72,143604,6,0,P|145:66|107:57,1,49.5000015106202,14|0,0:0|0:0,0:0:0:0:
338,227,143758,1,8,0:3:0:0:
338,227,143835,1,8,0:3:0:0:
338,227,143911,2,0,P|370:221|414:214,1,49.5000015106202,10|8,0:1|0:1,0:0:0:0:
512,156,144065,2,0,P|503:125|497:81,1,49.5000015106202,12|0,0:0|0:0,0:0:0:0:
284,0,144219,5,8,0:1:0:0:
296,27,144296,1,8,0:1:0:0:
320,43,144373,1,8,0:1:0:0:
349,44,144450,1,8,0:1:0:0:
376,32,144527,2,0,P|370:68|368:98,1,49.5000015106202,14|0,0:0|0:0,0:0:0:0:
259,180,144681,2,0,P|255:156|246:112,1,49.5000015106202,8|8,0:1|0:1,0:0:0:0:
83,141,144835,5,10,0:0:0:0:
88,118,144911,1,8,0:0:0:0:
93,96,144988,1,8,0:1:0:0:
99,73,145065,1,8,0:1:0:0:
104,51,145142,2,0,P|98:25|91:-1,1,49.5000015106202,8|8,0:3|0:3,0:0:0:0:
0,283,145296,5,8,0:1:0:0:
32,266,145372,1,8,0:1:0:0:
69,260,145449,1,10,0:3:0:0:
105,266,145526,1,8,0:3:0:0:
138,282,145603,1,8,0:1:0:0:
165,307,145680,1,8,0:1:0:0:
182,339,145757,1,12,0:0:0:0:
256,192,146065,5,14,0:1:0:0:
134,206,150373,6,0,P|137:194|141:183,12,22.5,14|0|0|0|0|0|0|0|0|0|0|0|0,0:0|0:0|0:0|0:0|0:0|0:0|0:0|0:0|0:0|0:0|0:0|0:0|0:0,0:0:0:0:
182,151,150681,6,0,P|177:128|169:96,1,45,14|0,0:1|0:0,0:0:0:0:
296,209,150835,1,10,0:1:0:0:
33,259,150988,2,0,P|98:248|155:284,1,135,8|0,0:0|0:0,0:0:0:0:
154,282,151296,5,10,0:1:0:0:
334,337,151450,2,0,P|312:342|290:348,1,45,8|0,0:1|0:0,0:0:0:0:
205,384,151604,2,0,P|204:319|211:249,1,135,8|0,0:0|0:0,0:0:0:0:
217,231,151911,5,8,0:1:0:0:
451,291,152065,1,10,0:1:0:0:
296,258,152219,5,10,0:0:0:0:
380,231,152373,1,10,0:1:0:0:
359,313,152527,1,10,0:1:0:0:
310,116,152681,2,0,P|313:96|319:72,2,45,10|0|10,0:1|0:0|0:0,0:0:0:0:
469,210,152988,2,0,P|494:205|526:193,1,45
376,364,153142,6,0,P|352:349|313:346,1,53.9999983520508,14|8,0:1|0:1,0:0:0:0:
133,279,153296,5,8,0:0:0:0:
183,311,153373,1,8,0:0:0:0:
234,300,153450,1,8,0:0:0:0:
260,264,153527,1,8,0:0:0:0:
294,241,153604,1,10,0:1:0:0:
333,247,153681,1,8,0:1:0:0:
350,258,153758,5,8,0:0:0:0:
302,292,153835,1,8,0:0:0:0:
248,286,153911,1,8,0:1:0:0:
212,245,153988,1,8,0:1:0:0:
186,197,154065,1,10,0:0:0:0:
149,156,154142,1,8,0:0:0:0:
92,138,154219,1,8,0:1:0:0:
36,161,154296,1,8,0:1:0:0:
5,214,154373,6,0,P|39:208|78:189,1,67.5000025749208,10|0,0:0|0:0,0:0:0:0:
171,308,154527,6,0,P|214:322|243:342,1,67.5000025749208,10|0,0:0|0:0,0:0:0:0:
246,83,154681,6,0,P|289:69|325:42,1,67.5000025749208,10|0,0:0|0:0,0:0:0:0:
499,206,154835,5,8,0:1:0:0:
499,206,154911,5,8,0:1:0:0:
499,206,154988,6,0,P|486:196|469:192,1,26.9999991760254,14|0,0:0|0:0,0:0:0:0:
477,178,155065,6,0,P|457:171|439:167,1,31.4999990386963
442,158,155142,6,0,P|422:161|396:171,1,36
388,161,155219,6,0,P|368:180|357:192,1,40.4999987640381
354,211,155296,6,0,P|326:217|296:212,1,45,8|0,0:0|0:0,0:0:0:0:
295,239,155373,6,0,P|271:229|256:208,1,49.5000015106202,8|0,0:0|0:0,0:0:0:0:
240,222,155450,6,0,P|231:203|230:162,1,53.9999983520508,10|0,0:0|0:0,0:0:0:0:
203,164,155527,6,0,P|203:135|213:108,1,58.4999973220826,10|0,0:0|0:0,0:0:0:0:
220,93,155604,6,0,B|198:243|256:156|230:332,1,233.999989288331,14|10,0:1|0:0,0:0:0:0:
224,345,155963,5,2,0:0:0:0:
224,345,156014,5,2,0:0:0:0:
224,345,156065,6,0,B|305:355|264:367|343:379,1,116.999994644165,2|8,0:0|0:1,0:0:0:0:
512,200,156373,5,10,0:1:0:0:
512,200,156450,1,2,0:0:0:0:
512,200,156527,2,0,P|439:211|371:184,1,148.50000453186,10|0,0:0|0:0,0:0:0:0:
260,127,156835,5,10,0:1:0:0:
205,96,156911,1,2,0:0:0:0:
145,108,156988,1,10,0:1:0:0:
108,158,157065,1,2,0:0:0:0:
68,181,157142,1,10,0:0:0:0:
19,170,157219,1,2,0:0:0:0:
2,136,157296,1,2,0:0:0:0:
18,97,157373,1,2,0:0:0:0:
40,82,157450,2,0,B|50:139|31:117|41:180,1,99.0000030212403,10|8,0:1|0:1,0:0:0:0:
286,203,157758,5,10,0:0:0:0:
91,369,157911,1,2,0:0:0:0:
0,264,158065,5,10,0:1:0:0:
242,357,158219,1,10,0:1:0:0:
80,384,158373,1,8,0:0:0:0:
148,86,158527,6,0,P|157:118|163:146,1,49.5000015106202,2|0,0:0|0:0,0:0:0:0:
100,264,158681,2,0,B|231:248|156:280|303:266,1,188.999994232178,10|0,0:1|0:0,0:0:0:0:
391,230,158988,5,10,0:0:0:0:
407,210,159065,1,0,0:0:0:0:
410,183,159142,1,2,0:0:0:0:
402,163,159219,1,0,0:0:0:0:
382,145,159296,2,0,P|373:186|371:211,1,49.5000015106202,10|0,0:1|0:0,0:0:0:0:
398,342,159450,5,10,0:1:0:0:
395,357,159527,1,8,0:1:0:0:
392,372,159604,5,10,0:0:0:0:
332,373,159681,1,0,0:0:0:0:
276,344,159758,1,0,0:0:0:0:
265,283,159835,1,0,0:0:0:0:
296,229,159911,2,0,P|303:257|306:286,1,36,10|8,0:1|0:0,0:0:0:0:
426,125,160065,6,0,B|458:99|463:54|463:54|390:115|412:215|412:215|433:189|468:177,1,323.999990112305,10|2,0:1|0:0,0:0:0:0:
506,286,160450,1,2,0:0:0:0:
506,286,160527,2,0,P|427:253|289:262,1,202.500007724762,14|0,0:1|0:0,0:0:0:0:
244,320,160834,6,0,B|261:353|261:353|255:384,1,67.5000025749208,8|0,0:0|0:0,0:0:0:0:
6,222,160988,2,0,B|1:195|1:195|14:155,1,53.9999983520508
109,306,161142,6,0,B|155:330|161:377|161:377|263:322|214:132|-8:149|-6:306|15:352,1,485.999985168458,10|2,0:1|0:0,0:0:0:0:
109,306,161681,1,2,0:0:0:0:
109,306,161758,2,0,B|125:201|93:258|103:136,1,161.999995056153,10|0,0:1|0:0,0:0:0:0:
0,85,162065,6,0,P|7:114|11:141,1,45,10|0,0:0|0:0,0:0:0:0:
102,145,162219,2,0,P|96:172|93:193,1,45,2|0,0:0|0:0,0:0:0:0:
230,0,162373,6,0,P|237:29|241:56,1,45,10|0,0:1|0:0,0:0:0:0:
324,115,162527,2,0,P|319:142|316:163,1,45,10|0,0:1|0:0,0:0:0:0:
408,38,162681,6,0,P|415:67|419:94,1,45,10|0,0:0|0:0,0:0:0:0:
505,132,162835,2,0,P|508:109|512:87,1,45,2|0,0:0|0:0,0:0:0:0:
463,228,162988,5,14,0:1:0:0:
466,241,163065,1,8,0:1:0:0:
469,254,163142,1,8,0:1:0:0:
472,267,163219,1,8,0:1:0:0:
440,316,163296,6,0,P|445:260|463:125,1,175.499991966248,12|0,0:0|0:0,0:0:0:0:
377,152,163604,5,14,0:1:0:0:
363,147,163681,1,8,0:1:0:0:
349,142,163758,1,8,0:1:0:0:
335,137,163835,1,8,0:1:0:0:
320,89,163911,6,0,B|199:109|278:126|147:148,1,175.499991966248,12|0,0:0|0:0,0:0:0:0:
71,52,164219,6,0,B|67:28|67:28|76:-3,1,53.9999983520508,14|0,0:1|0:0,0:0:0:0:
128,158,164373,1,8,0:3:0:0:
117,182,164450,1,8,0:3:0:0:
97,201,164527,1,8,0:3:0:0:
72,211,164604,1,8,0:3:0:0:
45,212,164681,1,10,0:1:0:0:
19,205,164757,1,8,0:1:0:0:
2,191,164835,5,8,0:0:0:0:
48,161,164911,1,8,0:0:0:0:
104,164,164988,1,10,0:0:0:0:
142,206,165065,1,8,0:0:0:0:
162,254,165142,1,10,0:0:0:0:
207,287,165219,1,8,0:0:0:0:
262,292,165296,1,10,0:0:0:0:
316,277,165373,1,8,0:0:0:0:
352,228,165450,6,0,P|314:236|272:243,1,62.9999980773926,14|0,0:1|0:0,0:0:0:0:
435,279,165604,2,0,P|473:271|515:264,1,62.9999980773926,10|0,0:1|0:0,0:0:0:0:
336,220,165757,6,0,P|298:228|256:235,1,62.9999980773926,10|0,0:0|0:0,0:0:0:0:
451,287,165911,2,0,P|489:279|531:272,1,62.9999980773926,8|8,0:1|0:0,0:0:0:0:
351,308,166065,6,0,P|360:342|363:373,1,62.9999980773926,10|0,0:1|0:0,0:0:0:0:
448,148,166219,2,0,P|439:114|436:83,1,62.9999980773926,10|0,0:1|0:0,0:0:0:0:
342,323,166373,6,0,P|351:357|354:388,1,62.9999980773926,10|0,0:0|0:0,0:0:0:0:
457,133,166527,2,0,P|448:99|445:68,1,62.9999980773926
276,242,166681,5,10,0:1:0:0:
343,172,166834,2,0,P|300:148|251:150,1,99.0000030212403,10|8,0:1|0:0,0:0:0:0:
21,241,167142,5,10,0:1:0:0:
239,325,167296,1,8,0:1:0:0:
37,269,167450,6,0,P|32:304|21:336,1,49.5000015106202,10|0,0:1|0:0,0:0:0:0:
138,384,167604,2,0,B|163:279|111:333|146:199,1,175.499991966248,8|0,0:0|0:0,0:0:0:0:
151,193,167911,5,14,0:0:0:0:
286,256,168065,1,8,0:1:0:0:
112,268,168219,5,14,0:0:0:0:
333,179,168373,1,8,0:1:0:0:
68,139,168527,5,10,0:0:0:0:
356,311,168681,1,8,0:1:0:0:
34,229,168834,5,10,0:0:0:0:
388,100,168988,1,10,0:1:0:0:
164,0,169142,6,0,P|169:34|172:68,1,49.5000015106202,8|8,0:0|0:3,0:0:0:0:
168,166,169296,1,10,0:1:0:0:
203,147,169373,1,8,0:1:0:0:
242,151,169450,1,8,0:0:0:0:
265,182,169527,1,8,0:3:0:0:
290,212,169604,1,8,0:1:0:0:
329,216,169681,1,8,0:1:0:0:
366,204,169757,5,10,0:3:0:0:
308,171,169834,1,8,0:3:0:0:
246,197,169911,1,8,0:3:0:0:
225,249,169988,1,8,0:3:0:0:
236,297,170065,1,8,0:3:0:0:
268,322,170142,1,8,0:3:0:0:
287,342,170219,1,8,0:1:0:0:
289,362,170296,1,8,0:1:0:0:
278,384,170373,6,0,P|278:350|284:299,1,58.4999973220826,14|0,0:0|0:0,0:0:0:0:
342,237,170527,1,10,0:3:0:0:
376,182,170604,1,8,0:3:0:0:
439,169,170681,1,10,0:1:0:0:
490,191,170757,1,8,0:1:0:0:
512,224,170834,5,12,0:0:0:0:
470,256,170911,1,0,0:0:0:0:
417,256,170988,1,10,0:1:0:0:
370,231,171065,1,0,0:0:0:0:
343,185,171142,1,8,0:1:0:0:
301,152,171219,1,8,0:1:0:0:
248,149,171296,1,10,0:3:0:0:
200,171,171373,1,8,0:3:0:0:
174,217,171450,1,10,0:1:0:0:
181,269,171527,1,8,0:1:0:0:
221,302,171604,5,12,0:0:0:0:
269,260,171681,1,0,0:0:0:0:
273,196,171757,1,10,0:3:0:0:
230,147,171834,1,8,0:3:0:0:
191,103,171911,1,10,0:1:0:0:
185,47,171988,1,8,0:1:0:0:
227,0,172065,5,14,0:0:0:0:
255,44,172142,1,0,0:0:0:0:
237,93,172219,1,10,0:3:0:0:
194,123,172296,1,8,0:3:0:0:
153,124,172373,1,10,0:1:0:0:
111,101,172450,1,8,0:1:0:0:
71,97,172527,1,12,0:0:0:0:
28,117,172604,1,0,0:0:0:0:
5,158,172681,1,2,0:0:0:0:
7,204,172757,1,2,0:0:0:0:
42,245,172834,5,14,0:1:0:0:
64,237,172911,1,8,0:1:0:0:
86,230,172988,1,10,0:0:0:0:
108,223,173065,1,8,0:0:0:0:
151,188,173142,5,10,0:0:0:0:
172,190,173219,1,8,0:0:0:0:
195,195,173296,1,10,0:1:0:0:
218,200,173373,1,8,0:1:0:0:
260,242,173450,5,10,0:0:0:0:
277,236,173527,1,8,0:0:0:0:
295,230,173604,1,10,0:1:0:0:
312,225,173681,1,8,0:1:0:0:
339,208,173757,5,10,0:0:0:0:
353,209,173834,1,2,0:0:0:0:
370,213,173911,1,10,0:0:0:0:
386,216,173988,1,8,0:0:0:0:
428,235,174065,6,0,P|343:225|283:285,1,175.499991966248,14|8,0:1|0:0,0:0:0:0:
158,319,174373,5,8,0:0:0:0:
212,280,174450,1,8,0:0:0:0:
275,282,174527,1,10,0:0:0:0:
328,323,174604,1,10,0:0:0:0:
335,373,174681,5,10,0:0:0:0:
286,364,174757,1,8,0:0:0:0:
252,319,174834,1,8,0:3:0:0:
250,269,174911,1,8,0:3:0:0:
291,223,174988,1,8,0:3:0:0:
347,192,175065,1,8,0:3:0:0:
396,136,175142,1,8,0:3:0:0:
388,63,175219,1,8,0:3:0:0:
330,15,175296,6,0,B|311:171|357:80|339:244,1,215.999993408203,14|8,0:1|0:0,0:0:0:0:
466,176,175757,1,2,0:0:0:0:
502,281,175911,2,0,P|509:335|514:378,1,80.9999975280763,10|0,0:1|0:0,0:0:0:0:
255,310,176219,5,8,0:0:0:0:
366,214,176373,1,2,0:0:0:0:
415,365,176527,6,0,P|327:362|260:319,1,161.999995056153,10|8,0:1|0:0,0:0:0:0:
266,180,176988,1,2,0:0:0:0:
129,361,177142,2,0,B|119:303|134:324|120:264,1,80.9999975280763,10|0,0:1|0:0,0:0:0:0:
184,177,177450,5,10,0:0:0:0:
86,256,177604,1,10,0:3:0:0:
0,153,177757,2,0,P|43:170|102:174,1,80.9999975280763,14|0,0:1|0:0,0:0:0:0:
260,124,178065,5,10,0:0:0:0:
135,0,178219,2,0,B|119:42|119:42|125:80,1,80.9999975280763,2|8,0:0|0:1,0:0:0:0:
318,11,178527,2,0,P|375:31|435:35,1,121.499996292114,2|0,0:0|0:0,0:0:0:0:
451,30,178834,5,2,0:0:0:0:
289,105,178988,2,0,B|250:100|250:100|203:119,1,80.9999975280763,10|0,0:1|0:0,0:0:0:0:
428,194,179296,2,0,P|418:261|414:318,1,121.499996292114,10|0,0:0|0:0,0:0:0:0:
419,332,179604,6,0,B|341:325|385:343|301:342,1,108,10|0,0:1|0:0,0:0:0:0:
161,312,179911,6,0,P|190:305|213:298,1,53.9999983520508,8|0,0:0|0:0,0:0:0:0:
272,383,180065,1,8,0:0:0:0:
272,383,180142,1,8,0:0:0:0:
272,383,180219,6,0,P|264:316|254:206,1,161.999995056153,14|8,0:1|0:0,0:0:0:0:
303,113,180681,1,2,0:0:0:0:
111,179,180834,2,0,P|175:225|254:221,1,161.999995056153,10|8,0:1|0:0,0:0:0:0:
231,41,181296,6,0,P|230:17|223:-9,1,40.4999987640381,2|0,0:0|0:0,0:0:0:0:
303,113,181450,2,0,B|291:162|291:162|297:206,1,80.9999975280763,10|0,0:1|0:0,0:0:0:0:
408,61,181757,5,10,0:0:0:0:
210,131,181911,2,0,B|126:138|189:147|68:163,1,121.499996292114,2|0,0:0|0:0,0:0:0:0:
64,147,182219,6,0,B|47:114|47:114|52:66,1,80.9999975280763,2|12,0:0|0:0,0:0:0:0:
201,218,182527,1,10,0:0:0:0:
0,338,182681,6,0,P|32:331|77:322,1,53.9999983520508,14|0,0:1|0:0,0:0:0:0:
300,190,182834,1,8,0:0:0:0:
300,190,182911,1,8,0:0:0:0:
300,190,182988,2,0,P|292:228|290:261,1,53.9999983520508,10|0,0:0|0:0,0:0:0:0:
213,384,183142,6,0,P|208:357|203:330,1,53.9999983520508,8|0,0:3|0:0,0:0:0:0:
394,281,183296,1,10,0:0:0:0:
427,262,183373,1,8,0:0:0:0:
464,262,183450,1,8,0:0:0:0:
496,281,183527,1,8,0:0:0:0:
512,315,183604,6,0,P|478:306|447:300,1,53.9999983520508,10|0,0:0|0:0,0:0:0:0:
383,153,183757,2,0,P|388:127|398:92,1,53.9999983520508,8|8,0:0|0:0,0:0:0:0:
183,3,183911,5,10,0:0:0:0:
154,55,183988,1,8,0:3:0:0:
167,112,184065,1,10,0:1:0:0:
215,146,184142,1,8,0:1:0:0:
274,149,184219,5,10,0:0:0:0:
237,102,184296,1,8,0:3:0:0:
177,102,184373,1,10,0:1:0:0:
130,139,184450,1,8,0:1:0:0:
132,198,184527,5,10,0:0:0:0:
150,165,184604,1,8,0:3:0:0:
132,131,184681,1,10,0:1:0:0:
87,122,184757,1,8,0:1:0:0:
45,146,184834,6,0,B|69:231|41:191|59:278,1,135.000005149842,8|8,0:0|0:0,0:0:0:0:
238,314,185065,1,8,0:0:0:0:
238,314,185142,6,0,P|181:311|139:277,1,107.999996704102,14|8,0:1|0:1,0:0:0:0:
215,229,185373,1,2,0:0:0:0:
215,229,185450,1,8,0:0:0:0:
317,384,185604,2,0,P|320:353|324:320,1,53.9999983520508,10|8,0:1|0:0,0:0:0:0:
288,90,185757,6,0,B|279:145|279:145|301:208,1,107.999996704102,10|8,0:1|0:1,0:0:0:0:
377,231,185988,1,2,0:0:0:0:
377,231,186065,2,0,P|416:238|454:258,1,53.9999983520508,8|0,0:0|0:0,0:0:0:0:
512,146,186219,2,0,P|478:154|449:159,1,53.9999983520508,2|0,0:0|0:0,0:0:0:0:
370,104,186373,6,0,P|366:48|387:2,1,107.999996704102,10|8,0:1|0:1,0:0:0:0:
456,61,186604,1,2,0:0:0:0:
456,61,186681,1,8,0:0:0:0:
296,194,186834,1,10,0:1:0:0:
124,85,186988,1,10,0:1:0:0:
227,140,187142,1,10,0:1:0:0:
105,197,187296,1,10,0:0:0:0:
274,70,187450,2,0,B|280:44|280:44|277:7,1,53.9999983520508,2|0,0:0|0:0,0:0:0:0:
223,263,187604,6,0,P|212:325|208:379,1,107.999996704102,10|8,0:1|0:1,0:0:0:0:
0,213,187911,2,0,P|52:214|107:197,1,107.999996704102,10|8,0:0|0:1,0:0:0:0:
373,112,188219,5,10,0:1:0:0:
424,278,188373,1,8,0:1:0:0:
499,173,188527,5,10,0:0:0:0:
324,221,188681,1,8,0:1:0:0:
218,127,188834,5,10,0:0:0:0:
433,264,188988,1,8,0:1:0:0:
116,291,189142,5,10,0:0:0:0:
352,204,189296,1,8,0:1:0:0:
103,78,189450,5,10,0:0:0:0:
298,342,189604,1,8,0:1:0:0:
332,4,189757,5,10,0:0:0:0:
229,272,189911,1,8,0:1:0:0:
478,160,190065,6,0,P|453:153|418:144,1,53.9999983520508,14|0,0:0|0:0,0:0:0:0:
461,296,190219,1,8,0:0:0:0:
461,296,190296,1,10,0:0:0:0:
461,296,190373,2,0,P|487:286|524:283,1,53.9999983520508,8|0,0:0|0:0,0:0:0:0:
330,141,190527,2,0,P|334:111|343:76,1,53.9999983520508,10|0,0:3|0:0,0:0:0:0:
197,278,190681,5,10,0:3:0:0:
212,296,190757,1,8,0:3:0:0:
220,320,190834,1,8,0:1:0:0:
223,344,190911,1,10,0:1:0:0:
220,368,190988,5,8,0:0:0:0:
161,339,191065,1,0,0:0:0:0:
163,277,191142,1,10,0:1:0:0:
213,243,191219,1,8,0:1:0:0:
276,261,191296,6,0,P|269:298|267:319,1,53.9999983520508,14|0,0:0|0:0,0:0:0:0:
6,195,191450,1,8,0:0:0:0:
6,195,191527,1,10,0:0:0:0:
6,195,191604,2,0,P|31:206|65:213,1,53.9999983520508,8|0,0:0|0:0,0:0:0:0:
308,0,191757,2,0,P|314:31|318:66,1,53.9999983520508,10|8,0:0|0:1,0:0:0:0:
464,169,191911,5,10,0:0:0:0:
414,191,191988,1,8,0:0:0:0:
359,191,192065,1,10,0:0:0:0:
308,172,192142,1,8,0:0:0:0:
266,137,192219,1,10,0:0:0:0:
230,96,192296,1,8,0:0:0:0:
179,75,192373,1,10,0:0:0:0:
125,79,192450,1,8,0:0:0:0:
80,102,192527,6,0,P|146:114|213:57,1,148.50000453186,14|0,0:1|0:0,0:0:0:0:
210,55,192834,2,0,B|210:27|210:27|199:-3,1,49.5000015106202,10|0,0:1|0:0,0:0:0:0:
313,116,192988,2,0,P|338:112|365:108,1,49.5000015106202,8|0,0:1|0:0,0:0:0:0:
162,270,193142,5,10,0:0:0:0:
191,157,193296,1,2,0:0:0:0:
272,243,193450,1,2,0:0:0:0:
208,219,193604,1,10,0:0:0:0:
294,384,193757,1,8,0:1:0:0:
229,282,193911,1,10,0:0:0:0:
353,220,194065,1,10,0:1:0:0:
415,331,194219,1,8,0:1:0:0:
162,270,194373,6,0,B|109:280|133:284|85:296,1,80.9999975280763,10|2,0:0|0:0,0:0:0:0:
269,30,194681,2,0,P|277:78|283:119,1,80.9999975280763,10|8,0:1|0:0,0:0:0:0:
465,229,194989,5,14,0:1:0:0:
480,173,195143,1,2,0:0:0:0:
444,196,195296,5,10,0:1:0:0:
501,209,195450,1,8,0:1:0:0:
398,125,195604,5,10,0:0:0:0:
354,245,195757,1,2,0:0:0:0:
261,160,195911,5,2,0:0:0:0:
335,171,196065,1,10,0:0:0:0:
262,295,196219,5,8,0:1:0:0:
211,50,196373,1,10,0:0:0:0:
103,120,196527,5,2,0:0:0:0:
31,222,196681,2,0,P|23:200|7:177,1,36,8|8,0:1|0:1,0:0:0:0:
0,178,196834,6,0,P|91:167|164:225,1,188.999994232178,14|0,0:0|0:0,0:0:0:0:
176,236,197450,6,0,B|156:135|184:190|155:62,1,161.999995056153,14|0,0:1|0:0,0:0:0:0:
137,46,197757,5,8,0:0:0:0:
391,302,197911,1,8,0:0:0:0:
87,231,198065,5,8,0:0:0:0:
440,103,198219,1,8,0:0:0:0:
224,339,198373,5,8,0:0:0:0:
303,0,198527,1,8,0:0:0:0:
512,186,198681,1,14,0:1:0:0:
256,192,198719,12,14,199911,0:1:0:0:
256,192,204681,5,10,0:1:0:0:
256,192,204834,1,10,0:1:0:0:
290,262,206065,5,10,0:1:0:0:
466,108,206373,5,8,0:0:0:0:
316,140,206527,2,0,B|385:154|352:167|425:184,1,107.999996704102,8|8,0:1|0:1,0:0:0:0:
414,181,206911,1,10,0:1:0:0:
414,181,206988,1,8,0:0:0:0:
228,64,207142,2,0,B|223:31|223:31|236:-3,1,67.5000025749208,10|8,0:3|0:3,0:0:0:0:
62,171,207296,6,0,P|27:167|-2:151,1,67.5,14|0,0:1|0:0,0:0:0:0:
95,257,208527,6,0,B|91:284|91:284|76:311,1,53.9999983520508,10|0,0:0|0:0,0:0:0:0:
174,72,208681,6,0,P|165:45|162:1,1,62.9999980773926,10|0,0:0|0:0,0:0:0:0:
317,176,208835,5,10,0:0:0:0:
309,231,208911,5,0,0:0:0:0:
261,269,208988,5,10,0:0:0:0:
203,266,209065,5,0,0:0:0:0:
167,218,209142,5,10,0:0:0:0:
183,225,209218,5,10,0:0:0:0:
198,210,209295,5,10,0:0:0:0:
221,227,209372,5,10,0:0:0:0:
257,205,209449,5,10,0:0:0:0:
301,227,209526,5,10,0:0:0:0:
343,197,209603,5,10,0:0:0:0:
399,222,209680,5,10,0:0:0:0:
451,182,209758,6,0,P|448:195|446:213,1,27,2|0,0:0|0:0,0:0:0:0:
358,384,210065,6,0,P|344:299|328:184,1,202.500007724762,14|0,0:0|0:0,0:0:0:0:
286,119,210373,5,10,0:1:0:0:
353,100,210450,1,8,0:0:0:0:
418,123,210527,1,8,0:0:0:0:
436,189,210604,1,8,0:0:0:0:
418,241,210681,5,10,0:0:0:0:
408,211,210758,1,8,0:0:0:0:
417,185,210835,1,8,0:1:0:0:
439,166,210911,1,8,0:1:0:0:
467,168,210988,5,10,0:0:0:0:
414,199,211065,1,8,0:3:0:0:
350,203,211142,1,8,0:3:0:0:
293,169,211219,1,8,0:3:0:0:
262,111,211296,1,8,0:1:0:0:
272,56,211373,1,8,0:1:0:0:
293,33,211450,1,8,0:0:0:0:
306,22,211527,1,8,0:3:0:0:
321,19,211604,5,10,0:3:0:0:
347,74,211681,1,8,0:3:0:0:
319,138,211758,1,10,0:1:0:0:
251,162,211835,1,8,0:1:0:0:
186,131,211911,1,10,0:0:0:0:
119,96,211988,1,8,0:0:0:0:
41,112,212065,1,10,0:0:0:0:
0,180,212142,1,8,0:0:0:0:
27,248,212219,6,0,P|41:199|21:67,1,175.499991966248,14|8,0:1|0:1,0:0:0:0:
128,0,212527,2,0,B|111:47|111:47|119:101,1,99.0000030212403,10|8,0:0|0:1,0:0:0:0:
370,345,212834,5,10,0:1:0:0:
170,252,212988,1,8,0:1:0:0:
170,252,213065,1,8,0:1:0:0:
170,252,213142,1,10,0:0:0:0:
291,165,213296,5,0,0:0:0:0:
87,383,213450,2,0,B|70:293|94:339|80:228,1,148.50000453186,10|0,0:1|0:0,0:0:0:0:
73,221,213757,5,10,0:0:0:0:
284,320,213911,1,8,0:1:0:0:
355,102,214065,5,10,0:1:0:0:
212,215,214219,1,10,0:1:0:0:
441,239,214373,5,10,0:0:0:0:
205,47,214527,1,0,0:0:0:0:
179,370,214681,6,0,P|176:342|165:283,1,80.9999975280763,14|0,0:1|0:0,0:0:0:0:
159,277,214988,6,0,B|267:296|210:308|330:334,1,161.999995056153,10|8,0:0|0:0,0:0:0:0:
326,328,215296,1,8,0:1:0:0:
471,194,215450,1,8,0:1:0:0:
294,128,215603,5,10,0:0:0:0:
510,280,215757,1,2,0:0:0:0:
305,369,215911,6,0,P|308:321|317:268,1,99.0000030212403,14|8,0:1|0:1,0:0:0:0:
512,98,216219,2,0,P|439:100|365:59,1,148.50000453186,10|8,0:0|0:0,0:0:0:0:
362,52,216527,6,0,B|357:25|357:25|373:-11,1,49.5000015106202,10|0,0:1|0:0,0:0:0:0:
203,227,216681,2,0,P|195:284|188:338,1,99.0000030212403,10|8,0:1|0:0,0:0:0:0:
51,174,216988,1,2,0:0:0:0:
264,31,217142,6,0,P|277:112|289:202,1,148.50000453186,14|0,0:1|0:0,0:0:0:0:
404,251,217450,2,0,B|470:234|430:227|510:213,1,99.0000030212403,14|8,0:0|0:1,0:0:0:0:
193,144,217757,5,14,0:1:0:0:
307,355,217911,1,10,0:1:0:0:
91,296,218065,5,14,0:0:0:0:
385,167,218219,1,0,0:0:0:0:
149,25,218373,5,14,0:1:0:0:
122,55,218450,1,8,0:0:0:0:
110,93,218527,1,8,0:0:0:0:
114,132,218604,1,8,0:0:0:0:
130,168,218681,1,8,0:0:0:0:
159,193,218757,1,8,0:0:0:0:
197,201,218834,1,8,0:0:0:0:
236,195,218911,1,8,0:0:0:0:
260,166,218988,5,14,0:1:0:0:
229,133,219065,1,8,0:1:0:0:
184,125,219142,1,10,0:1:0:0:
142,141,219219,1,8,0:1:0:0:
124,181,219296,1,10,0:1:0:0:
87,205,219373,1,8,0:1:0:0:
42,209,219450,1,10,0:1:0:0:
11,176,219527,1,8,0:1:0:0:
15,120,219604,6,0,B|-2:218|30:169|10:276,1,148.50000453186,14|0,0:1|0:0,0:0:0:0:
3,282,219911,1,10,0:0:0:0:
271,196,220065,1,8,0:1:0:0:
118,60,220219,5,10,0:1:0:0:
251,293,220373,1,8,0:1:0:0:
264,0,220527,5,10,0:0:0:0:
170,232,220680,1,0,0:0:0:0:
458,118,220834,6,0,B|389:104|433:99|356:83,1,99.0000030212403,10|8,0:1|0:1,0:0:0:0:
419,312,221142,2,0,P|463:292|516:292,1,99.0000030212403,8|8,0:0|0:1,0:0:0:0:
512,291,221373,1,8,0:0:0:0:
512,291,221450,1,10,0:1:0:0:
257,158,221603,1,8,0:1:0:0:
452,209,221757,5,10,0:0:0:0:
221,287,221911,1,2,0:0:0:0:
418,124,222065,6,0,P|461:107|521:112,1,99.0000030212403,10|8,0:1|0:1,0:0:0:0:
327,384,222373,2,0,B|309:344|309:344|315:289,1,99.0000030212403,10|8,0:0|0:1,0:0:0:0:
170,102,222680,5,10,0:1:0:0:
380,214,222834,1,8,0:1:0:0:
128,348,222988,2,0,P|121:302|112:247,1,99.0000030212403,10|0,0:0|0:0,0:0:0:0:
345,3,223296,6,0,P|333:58|331:104,1,99.0000030212403,10|8,0:1|0:1,0:0:0:0:
475,313,223603,1,10,0:0:0:0:
266,165,223757,1,8,0:1:0:0:
266,165,223834,1,8,0:0:0:0:
266,165,223911,1,10,0:1:0:0:
211,291,224065,5,10,0:1:0:0:
413,196,224219,1,10,0:0:0:0:
199,41,224373,1,0,0:0:0:0:
351,119,224527,5,14,0:1:0:0:
107,240,224680,1,8,0:1:0:0:
306,384,224834,6,0,B|289:296|314:337|298:242,1,135.000005149842,14|8,0:0|0:3,0:0:0:0:
236,187,225065,1,8,0:3:0:0:
236,187,225142,6,0,P|211:182|187:175,1,49.5000015106202,8|8,0:3|0:3,0:0:0:0:
351,119,225296,2,0,P|383:126|408:128,1,49.5000015106202,8|8,0:1|0:1,0:0:0:0:
232,57,225450,5,14,0:0:0:0:
368,206,225603,1,2,0:0:0:0:
512,23,225757,6,0,P|505:76|501:121,1,99.0000030212403,14|8,0:1|0:1,0:0:0:0:
220,329,226065,2,0,B|200:254|223:287|207:216,1,99.0000030212403,14|8,0:0|0:3,0:0:0:0:
211,216,226296,1,8,0:3:0:0:
229,172,226373,5,10,0:3:0:0:
213,191,226450,1,8,0:3:0:0:
191,200,226527,1,10,0:1:0:0:
167,203,226603,1,8,0:1:0:0:
143,195,226680,1,12,0:0:0:0:
87,62,226834,2,0,P|99:37|103:4,1,49.5000015106202,10|0,0:1|0:0,0:0:0:0:
0,226,226988,6,0,P|10:259|15:287,1,49.5000015106202,14|0,0:0|0:0,0:0:0:0:
191,384,227142,1,8,0:1:0:0:
191,384,227219,1,0,0:0:0:0:
191,384,227296,2,0,P|186:352|177:312,1,49.5000015106202,14|0,0:0|0:0,0:0:0:0:
365,59,227450,2,0,P|358:93|354:120,1,49.5000015106202,12|0,0:0|0:0,0:0:0:0:
242,222,227604,5,8,0:1:0:0:
276,185,227681,1,8,0:1:0:0:
324,181,227757,1,8,0:0:0:0:
363,206,227834,1,8,0:3:0:0:
383,242,227911,1,10,0:0:0:0:
406,270,227988,1,8,0:3:0:0:
444,280,228065,1,8,0:1:0:0:
482,266,228142,1,8,0:1:0:0:
499,241,228219,6,0,P|468:247|423:256,1,67.5000025749208,14|0,0:0|0:0,0:0:0:0:
266,360,228373,1,8,0:0:0:0:
226,304,228450,1,8,0:0:0:0:
243,238,228527,1,8,0:0:0:0:
294,194,228604,1,8,0:0:0:0:
336,141,228681,1,8,0:0:0:0:
330,69,228757,1,8,0:0:0:0:
279,18,228834,5,10,0:0:0:0:
272,77,228911,1,8,0:0:0:0:
314,130,228988,1,8,0:3:0:0:
376,137,229065,1,8,0:3:0:0:
430,103,229142,5,8,0:3:0:0:
427,93,229219,1,8,0:3:0:0:
424,81,229296,1,8,0:1:0:0:
421,69,229373,1,8,0:1:0:0:
418,57,229450,5,14,0:0:0:0:
143,174,229604,1,10,0:1:0:0:
143,174,229757,1,10,0:1:0:0:
190,52,229911,5,12,0:0:0:0:
358,274,230065,1,10,0:1:0:0:
358,274,230219,1,8,0:1:0:0:
227,281,230373,5,14,0:0:0:0:
408,188,230527,1,8,0:1:0:0:
60,89,230681,5,14,0:0:0:0:
284,217,230834,1,8,0:1:0:0:
84,350,230988,1,10,0:1:0:0:
218,83,231142,5,12,0:0:0:0:
0,232,231296,1,8,0:1:0:0:
226,345,231450,1,8,0:1:0:0:
162,176,231604,5,14,0:0:0:0:
351,268,231757,1,10,0:1:0:0:
203,364,231911,6,0,P|205:328|212:288,1,58.4999973220826,14|0,0:0|0:0,0:0:0:0:
316,195,232065,1,10,0:3:0:0:
350,167,232142,1,8,0:3:0:0:
395,162,232219,1,10,0:1:0:0:
427,177,232296,1,8,0:1:0:0:
448,207,232373,1,14,0:0:0:0:
480,220,232450,1,2,0:0:0:0:
510,215,232527,5,10,0:3:0:0:
473,187,232604,1,8,0:3:0:0:
422,193,232681,1,8,0:1:0:0:
385,227,232757,1,8,0:1:0:0:
379,274,232834,2,0,P|386:309|391:343,1,58.4999973220826,14|0,0:0|0:0,0:0:0:0:
179,117,232988,2,0,P|182:90|188:44,1,58.4999973220826,10|0,0:1|0:0,0:0:0:0:
140,238,233142,5,10,0:0:0:0:
107,256,233219,1,8,0:3:0:0:
66,257,233296,1,8,0:3:0:0:
27,243,233373,1,8,0:3:0:0:
4,208,233450,2,0,B|4:177|4:177|18:137,1,58.4999973220826,10|8,0:1|0:1,0:0:0:0:
324,173,233604,5,10,0:0:0:0:
324,173,233681,1,8,0:3:0:0:
324,173,233757,2,0,P|329:208|334:241,1,58.4999973220826,8|8,0:3|0:3,0:0:0:0:
135,384,233911,2,0,B|132:360|132:360|142:328,1,58.4999973220826,10|8,0:1|0:1,0:0:0:0:
333,231,234065,6,0,P|420:233|492:294,1,175.499991966248,14|0,0:0|0:0,0:0:0:0:
492,299,234373,5,14,0:1:0:0:
237,188,234527,1,10,0:1:0:0:
436,123,234681,5,10,0:0:0:0:
208,281,234834,1,10,0:1:0:0:
359,205,234988,5,10,0:1:0:0:
166,47,235142,1,10,0:1:0:0:
123,279,235296,1,10,0:0:0:0:
237,188,235450,5,2,0:0:0:0:
0,250,235604,1,10,0:1:0:0:
223,198,235757,5,8,0:1:0:0:
21,256,235911,1,10,0:0:0:0:
126,384,236065,6,0,P|130:345|137:283,1,99.0000030212403,8|8,0:1|0:1,0:0:0:0:
84,109,236373,1,8,0:1:0:0:
351,235,236527,2,0,P|346:195|337:126,1,99.0000030212403,10|10,0:0|0:0,0:0:0:0:
316,329,236834,5,14,0:1:0:0:
492,231,236988,1,10,0:1:0:0:
215,148,237142,5,10,0:0:0:0:
461,243,237296,1,10,0:1:0:0:
427,69,237450,5,2,0:0:0:0:
316,329,237604,1,10,0:1:0:0:
316,329,237681,1,8,0:1:0:0:
316,329,237757,2,0,B|402:347|354:354|439:373,1,125.999996154785,14|0,0:0|0:0,0:0:0:0:
191,273,238065,5,14,0:1:0:0:
189,283,238142,1,8,0:1:0:0:
187,293,238219,1,8,0:1:0:0:
185,304,238296,1,8,0:1:0:0:
184,314,238373,1,14,0:0:0:0:
182,325,238450,1,8,0:1:0:0:
180,335,238527,1,10,0:1:0:0:
178,346,238604,1,8,0:1:0:0:
177,356,238681,5,10,0:0:0:0:
140,350,238757,5,8,0:0:0:0:
106,317,238834,5,10,0:1:0:0:
102,261,238911,5,10,0:1:0:0:
138,210,238988,5,10,0:0:0:0:
201,187,239065,5,2,0:0:0:0:
251,133,239142,5,2,0:0:0:0:
250,57,239219,5,2,0:0:0:0:
176,11,239296,6,0,P|183:50|187:88,1,62.9999980773926,14|8,0:1|0:1,0:0:0:0:
313,208,239450,1,8,0:0:0:0:
352,222,239527,1,8,0:0:0:0:
396,214,239604,1,10,0:0:0:0:
419,185,239681,1,8,0:0:0:0:
453,175,239757,1,8,0:1:0:0:
489,176,239834,1,8,0:1:0:0:
510,192,239911,5,10,0:0:0:0:
475,222,239988,1,8,0:0:0:0:
418,236,240065,1,8,0:1:0:0:
361,222,240142,1,8,0:1:0:0:
328,180,240219,1,10,0:1:0:0:
282,136,240296,1,8,0:1:0:0:
223,116,240373,1,8,0:0:0:0:
161,122,240450,1,8,0:0:0:0:
115,156,240527,1,14,0:1:0:0:
118,152,240835,5,10,0:0:0:0:
502,240,240988,1,8,0:0:0:0:
251,7,241142,5,10,0:0:0:0:
367,384,241296,1,10,0:0:0:0:
444,51,241450,5,10,0:0:0:0:
175,339,241604,1,10,0:0:0:0:
303,205,241757,5,10,0:0:0:0:
303,205,241834,1,8,0:3:0:0:
303,205,241911,2,0,P|297:245|294:276,1,62.9999980773926,8|8,0:0|0:3,0:0:0:0:
151,100,242065,2,0,P|146:68|138:38,1,62.9999980773926,10|8,0:1|0:1,0:0:0:0:
61,241,242219,2,0,P|30:246|0:257,1,62.9999980773926,8|8,0:0|0:3,0:0:0:0:
321,71,242373,5,10,0:0:0:0:
321,71,242450,1,8,0:3:0:0:
321,71,242527,2,0,P|325:40|330:9,1,62.9999980773926,8|8,0:1|0:1,0:0:0:0:
377,288,242681,2,0,P|441:327|517:321,1,148.50000453186,10|0,0:0|0:0,0:0:0:0:
466,210,242988,5,14,0:1:0:0:
233,57,244219,5,10,0:0:0:0:
297,339,244373,1,10,0:1:0:0:
478,210,244681,5,10,0:1:0:0:
478,210,244757,1,8,0:1:0:0:
478,210,244834,1,10,0:0:0:0:
388,257,244988,1,10,0:1:0:0:
293,138,245142,1,8,0:0:0:0:
52,264,245296,6,0,B|45:216|58:236|50:181,1,72,10|10,0:1|0:1,0:0:0:0:
49,178,245681,1,8,0:1:0:0:
49,178,245757,1,14,0:0:0:0:
207,232,245911,1,10,0:1:0:0:
337,128,246065,5,10,0:0:0:0:
203,335,246219,1,10,0:0:0:0:
265,28,246373,1,10,0:0:0:0:
512,222,246527,1,14,0:1:0:0:
256,192,246565,12,0,256911,0:0:0:0:
