osu file format v14

[General]
AudioFilename: audio.mp3
AudioLeadIn: 0
PreviewTime: 54926
Countdown: 0
SampleSet: Normal
StackLeniency: 0.7
Mode: 0
LetterboxInBreaks: 0
WidescreenStoryboard: 1

[Editor]
Bookmarks: 18618,19234,33387,35849,38311,43234,48157,53080,94926,104772,114618,119541,124464,129387,157849,161080,170926,175849,188157,190618,204157,205387,215233,234926,239849,243541
DistanceSpacing: 0.8
BeatDivisor: 4
GridSize: 32
TimelineZoom: 1.2

[Metadata]
Title:RESOLVE
TitleUnicode:RESOLVE
Artist:Tadokoro Azusa
ArtistUnicode:Tadokoro Azusa
Creator:caren_sk
Version:AR9.5
Source:BAKI
Tags:tadokoro azusa crn caren_sk baki
BeatmapID:0
BeatmapSetID:814129

[Difficulty]
HPDrainRate:7
CircleSize:4
OverallDifficulty:8
ApproachRate:9.5
SliderMultiplier:1.8
SliderTickRate:2

[Events]
//Background and Video events
0,0,"BG.jpg",0,0
//Break Periods
2,85080,94634
2,151742,154941
2,205587,212172
//Storyboard Layer 0 (Background)
//Storyboard Layer 1 (Fail)
//Storyboard Layer 2 (Pass)
//Storyboard Layer 3 (Foreground)
//Storyboard Sound Samples

[TimingPoints]
6311,307.692307692308,4,1,1,60,1,0
16157,-125,4,2,1,60,0,0
18464,-111.111111111111,4,1,1,60,0,0
50003,-142.857142857143,4,1,1,60,0,0
50618,-111.111111111111,4,1,1,60,0,0
54157,-100,4,2,1,60,0,0
54849,-100,4,1,1,5,0,0
54926,-100,4,2,1,70,0,0
55541,-100,4,1,1,70,0,1
80157,-100,4,1,1,60,0,1
80772,-100,4,1,1,65,0,1
81387,-100,4,1,1,70,0,1
82003,-100,4,1,1,75,0,1
82464,-100,4,1,1,80,0,1
83234,-100,4,1,1,85,0,1
83849,-100,4,1,1,70,0,0
95234,-125,4,1,1,60,0,0
104772,-111.111111111111,4,1,1,60,0,0
131234,-1000,4,1,1,70,0,0
131772,-1000,4,1,1,5,0,0
131849,-100,4,1,1,70,0,1
151541,-100,4,1,1,70,0,0
156157,307.692307692308,4,1,1,60,1,0
156157,-125,4,1,1,60,0,0
161080,-100,4,1,1,70,0,0
180772,-111.111111111111,4,1,1,60,0,0
190618,-111.111111111111,4,1,1,70,0,0
198003,-125,4,1,1,70,0,0
204157,-200,4,1,1,70,0,0
204695,-111.111111111111,4,1,1,5,0,0
204772,-111.111111111111,4,1,1,45,0,0
215233,-200,4,1,1,45,0,0
215233,-200,4,1,1,25,0,0
215541,-76.9230769230769,4,1,1,70,0,1
215849,-76.9230769230769,4,1,1,60,0,1
216464,-76.9230769230769,4,1,1,70,0,1
217080,-76.9230769230769,4,1,1,80,0,1
217695,-100,4,1,1,70,0,1
244772,-100,4,1,1,60,0,1
246003,-100,4,1,1,70,0,1
247233,-100,4,1,1,80,0,1
247849,-100,4,1,1,85,0,1
248464,-100,4,1,1,70,0,0
249695,-200,4,1,1,70,0,0
250157,-200,4,1,1,50,0,0
251541,-200,4,1,1,70,0,0
252080,-100,4,1,1,5,0,0

[Colours]
Combo1 : 0,0,136
Combo2 : 236,0,0
Combo3 : 0,101,202
Combo4 : 172,0,86

[HitObjects]
234,242,6311,6,0,L|184:234,3,45,14|0|0|0,0:0|0:0|0:0|0:0,0:0:0:0:
314,140,6618,2,0,L|364:148,3,45
253,29,6926,2,0,L|203:21,3,45,10|0|0|0,0:0|0:0|0:0|0:0,0:0:0:0:
323,43,7234,5,14,0:0:0:0:
148,123,7387,1,0,0:0:0:0:
148,123,7464,1,0,0:0:0:0:
148,123,7541,1,8,0:0:0:0:
325,217,7695,1,0,0:0:0:0:
325,217,7772,1,0,0:0:0:0:
325,217,7849,2,0,P|332:264|319:320,1,90,10|0,0:0|0:0,0:0:0:0:
245,359,8080,1,0,0:0:0:0:
245,359,8157,2,0,L|353:358,1,90,14|0,0:0|0:0,0:0:0:0:
501,284,8387,1,0,0:0:0:0:
501,284,8464,2,0,L|393:285,1,90,14|0,0:0|0:0,0:0:0:0:
259,264,8695,5,0,0:0:0:0:
231,248,8772,1,14,0:0:0:0:
199,246,8849,1,0,0:0:0:0:
169,256,8926,1,0,0:0:0:0:
147,278,9003,1,0,0:0:0:0:
122,297,9080,1,10,0:0:0:0:
91,304,9157,1,0,0:0:0:0:
59,303,9234,1,0,0:0:0:0:
32,286,9311,1,0,0:0:0:0:
16,258,9387,1,10,0:0:0:0:
80,119,9541,5,0,0:0:0:0:
84,150,9618,1,0,0:0:0:0:
87,181,9695,1,14,0:0:0:0:
192,308,9849,1,0,0:0:0:0:
196,277,9926,1,0,0:0:0:0:
199,246,10003,1,10,0:0:0:0:
208,146,10157,1,0,0:0:0:0:
356,231,10311,1,8,0:0:0:0:
122,297,10464,1,0,0:0:0:0:
263,368,10618,2,0,L|271:272,1,90,14|0,0:0|0:0,0:0:0:0:
463,65,10926,2,0,L|471:161,1,90,14|0,0:0|0:0,0:0:0:0:
486,255,11234,5,14,0:0:0:0:
471,293,11311,1,0,0:0:0:0:
437,314,11387,1,0,0:0:0:0:
396,315,11464,1,0,0:0:0:0:
358,299,11541,1,2,0:0:0:0:
295,188,11695,1,0,0:0:0:0:
168,319,11849,1,10,0:0:0:0:
75,172,12003,1,0,0:0:0:0:
224,117,12157,5,14,0:0:0:0:
221,132,12234,1,0,0:0:0:0:
218,148,12311,1,0,0:0:0:0:
216,164,12387,1,0,0:0:0:0:
213,180,12464,1,2,0:0:0:0:
211,196,12541,1,0,0:0:0:0:
208,211,12618,1,0,0:0:0:0:
206,227,12695,1,0,0:0:0:0:
203,243,12772,1,10,0:0:0:0:
75,172,12926,5,0,0:0:0:0:
301,70,13080,1,14,0:0:0:0:
301,70,13157,1,0,0:0:0:0:
301,70,13234,1,0,0:0:0:0:
62,27,13387,1,14,0:0:0:0:
62,27,13464,1,0,0:0:0:0:
62,27,13541,1,0,0:0:0:0:
144,182,13695,5,14,0:0:0:0:
41,315,13849,1,0,0:0:0:0:
9,156,14003,1,8,0:0:0:0:
214,265,14157,1,0,0:0:0:0:
41,315,14311,2,0,P|26:268|22:222,1,90,14|0,0:0|0:0,0:0:0:0:
428,109,14618,2,0,P|443:156|447:202,1,90,12|0,0:0|0:0,0:0:0:0:
256,368,14926,5,14,0:0:0:0:
212,344,15003,1,0,0:0:0:0:
187,300,15080,1,0,0:0:0:0:
191,250,15157,1,0,0:0:0:0:
223,212,15234,1,10,0:0:0:0:
269,194,15311,1,0,0:0:0:0:
315,208,15387,1,0,0:0:0:0:
344,247,15464,1,0,0:0:0:0:
332,295,15541,6,0,L|269:291,1,45,14|0,0:0|0:0,0:0:0:0:
95,171,15695,2,0,L|158:175,1,45
311,94,15849,2,0,L|307:157,1,45,14|0,0:0|0:0,0:0:0:0:
122,296,16003,2,0,L|118:233,1,45
16,192,16157,5,6,0:0:0:0:
16,192,16311,1,0,0:0:0:0:
496,192,16618,5,2,0:0:0:0:
496,192,16772,1,0,0:0:0:0:
496,192,16926,1,2,0:0:0:0:
256,16,17234,5,0,0:0:0:0:
160,160,17387,1,2,0:0:0:0:
352,160,17541,1,0,0:0:0:0:
256,208,17695,2,0,L|256:128,1,72,2|0,0:0|0:0,0:0:0:0:
256,136,17926,1,0,0:0:0:0:
256,136,18003,1,6,0:0:0:0:
256,336,18157,1,4,0:0:0:0:
256,336,18464,5,0,0:0:0:0:
256,336,18541,1,0,0:0:0:0:
256,336,18618,2,0,P|181:357|92:333,1,161.999995056153,12|0,0:0|0:0,0:0:0:0:
6,235,19080,1,0,0:0:0:0:
6,235,19234,2,0,P|81:214|170:238,1,161.999995056153,8|0,0:0|0:0,0:0:0:0:
237,167,19695,1,0,0:0:0:0:
332,212,19849,6,0,L|320:302,2,80.9999975280763,8|0|0,0:0|0:0|0:0,0:0:0:0:
444,122,20311,1,0,0:0:0:0:
489,216,20464,2,0,P|448:223|401:214,1,80.9999975280763,8|0,0:0|0:0,0:0:0:0:
403,29,20772,2,0,P|444:22|491:31,1,80.9999975280763
325,95,21080,6,0,L|313:5,1,80.9999975280763,8|0,0:0|0:0,0:0:0:0:
444,122,21387,1,0,0:0:0:0:
246,209,21541,1,0,0:0:0:0:
409,216,21695,2,0,P|414:260|410:305,1,80.9999975280763,8|0,0:0|0:0,0:0:0:0:
141,339,22003,2,0,P|136:295|140:250,1,80.9999975280763
165,164,22311,6,0,P|232:135|331:156,1,161.999995056153,8|0,0:0|0:0,0:0:0:0:
214,52,22772,1,0,0:0:0:0:
165,164,22926,2,0,P|98:193|-1:172,1,161.999995056153,8|0,0:0|0:0,0:0:0:0:
81,29,23387,5,0,0:0:0:0:
81,29,23464,1,0,0:0:0:0:
81,29,23541,2,0,L|85:116,1,80.9999975280763,8|0,0:0|0:0,0:0:0:0:
104,311,23849,1,0,0:0:0:0:
165,164,24003,1,0,0:0:0:0:
262,302,24157,2,0,L|170:305,1,80.9999975280763,8|0,0:0|0:0,0:0:0:0:
18,160,24464,2,0,L|110:163,1,80.9999975280763,8|0,0:0|0:0,0:0:0:0:
298,231,24772,6,0,L|120:239,1,161.999995056153,8|0,0:0|0:0,0:0:0:0:
0,316,25234,1,0,0:0:0:0:
166,384,25387,2,0,P|180:343|181:296,1,80.9999975280763,8|0,0:0|0:0,0:0:0:0:
18,160,25695,2,0,P|4:201|3:248,1,80.9999975280763,8|0,0:0|0:0,0:0:0:0:
88,318,26003,5,12,0:0:0:0:
88,318,26157,1,0,0:0:0:0:
144,143,26311,1,8,0:0:0:0:
144,143,26465,1,0,0:0:0:0:
338,327,26618,1,12,0:0:0:0:
338,327,26772,1,0,0:0:0:0:
384,90,26926,1,8,0:0:0:0:
384,90,27080,1,0,0:0:0:0:
432,220,27234,5,12,0:0:0:0:
468,58,27387,1,0,0:0:0:0:
299,203,27541,1,12,0:0:0:0:
512,237,27695,1,0,0:0:0:0:
280,372,27849,2,0,P|263:332|266:274,1,80.9999975280763,12|0,0:0|0:0,0:0:0:0:
271,238,28080,1,0,0:0:0:0:
299,203,28157,1,8,0:0:0:0:
340,186,28234,1,0,0:0:0:0:
384,186,28311,1,0,0:0:0:0:
426,196,28387,1,0,0:0:0:0:
461,223,28464,1,12,0:0:0:0:
461,223,28772,6,0,L|469:115,1,80.9999975280763
256,0,29080,2,0,L|245:140,1,121.499996292114,8|0,0:0|0:0,0:0:0:0:
241,164,29387,1,8,0:0:0:0:
125,61,29541,1,0,0:0:0:0:
102,208,29695,2,0,P|142:215|190:209,1,80.9999975280763,8|0,0:0|0:0,0:0:0:0:
406,43,30003,2,0,P|366:36|318:42,1,80.9999975280763
125,61,30311,1,8,0:0:0:0:
29,37,30464,1,0,0:0:0:0:
125,61,30618,2,0,P|129:100|118:149,1,80.9999975280763,8|0,0:0|0:0,0:0:0:0:
102,208,30849,1,0,0:0:0:0:
102,208,30926,6,0,P|61:212|10:206,1,80.9999975280763,12|0,0:0|0:0,0:0:0:0:
227,298,31234,1,8,0:0:0:0:
58,359,31387,2,0,P|51:320|55:280,1,80.9999975280763,0|8,0:0|0:0,0:0:0:0:
178,200,31695,1,0,0:0:0:0:
314,252,31849,2,0,P|321:291|317:331,1,80.9999975280763,8|0,0:0|0:0,0:0:0:0:
317,331,32080,1,0,0:0:0:0:
317,331,32157,1,12,0:0:0:0:
227,298,32311,5,0,0:0:0:0:
305,167,32464,1,0,0:0:0:0:
480,268,32618,1,0,0:0:0:0:
448,271,32695,1,0,0:0:0:0:
416,274,32772,1,12,0:0:0:0:
305,167,32926,1,0,0:0:0:0:
197,368,33080,1,12,0:0:0:0:
35,234,33234,5,0,0:0:0:0:
35,234,33311,1,0,0:0:0:0:
35,234,33387,2,0,P|116:213|199:228,1,161.999995056153,12|0,0:0|0:0,0:0:0:0:
462,158,33849,1,0,0:0:0:0:
462,158,33926,1,0,0:0:0:0:
462,158,34002,2,0,P|381:179|298:164,1,161.999995056153,12|0,0:0|0:0,0:0:0:0:
222,36,34464,5,0,0:0:0:0:
219,68,34541,1,0,0:0:0:0:
216,100,34618,1,12,0:0:0:0:
34,110,34772,1,0,0:0:0:0:
49,113,34849,1,0,0:0:0:0:
65,116,34926,1,8,0:0:0:0:
81,118,35002,1,0,0:0:0:0:
97,121,35079,1,0,0:0:0:0:
113,123,35156,1,0,0:0:0:0:
128,126,35233,1,12,0:0:0:0:
222,36,35387,5,0,0:0:0:0:
304,166,35541,1,12,0:0:0:0:
493,68,35695,2,0,P|427:58|361:68,1,121.499996292114,4|0,0:0|0:0,0:0:0:0:
305,79,36003,1,12,0:0:0:0:
465,151,36157,2,0,P|470:192|462:235,1,80.9999975280763,12|0,0:0|0:0,0:0:0:0:
458,285,36387,1,0,0:0:0:0:
442,326,36464,1,8,0:0:0:0:
407,354,36541,1,0,0:0:0:0:
362,357,36618,1,0,0:0:0:0:
323,335,36695,1,0,0:0:0:0:
305,293,36772,1,8,0:0:0:0:
210,156,36926,6,0,L|198:292,1,121.499996292114,12|0,0:0|0:0,0:0:0:0:
134,344,37234,2,0,L|129:282,1,40.4999987640381
93,187,37387,2,0,L|88:248,1,40.4999987640381,12|0,0:0|0:0,0:0:0:0:
25,303,37541,2,0,L|20:241,1,40.4999987640381
16,192,37695,1,12,0:0:0:0:
16,192,38311,5,8,0:0:0:0:
256,32,38926,1,8,0:0:0:0:
496,192,39541,1,8,0:0:0:0:
256,352,40157,1,8,0:0:0:0:
496,192,40772,5,8,0:0:0:0:
256,32,41387,1,8,0:0:0:0:
16,192,42002,1,8,0:0:0:0:
256,352,42618,1,8,0:0:0:0:
256,32,42926,1,8,0:0:0:0:
256,192,43234,5,14,0:0:0:0:
255,236,43311,1,0,0:0:0:0:
242,278,43387,1,0,0:0:0:0:
207,306,43464,1,0,0:0:0:0:
163,317,43541,1,10,0:0:0:0:
118,312,43618,1,0,0:0:0:0:
81,287,43695,1,0,0:0:0:0:
62,246,43772,1,0,0:0:0:0:
54,202,43849,2,0,L|73:155,3,40.4999987640381,10|0|0|0,0:0|0:0|0:0|0:0,0:0:0:0:
148,51,44157,2,0,L|165:103,3,40.4999987640381,10|0|0|0,0:0|0:0|0:0|0:0,0:0:0:0:
200,149,44464,5,10,0:0:0:0:
223,186,44541,1,0,0:0:0:0:
262,206,44618,1,0,0:0:0:0:
306,209,44695,1,0,0:0:0:0:
348,196,44772,1,10,0:0:0:0:
376,161,44849,1,0,0:0:0:0:
394,120,44926,1,0,0:0:0:0:
385,76,45003,1,0,0:0:0:0:
361,38,45080,2,0,P|348:26|319:20,3,40.4999987640381,10|0|0|0,0:0|0:0|0:0|0:0,0:0:0:0:
259,91,45387,2,0,P|272:103|301:109,3,40.4999987640381,10|0|0|0,0:0|0:0|0:0|0:0,0:0:0:0:
203,49,45695,5,14,0:0:0:0:
166,172,45849,1,0,0:0:0:0:
166,172,45926,1,0,0:0:0:0:
166,172,46003,1,8,0:0:0:0:
5,145,46157,1,0,0:0:0:0:
86,203,46311,1,14,0:0:0:0:
101,235,46387,1,0,0:0:0:0:
102,271,46464,1,0,0:0:0:0:
86,304,46541,1,0,0:0:0:0:
61,331,46618,1,10,0:0:0:0:
190,249,46772,5,0,0:0:0:0:
224,372,46926,1,14,0:0:0:0:
351,301,47080,1,0,0:0:0:0:
351,301,47157,1,0,0:0:0:0:
351,301,47234,2,0,L|259:302,1,80.9999975280763,8|0,0:0|0:0,0:0:0:0:
194,168,47541,2,0,P|187:211|192:259,1,80.9999975280763,14|0,0:0|0:0,0:0:0:0:
428,351,47849,2,0,P|435:308|430:260,1,80.9999975280763,10|0,0:0|0:0,0:0:0:0:
512,192,48157,6,0,P|452:183|388:195,1,121.499996292114,14|0,0:0|0:0,0:0:0:0:
347,212,48464,1,8,0:0:0:0:
335,77,48618,1,0,0:0:0:0:
347,212,48772,2,0,P|287:221|223:209,1,121.499996292114,14|0,0:0|0:0,0:0:0:0:
179,201,49079,1,8,0:0:0:0:
15,253,49234,6,0,L|10:117,1,121.499996292114,14|0,0:0|0:0,0:0:0:0:
90,32,49541,2,0,L|92:169,1,121.499996292114,14|0,0:0|0:0,0:0:0:0:
94,203,49849,1,8,0:0:0:0:
179,201,50003,2,0,L|191:1,1,188.999994232178,12|0,0:0|0:0,0:0:0:0:
293,72,50541,5,0,0:0:0:0:
293,72,50618,2,0,L|261:243,1,161.999995056153,14|0,0:0|0:0,0:0:0:0:
332,286,51080,1,0,0:0:0:0:
332,286,51157,1,0,0:0:0:0:
332,286,51234,2,0,L|390:119,1,161.999995056153,14|2,0:0|0:0,0:0:0:0:
481,198,51695,5,0,0:0:0:0:
481,198,51772,1,0,0:0:0:0:
481,198,51849,2,0,L|442:280,1,80.9999975280763,14|0,0:0|0:0,0:0:0:0:
272,372,52157,2,0,P|259:332|255:285,1,80.9999975280763,14|0,0:0|0:0,0:0:0:0:
219,113,52464,1,14,0:0:0:0:
184,290,52618,1,0,0:0:0:0:
58,181,52772,1,14,0:0:0:0:
354,212,52926,1,14,0:0:0:0:
403,275,54157,5,0,0:0:0:0:
403,275,54234,1,0,0:0:0:0:
403,275,54311,2,0,P|516:194|423:76,1,315
364,75,54926,5,2,0:0:0:0:
253,318,55080,1,0,0:0:0:0:
403,275,55234,1,2,0:0:0:0:
200,193,55387,1,0,0:0:0:0:
298,135,55541,6,0,L|303:233,1,90,14|0,0:0|0:0,0:0:0:0:
62,126,55849,2,0,L|57:28,1,90
28,201,56157,2,0,P|72:202|116:192,1,90,10|0,0:0|0:0,0:0:0:0:
321,79,56464,1,10,0:0:0:0:
417,205,56618,1,0,0:0:0:0:
404,78,56772,6,0,P|448:68|507:73,1,90,14|0,0:0|0:0,0:0:0:0:
469,299,57080,2,0,P|425:309|366:304,1,90
216,185,57387,1,8,0:0:0:0:
308,302,57541,1,0,0:0:0:0:
216,185,57695,1,8,0:0:0:0:
105,301,57849,1,0,0:0:0:0:
215,360,58003,6,0,P|226:313|214:252,1,90,14|0,0:0|0:0,0:0:0:0:
31,78,58311,2,0,P|20:125|32:186,1,90
47,231,58541,1,0,0:0:0:0:
47,231,58618,2,0,L|156:229,1,90,10|0,0:0|0:0,0:0:0:0:
309,113,58926,1,2,0:0:0:0:
221,271,59080,1,0,0:0:0:0:
484,303,59234,6,0,P|495:255|491:205,1,90,10|0,0:0|0:0,0:0:0:0:
318,25,59541,2,0,P|307:73|311:123,1,90,10|0,0:0|0:0,0:0:0:0:
212,359,59849,2,0,P|223:311|219:261,1,90,10|0,0:0|0:0,0:0:0:0:
46,81,60156,2,0,P|35:129|39:179,1,90,10|0,0:0|0:0,0:0:0:0:
149,199,60464,5,10,0:0:0:0:
13,273,60618,1,0,0:0:0:0:
149,199,60772,2,0,P|214:185|292:200,1,135,14|0,0:0|0:0,0:0:0:0:
340,217,61080,1,8,0:0:0:0:
356,103,61234,1,0,0:0:0:0:
340,217,61387,1,8,0:0:0:0:
500,258,61541,1,0,0:0:0:0:
340,217,61695,6,0,L|347:316,1,90,14|0,0:0|0:0,0:0:0:0:
494,348,62003,2,0,L|501:249,1,90,8|0,0:0|0:0,0:0:0:0:
493,67,62311,2,0,L|500:166,1,90,14|0,0:0|0:0,0:0:0:0:
499,156,62541,1,0,0:0:0:0:
499,156,62618,1,10,0:0:0:0:
299,120,62772,1,0,0:0:0:0:
435,207,62926,5,14,0:0:0:0:
378,25,63080,1,0,0:0:0:0:
218,238,63234,1,8,0:0:0:0:
145,58,63387,1,0,0:0:0:0:
299,120,63541,1,2,0:0:0:0:
115,262,63695,1,8,0:0:0:0:
357,317,63849,1,10,0:0:0:0:
258,180,64003,1,0,0:0:0:0:
192,352,64157,5,10,0:0:0:0:
143,363,64234,1,0,0:0:0:0:
94,355,64311,1,0,0:0:0:0:
55,324,64387,1,0,0:0:0:0:
32,279,64464,1,10,0:0:0:0:
29,229,64541,1,0,0:0:0:0:
54,186,64618,1,0,0:0:0:0:
95,159,64695,1,0,0:0:0:0:
132,183,64772,5,10,0:0:0:0:
176,189,64849,1,0,0:0:0:0:
218,173,64926,1,8,0:0:0:0:
248,139,65003,1,0,0:0:0:0:
253,94,65080,1,10,0:0:0:0:
236,52,65157,1,0,0:0:0:0:
198,26,65234,1,8,0:0:0:0:
150,26,65311,1,0,0:0:0:0:
122,60,65387,6,0,P|78:66|21:57,1,90,14|0,0:0|0:0,0:0:0:0:
421,179,65695,2,0,P|430:133|425:83,1,90
177,112,66003,2,0,P|168:158|173:208,1,90,10|0,0:0|0:0,0:0:0:0:
191,301,66311,5,10,0:0:0:0:
81,167,66464,1,0,0:0:0:0:
12,306,66618,2,0,L|221:301,1,180,14|0,0:0|0:0,0:0:0:0:
406,307,67080,1,0,0:0:0:0:
297,360,67234,2,0,P|286:313|298:252,1,90,10|0,0:0|0:0,0:0:0:0:
481,78,67542,2,0,P|492:125|480:186,1,90,8|0,0:0|0:0,0:0:0:0:
465,231,67772,1,0,0:0:0:0:
465,231,67849,6,0,L|356:229,1,90,14|0,0:0|0:0,0:0:0:0:
127,101,68157,1,0,0:0:0:0:
245,194,68311,1,0,0:0:0:0:
14,264,68464,2,0,P|10:217|19:160,1,90,10|0,0:0|0:0,0:0:0:0:
256,8,68772,2,0,P|260:55|251:112,1,90,10|0,0:0|0:0,0:0:0:0:
254,97,69003,1,0,0:0:0:0:
254,97,69080,1,14,0:0:0:0:
451,41,69234,5,0,0:0:0:0:
504,157,69387,2,0,P|459:170|400:169,1,90,10|0,0:0|0:0,0:0:0:0:
82,185,69695,2,0,P|127:172|186:173,1,90,10|0,0:0|0:0,0:0:0:0:
481,307,70003,2,0,P|436:320|377:319,1,90,10|0,0:0|0:0,0:0:0:0:
140,272,70311,5,10,0:0:0:0:
320,321,70464,1,0,0:0:0:0:
245,366,70618,2,0,L|240:221,1,135,14|0,0:0|0:0,0:0:0:0:
236,162,70926,1,8,0:0:0:0:
156,52,71080,1,0,0:0:0:0:
331,44,71234,1,8,0:0:0:0:
138,148,71387,1,0,0:0:0:0:
369,137,71541,6,0,P|418:129|473:108,1,90,10|0,0:0|0:0,0:0:0:0:
138,148,71849,2,0,P|89:144|32:128,1,90,10|0,0:0|0:0,0:0:0:0:
256,0,72157,2,0,L|260:97,1,90,14|0,0:0|0:0,0:0:0:0:
259,89,72387,1,0,0:0:0:0:
259,89,72464,1,10,0:0:0:0:
390,38,72618,1,0,0:0:0:0:
507,133,72772,5,14,0:0:0:0:
507,178,72849,1,0,0:0:0:0:
495,221,72926,1,0,0:0:0:0:
468,257,73003,1,0,0:0:0:0:
434,286,73080,1,10,0:0:0:0:
389,289,73157,1,0,0:0:0:0:
347,271,73234,1,0,0:0:0:0:
319,235,73311,1,0,0:0:0:0:
288,185,73387,5,10,0:0:0:0:
234,160,73464,1,0,0:0:0:0:
175,166,73541,1,0,0:0:0:0:
121,190,73618,1,0,0:0:0:0:
93,241,73695,1,10,0:0:0:0:
83,298,73772,1,0,0:0:0:0:
105,352,73849,1,0,0:0:0:0:
158,376,73926,1,0,0:0:0:0:
216,375,74003,6,0,P|222:335|221:312,1,45,10|0,0:0|0:0,0:0:0:0:
161,256,74157,2,0,P|155:296|156:319,1,45
295,333,74311,2,0,P|301:293|300:270,1,45,10|0,0:0|0:0,0:0:0:0:
240,214,74465,2,0,P|234:254|235:277,1,45
372,293,74618,2,0,P|378:253|377:230,1,45,10|0,0:0|0:0,0:0:0:0:
317,174,74772,2,0,P|311:214|312:237,1,45
448,250,74926,2,0,P|454:210|453:187,1,45,10|0,0:0|0:0,0:0:0:0:
393,131,75080,2,0,P|387:171|388:194,1,45
372,293,75234,37,14,0:0:0:0:
247,138,75387,1,0,0:0:0:0:
247,138,75541,1,8,0:0:0:0:
398,53,75695,1,8,0:0:0:0:
276,14,75849,1,6,0:0:0:0:
140,232,76003,1,8,0:0:0:0:
23,68,76157,2,0,L|132:78,1,90,6|0,0:0|0:0,0:0:0:0:
158,157,76387,1,0,0:0:0:0:
158,157,76464,6,0,L|49:147,1,90,14|0,0:0|0:0,0:0:0:0:
276,14,76772,2,0,P|281:59|274:108,1,90
67,237,77080,2,0,P|62:192|69:143,1,90,10|0,0:0|0:0,0:0:0:0:
399,57,77387,2,0,P|404:102|397:151,1,90,8|0,0:0|0:0,0:0:0:0:
398,146,77618,1,0,0:0:0:0:
398,146,77695,1,14,0:0:0:0:
279,175,77849,5,0,0:0:0:0:
483,236,78003,1,8,0:0:0:0:
288,364,78157,1,8,0:0:0:0:
264,140,78311,1,6,0:0:0:0:
460,260,78464,1,8,0:0:0:0:
221,361,78618,2,0,P|211:315|213:264,1,90,2|0,0:0|0:0,0:0:0:0:
278,207,78849,1,0,0:0:0:0:
278,207,78926,6,0,P|288:253|286:304,1,90,14|0,0:0|0:0,0:0:0:0:
10,308,79234,2,0,P|0:262|2:211,1,90,4|0,0:0|0:0,0:0:0:0:
210,48,79541,2,0,P|220:94|218:145,1,90,10|0,0:0|0:0,0:0:0:0:
206,201,79772,1,0,0:0:0:0:
206,201,79849,2,0,L|102:198,1,90,8|0,0:0|0:0,0:0:0:0:
1,112,80157,5,14,0:0:0:0:
1,112,80311,1,0,0:0:0:0:
107,343,80465,1,10,0:0:0:0:
107,343,80619,1,0,0:0:0:0:
405,343,80772,1,14,0:0:0:0:
405,343,80926,1,0,0:0:0:0:
511,112,81080,1,10,0:0:0:0:
511,112,81234,1,0,0:0:0:0:
256,16,81387,5,14,0:0:0:0:
256,192,81541,1,0,0:0:0:0:
128,160,81695,1,10,0:0:0:0:
352,256,81849,1,0,0:0:0:0:
160,256,82003,1,14,0:0:0:0:
384,160,82157,1,0,0:0:0:0:
66,236,82311,1,10,0:0:0:0:
254,374,82464,1,8,0:0:0:0:
254,374,82541,1,0,0:0:0:0:
254,374,82618,1,14,0:0:0:0:
256,96,82772,5,0,0:0:0:0:
384,320,82926,1,14,0:0:0:0:
96,128,83080,1,0,0:0:0:0:
416,128,83234,1,14,0:0:0:0:
128,320,83387,1,8,0:0:0:0:
256,16,83541,1,14,0:0:0:0:
456,350,83695,1,14,0:0:0:0:
45,239,83849,1,14,0:0:0:0:
303,94,95234,6,0,L|149:101,1,144,0|8,0:0|0:0,0:0:0:0:
0,204,95695,1,0,0:0:0:0:
19,104,95849,1,0,0:0:0:0:
0,204,96003,2,0,L|154:197,1,144,8|8,0:0|0:0,0:0:0:0:
244,192,96464,2,0,P|250:237|239:312,1,108,8|0,0:0|0:0,0:0:0:0:
230,352,96772,1,0,0:0:0:0:
405,298,96926,1,0,0:0:0:0:
405,298,97003,1,0,0:0:0:0:
405,298,97080,2,0,L|313:306,1,72,8|0,0:0|0:0,0:0:0:0:
366,205,97387,6,0,L|525:216,1,144,8|0,0:0|0:0,0:0:0:0:
440,119,97849,1,0,0:0:0:0:
290,188,98003,2,0,P|284:143|295:68,1,108,8|0,0:0|0:0,0:0:0:0:
304,28,98311,1,0,0:0:0:0:
211,107,98464,1,0,0:0:0:0:
142,36,98618,2,0,P|66:27|-22:45,1,144,8|0,0:0|0:0,0:0:0:0:
87,140,99080,1,0,0:0:0:0:
211,107,99234,2,0,L|221:19,1,72,8|0,0:0|0:0,0:0:0:0:
339,84,99541,2,0,L|349:172,1,72,8|0,0:0|0:0,0:0:0:0:
347,155,99772,1,0,0:0:0:0:
347,155,99849,1,12,0:0:0:0:
422,101,100003,5,0,0:0:0:0:
288,223,100157,1,0,0:0:0:0:
510,257,100311,1,0,0:0:0:0:
369,305,100464,2,0,P|362:266|365:219,1,72,8|0,0:0|0:0,0:0:0:0:
503,185,100772,2,0,P|510:224|507:271,1,72
256,384,101080,2,0,L|250:257,1,108,8|0,0:0|0:0,0:0:0:0:
248,232,101387,5,8,0:0:0:0:
156,291,101541,1,0,0:0:0:0:
156,78,101695,1,8,0:0:0:0:
348,195,101849,1,0,0:0:0:0:
348,195,101926,1,0,0:0:0:0:
348,195,102003,1,8,0:0:0:0:
348,195,102080,1,0,0:0:0:0:
348,195,102157,1,0,0:0:0:0:
348,195,102234,1,0,0:0:0:0:
348,195,102311,1,12,0:0:0:0:
156,78,102772,5,0,0:0:0:0:
159,110,102849,1,0,0:0:0:0:
163,142,102926,1,8,0:0:0:0:
277,94,103080,1,0,0:0:0:0:
103,222,103234,2,0,P|68:226|27:220,1,72,8|0,0:0|0:0,0:0:0:0:
31,221,103464,1,0,0:0:0:0:
31,221,103541,1,8,0:0:0:0:
212,286,103695,5,0,0:0:0:0:
212,286,103772,1,0,0:0:0:0:
212,286,103849,1,8,0:0:0:0:
91,332,104003,1,0,0:0:0:0:
256,368,104157,1,8,0:0:0:0:
288,334,104234,1,0,0:0:0:0:
304,290,104311,1,0,0:0:0:0:
299,243,104387,1,0,0:0:0:0:
263,212,104464,1,8,0:0:0:0:
348,131,104618,1,0,0:0:0:0:
263,212,104772,6,0,P|235:145|261:57,1,161.999995056153,12|0,0:0|0:0,0:0:0:0:
429,132,105234,2,0,L|337:131,1,80.9999975280763,0|8,0:0|0:0,0:0:0:0:
29,116,105541,1,0,0:0:0:0:
188,213,105695,1,0,0:0:0:0:
24,272,105849,5,0,0:0:0:0:
24,272,105926,1,0,0:0:0:0:
24,272,106003,2,0,P|10:233|8:188,1,80.9999975280763,8|0,0:0|0:0,0:0:0:0:
171,134,106311,2,0,P|185:173|187:218,1,80.9999975280763
488,272,106618,2,0,P|502:233|504:188,1,80.9999975280763,8|0,0:0|0:0,0:0:0:0:
341,134,106926,2,0,P|327:173|325:218,1,80.9999975280763
324,212,107157,1,0,0:0:0:0:
324,212,107234,1,8,0:0:0:0:
379,25,107387,5,0,0:0:0:0:
422,180,107541,1,0,0:0:0:0:
260,132,107695,1,0,0:0:0:0:
379,25,107849,2,0,P|420:21|467:28,1,80.9999975280763,8|0,0:0|0:0,0:0:0:0:
260,132,108157,2,0,P|219:136|172:129,1,80.9999975280763
179,131,108387,1,0,0:0:0:0:
179,131,108464,1,12,0:0:0:0:
111,30,108618,5,0,0:0:0:0:
76,205,108772,1,8,0:0:0:0:
0,116,108926,1,0,0:0:0:0:
234,205,109080,1,12,0:0:0:0:
37,347,109234,1,0,0:0:0:0:
224,366,109387,1,12,0:0:0:0:
37,347,109541,5,0,0:0:0:0:
37,347,109618,1,0,0:0:0:0:
37,347,109695,2,0,P|16:266|31:183,1,161.999995056153,12|0,0:0|0:0,0:0:0:0:
324,35,110157,1,0,0:0:0:0:
324,35,110234,1,0,0:0:0:0:
324,35,110311,2,0,P|345:116|330:199,1,161.999995056153,12|0,0:0|0:0,0:0:0:0:
444,258,110772,5,0,0:0:0:0:
476,261,110849,1,0,0:0:0:0:
508,264,110926,1,12,0:0:0:0:
356,352,111080,1,0,0:0:0:0:
341,355,111157,1,0,0:0:0:0:
325,358,111234,1,0,0:0:0:0:
309,360,111310,1,0,0:0:0:0:
293,363,111387,1,0,0:0:0:0:
277,365,111464,1,0,0:0:0:0:
262,368,111541,1,12,0:0:0:0:
203,236,111695,5,0,0:0:0:0:
70,366,111849,1,12,0:0:0:0:
17,228,112003,2,0,P|83:218|149:228,1,121.499996292114,12|0,0:0|0:0,0:0:0:0:
203,236,112311,1,4,0:0:0:0:
200,69,112464,1,0,0:0:0:0:
352,146,112618,1,0,0:0:0:0:
354,186,112695,1,0,0:0:0:0:
342,224,112772,1,8,0:0:0:0:
315,254,112849,1,0,0:0:0:0:
276,268,112926,1,0,0:0:0:0:
235,262,113003,1,0,0:0:0:0:
203,236,113080,1,8,0:0:0:0:
111,95,113234,5,8,0:0:0:0:
7,217,113387,1,0,0:0:0:0:
111,95,113541,1,0,0:0:0:0:
143,72,113618,1,0,0:0:0:0:
182,62,113695,1,8,0:0:0:0:
222,69,113772,1,0,0:0:0:0:
254,94,113849,1,0,0:0:0:0:
271,132,113926,1,0,0:0:0:0:
266,173,114003,1,12,0:0:0:0:
266,173,114619,5,12,0:0:0:0:
500,151,114926,1,0,0:0:0:0:
500,151,115080,1,0,0:0:0:0:
420,214,115234,2,0,L|412:47,1,161.999995056153,12|0,0:0|0:0,0:0:0:0:
328,16,115695,2,0,L|332:99,1,80.9999975280763,8|0,0:0|0:0,0:0:0:0:
338,203,116003,1,0,0:0:0:0:
433,293,116157,2,0,P|392:298|344:285,1,80.9999975280763,8|0,0:0|0:0,0:0:0:0:
135,261,116464,2,0,P|206:240|296:267,1,161.999995056153,8|0,0:0|0:0,0:0:0:0:
206,355,116926,5,0,0:0:0:0:
206,355,117003,1,0,0:0:0:0:
206,355,117080,2,0,P|135:376|45:349,1,161.999995056153,12|0,0:0|0:0,0:0:0:0:
28,200,117541,1,0,0:0:0:0:
30,228,117618,1,0,0:0:0:0:
31,256,117695,1,12,0:0:0:0:
24,114,117849,1,0,0:0:0:0:
153,202,118003,1,8,0:0:0:0:
108,25,118157,1,0,0:0:0:0:
24,114,118311,6,0,P|105:136|182:114,1,161.999995056153,12|0,0:0|0:0,0:0:0:0:
394,65,118772,1,0,0:0:0:0:
394,65,118849,1,0,0:0:0:0:
394,65,118926,2,0,P|313:43|236:65,1,161.999995056153,12|0,0:0|0:0,0:0:0:0:
310,168,119387,1,0,0:0:0:0:
456,151,119541,5,10,0:0:0:0:
486,183,119618,1,0,0:0:0:0:
496,226,119695,1,0,0:0:0:0:
496,270,119772,1,0,0:0:0:0:
477,310,119849,1,10,0:0:0:0:
440,335,119926,1,0,0:0:0:0:
395,342,120003,1,0,0:0:0:0:
354,322,120080,1,0,0:0:0:0:
330,284,120157,2,0,L|323:233,3,40.4999987640381,10|0|0|0,0:0|0:0|0:0|0:0,0:0:0:0:
242,344,120464,2,0,L|235:395,3,40.4999987640381,10|0|0|0,0:0|0:0|0:0|0:0,0:0:0:0:
223,255,120772,5,10,0:0:0:0:
204,214,120849,1,0,0:0:0:0:
168,186,120926,1,0,0:0:0:0:
124,176,121003,1,0,0:0:0:0:
80,185,121080,1,10,0:0:0:0:
46,214,121157,1,0,0:0:0:0:
32,256,121234,1,0,0:0:0:0:
44,298,121311,1,0,0:0:0:0:
75,329,121387,2,0,L|138:321,3,40.4999987640381,10|0|0|0,0:0|0:0|0:0|0:0,0:0:0:0:
223,255,121695,2,0,L|286:247,3,40.4999987640381,10|0|0|0,0:0|0:0|0:0|0:0,0:0:0:0:
319,196,122003,5,14,0:0:0:0:
404,346,122157,1,0,0:0:0:0:
404,346,122234,1,0,0:0:0:0:
404,346,122311,1,10,0:0:0:0:
512,234,122464,1,0,0:0:0:0:
497,237,122541,1,0,0:0:0:0:
481,240,122618,1,6,0:0:0:0:
465,242,122694,1,0,0:0:0:0:
449,245,122771,1,0,0:0:0:0:
433,247,122848,1,0,0:0:0:0:
413,252,122926,1,10,0:0:0:0:
319,196,123080,5,0,0:0:0:0:
319,196,123157,1,0,0:0:0:0:
319,196,123234,2,0,P|306:154|301:103,1,80.9999975280763,14|0,0:0|0:0,0:0:0:0:
441,27,123541,2,0,P|454:69|459:120,1,80.9999975280763
65,248,123849,2,0,P|52:206|47:155,1,80.9999975280763,14|0,0:0|0:0,0:0:0:0:
212,11,124157,2,0,P|225:53|230:104,1,80.9999975280763
229,89,124387,1,0,0:0:0:0:
229,89,124464,1,14,0:0:0:0:
355,52,124618,5,0,0:0:0:0:
256,243,124772,1,12,0:0:0:0:
141,66,125080,5,8,0:0:0:0:
305,156,125234,1,0,0:0:0:0:
26,251,125387,1,12,0:0:0:0:
355,52,125695,5,8,0:0:0:0:
177,220,125849,1,0,0:0:0:0:
461,263,126003,1,12,0:0:0:0:
157,139,126311,5,8,0:0:0:0:
319,301,126464,1,0,0:0:0:0:
485,60,126618,2,0,P|505:115|497:197,1,121.499996292114,12|0,0:0|0:0,0:0:0:0:
486,227,126926,6,0,L|398:239,1,80.9999975280763,12|0,0:0|0:0,0:0:0:0:
223,353,127234,2,0,L|211:265,1,80.9999975280763
292,22,127541,2,0,L|304:110,1,80.9999975280763,12|0,0:0|0:0,0:0:0:0:
26,157,127849,2,0,L|114:145,1,80.9999975280763
368,48,128157,5,12,0:0:0:0:
368,48,128311,1,0,0:0:0:0:
147,323,128464,1,12,0:0:0:0:
147,323,128618,1,0,0:0:0:0:
111,51,128772,1,12,0:0:0:0:
111,51,128926,1,0,0:0:0:0:
401,333,129080,1,12,0:0:0:0:
401,333,129234,1,0,0:0:0:0:
272,235,129387,5,8,0:0:0:0:
478,163,129541,1,8,0:0:0:0:
487,194,129618,1,0,0:0:0:0:
493,225,129695,1,0,0:0:0:0:
489,257,129772,1,0,0:0:0:0:
474,286,129849,1,8,0:0:0:0:
377,201,130003,5,0,0:0:0:0:
278,331,130157,1,0,0:0:0:0:
108,231,130311,1,0,0:0:0:0:
214,43,130464,1,0,0:0:0:0:
284,182,130618,1,8,0:0:0:0:
284,182,130695,1,0,0:0:0:0:
284,182,130772,1,0,0:0:0:0:
284,182,130849,1,0,0:0:0:0:
284,182,130926,1,8,0:0:0:0:
284,182,131003,1,0,0:0:0:0:
284,182,131080,1,0,0:0:0:0:
284,182,131157,1,0,0:0:0:0:
284,182,131234,6,0,L|285:151,1,31.5,2|0,0:0|0:0,0:0:0:0:
214,135,131849,6,0,L|209:233,1,90,14|0,0:0|0:0,0:0:0:0:
450,126,132157,2,0,L|455:28,1,90
484,201,132465,2,0,P|440:202|396:192,1,90,10|0,0:0|0:0,0:0:0:0:
191,79,132772,1,10,0:0:0:0:
95,205,132926,1,0,0:0:0:0:
108,78,133080,6,0,P|64:68|5:73,1,90,14|0,0:0|0:0,0:0:0:0:
43,299,133388,2,0,P|87:309|146:304,1,90
296,185,133695,1,8,0:0:0:0:
204,302,133849,1,0,0:0:0:0:
296,185,134003,1,8,0:0:0:0:
407,301,134157,1,0,0:0:0:0:
297,360,134311,6,0,P|286:313|298:252,1,90,14|0,0:0|0:0,0:0:0:0:
481,78,134619,2,0,P|492:125|480:186,1,90
465,231,134849,1,0,0:0:0:0:
465,231,134926,2,0,L|356:229,1,90,10|0,0:0|0:0,0:0:0:0:
203,113,135234,1,2,0:0:0:0:
291,271,135388,1,0,0:0:0:0:
28,303,135542,6,0,P|17:255|21:205,1,90,10|0,0:0|0:0,0:0:0:0:
194,25,135849,2,0,P|205:73|201:123,1,90,10|0,0:0|0:0,0:0:0:0:
300,359,136157,2,0,P|289:311|293:261,1,90,10|0,0:0|0:0,0:0:0:0:
466,81,136464,2,0,P|477:129|473:179,1,90,10|0,0:0|0:0,0:0:0:0:
363,199,136772,5,10,0:0:0:0:
499,273,136926,1,0,0:0:0:0:
363,199,137080,2,0,P|298:185|220:200,1,135,14|0,0:0|0:0,0:0:0:0:
172,217,137388,5,8,0:0:0:0:
156,103,137542,1,0,0:0:0:0:
172,217,137695,1,8,0:0:0:0:
12,258,137849,1,0,0:0:0:0:
172,217,138003,6,0,L|165:316,1,90,14|0,0:0|0:0,0:0:0:0:
18,348,138311,2,0,L|11:249,1,90,8|0,0:0|0:0,0:0:0:0:
19,67,138619,2,0,L|12:166,1,90,14|0,0:0|0:0,0:0:0:0:
13,156,138849,1,0,0:0:0:0:
13,156,138926,1,10,0:0:0:0:
194,114,139080,1,0,0:0:0:0:
289,260,139234,5,14,0:0:0:0:
350,80,139388,1,0,0:0:0:0:
486,235,139542,1,8,0:0:0:0:
231,205,139695,1,0,0:0:0:0:
337,4,139849,1,2,0:0:0:0:
382,264,140003,1,8,0:0:0:0:
158,124,140157,1,10,0:0:0:0:
126,358,140311,1,0,0:0:0:0:
320,352,140465,5,10,0:0:0:0:
369,363,140542,1,0,0:0:0:0:
418,355,140619,1,0,0:0:0:0:
457,324,140695,1,0,0:0:0:0:
480,279,140772,1,10,0:0:0:0:
483,229,140849,1,0,0:0:0:0:
458,186,140926,1,0,0:0:0:0:
417,159,141003,1,0,0:0:0:0:
380,183,141080,5,10,0:0:0:0:
336,189,141157,1,0,0:0:0:0:
294,173,141234,1,8,0:0:0:0:
264,139,141311,1,0,0:0:0:0:
259,94,141388,1,10,0:0:0:0:
276,52,141465,1,0,0:0:0:0:
314,26,141542,1,8,0:0:0:0:
362,26,141619,1,0,0:0:0:0:
390,60,141695,6,0,P|434:66|491:57,1,90,14|0,0:0|0:0,0:0:0:0:
91,179,142003,2,0,P|82:133|87:83,1,90
335,112,142311,2,0,P|344:158|339:208,1,90,10|0,0:0|0:0,0:0:0:0:
321,301,142619,5,10,0:0:0:0:
431,167,142772,1,0,0:0:0:0:
500,306,142926,6,0,L|291:301,1,180,14|0,0:0|0:0,0:0:0:0:
104,310,143388,1,0,0:0:0:0:
213,363,143542,2,0,P|224:316|212:255,1,90,10|0,0:0|0:0,0:0:0:0:
29,81,143850,2,0,P|18:128|30:189,1,90,8|0,0:0|0:0,0:0:0:0:
45,234,144080,1,0,0:0:0:0:
45,234,144157,6,0,L|154:232,1,90,14|0,0:0|0:0,0:0:0:0:
383,104,144465,1,0,0:0:0:0:
265,197,144619,1,0,0:0:0:0:
496,267,144772,2,0,P|500:220|491:163,1,90,10|0,0:0|0:0,0:0:0:0:
254,11,145080,2,0,P|250:58|259:115,1,90,10|0,0:0|0:0,0:0:0:0:
256,100,145311,1,0,0:0:0:0:
256,100,145388,1,14,0:0:0:0:
59,44,145542,5,0,0:0:0:0:
6,160,145695,2,0,P|51:173|110:172,1,90,10|0,0:0|0:0,0:0:0:0:
428,188,146003,2,0,P|383:175|324:176,1,90,10|0,0:0|0:0,0:0:0:0:
29,310,146311,2,0,P|74:323|133:322,1,90,10|0,0:0|0:0,0:0:0:0:
370,275,146619,5,10,0:0:0:0:
190,324,146772,1,0,0:0:0:0:
265,369,146926,2,0,L|270:224,1,135,14|0,0:0|0:0,0:0:0:0:
274,165,147234,1,8,0:0:0:0:
354,55,147388,1,0,0:0:0:0:
179,47,147542,1,8,0:0:0:0:
372,151,147695,1,0,0:0:0:0:
141,140,147849,6,0,P|92:132|37:111,1,90,10|0,0:0|0:0,0:0:0:0:
372,151,148157,2,0,P|421:147|478:131,1,90,10|0,0:0|0:0,0:0:0:0:
254,3,148465,2,0,L|250:100,1,90,14|0,0:0|0:0,0:0:0:0:
251,92,148695,1,0,0:0:0:0:
251,92,148772,1,10,0:0:0:0:
120,41,148926,1,0,0:0:0:0:
3,136,149080,5,14,0:0:0:0:
3,181,149157,1,0,0:0:0:0:
15,224,149234,1,0,0:0:0:0:
42,260,149311,1,0,0:0:0:0:
76,289,149388,1,10,0:0:0:0:
121,292,149465,1,0,0:0:0:0:
163,274,149542,1,0,0:0:0:0:
191,238,149619,1,0,0:0:0:0:
222,188,149695,5,10,0:0:0:0:
276,163,149772,1,0,0:0:0:0:
335,169,149849,1,0,0:0:0:0:
389,193,149926,1,0,0:0:0:0:
417,244,150003,1,10,0:0:0:0:
427,301,150080,1,0,0:0:0:0:
405,355,150157,1,0,0:0:0:0:
352,379,150234,1,0,0:0:0:0:
294,378,150311,6,0,P|288:338|289:315,1,45,10|0,0:0|0:0,0:0:0:0:
349,259,150465,2,0,P|355:299|354:322,1,45
215,336,150619,2,0,P|209:296|210:273,1,45,10|0,0:0|0:0,0:0:0:0:
270,217,150773,2,0,P|276:257|275:280,1,45
138,296,150926,2,0,P|132:256|133:233,1,45,10|0,0:0|0:0,0:0:0:0:
193,177,151080,2,0,P|199:217|198:240,1,45
62,253,151234,2,0,P|56:213|57:190,1,45,10|0,0:0|0:0,0:0:0:0:
117,134,151388,2,0,P|123:174|122:197,1,45
138,296,151542,37,14,0:0:0:0:
256,128,155541,5,0,0:0:0:0:
128,256,155695,1,0,0:0:0:0:
383,255,155849,1,12,0:0:0:0:
128,256,156157,6,0,P|124:291|131:338,1,72,14|0,0:0|0:0,0:0:0:0:
383,327,156464,2,0,P|388:291|384:256,1,72
381,173,156772,2,0,L|514:177,1,108,10|0,0:0|0:0,0:0:0:0:
488,176,157080,1,10,0:0:0:0:
432,82,157233,1,0,0:0:0:0:
319,114,157387,6,0,P|312:74|313:40,2,72,10|0|0,0:0|0:0|0:0,0:0:0:0:
385,256,157849,1,0,0:0:0:0:
297,219,158003,2,0,L|164:215,1,108,10|0,0:0|0:0,0:0:0:0:
146,215,158310,1,10,0:0:0:0:
144,314,158464,1,0,0:0:0:0:
32,288,158618,6,0,P|22:263|16:230,3,36,10|0|0|0,0:0|0:0|0:0|0:0,0:0:0:0:
32,96,158926,2,0,P|22:121|16:154,3,36,8|0|0|0,0:0|0:0|0:0|0:0,0:0:0:0:
144,314,159233,2,0,P|134:289|128:256,3,36,10|0|0|0,0:0|0:0|0:0|0:0,0:0:0:0:
144,70,159541,2,0,P|134:95|128:128,3,36,8|0|0|0,0:0|0:0|0:0|0:0,0:0:0:0:
191,17,159849,5,10,0:0:0:0:
312,137,160003,1,0,0:0:0:0:
128,192,160157,1,10,0:0:0:0:
325,297,160310,1,0,0:0:0:0:
256,384,160464,1,10,0:0:0:0:
238,367,160541,1,0,0:0:0:0:
221,348,160618,1,0,0:0:0:0:
212,324,160695,1,0,0:0:0:0:
202,301,160772,1,10,0:0:0:0:
202,275,160849,1,0,0:0:0:0:
202,249,160926,1,0,0:0:0:0:
211,225,161003,1,0,0:0:0:0:
229,206,161080,6,0,B|275:180|342:239|424:193,1,180,14|0,0:0|0:0,0:0:0:0:
398,19,161541,2,0,B|352:45|285:-14|203:32,1,180,14|0,0:0|0:0,0:0:0:0:
467,18,162003,2,0,P|506:95|458:180,1,180,14|2,0:0|0:0,0:0:0:0:
405,201,162387,5,0,0:0:0:0:
443,224,162464,1,0,0:0:0:0:
461,265,162541,1,0,0:0:0:0:
458,309,162618,1,10,0:0:0:0:
427,341,162695,1,0,0:0:0:0:
384,354,162772,1,0,0:0:0:0:
342,335,162849,1,0,0:0:0:0:
327,292,162926,1,14,0:0:0:0:
257,212,163080,5,0,0:0:0:0:
196,354,163233,1,8,0:0:0:0:
38,279,163387,1,0,0:0:0:0:
77,287,163464,1,0,0:0:0:0:
116,294,163541,1,10,0:0:0:0:
180,180,163695,1,0,0:0:0:0:
124,370,163849,1,8,0:0:0:0:
247,285,164003,1,0,0:0:0:0:
23,212,164157,1,10,0:0:0:0:
247,285,164310,5,0,0:0:0:0:
247,285,164387,1,0,0:0:0:0:
247,285,164464,2,0,P|255:237|251:192,1,90,8|0,0:0|0:0,0:0:0:0:
27,123,164772,2,0,P|19:171|23:216,1,90,2|0,0:0|0:0,0:0:0:0:
331,235,165080,2,0,P|339:187|335:142,1,90,8|0,0:0|0:0,0:0:0:0:
142,88,165388,2,0,P|134:136|138:181,1,90,2|0,0:0|0:0,0:0:0:0:
145,223,165618,1,0,0:0:0:0:
168,267,165695,1,10,0:0:0:0:
214,287,165772,1,0,0:0:0:0:
263,293,165849,1,0,0:0:0:0:
310,280,165926,1,0,0:0:0:0:
331,235,166003,6,0,P|339:187|335:142,1,90,14|0,0:0|0:0,0:0:0:0:
423,34,166310,2,0,L|525:37,1,90
498,128,166541,1,0,0:0:0:0:
498,128,166618,2,0,L|396:125,1,90,14|0,0:0|0:0,0:0:0:0:
137,176,166926,2,0,P|134:132|142:88,1,90
244,25,167157,1,0,0:0:0:0:
244,25,167233,6,0,P|247:69|239:113,1,90,10|0,0:0|0:0,0:0:0:0:
133,289,167541,2,0,L|41:283,1,90,2|0,0:0|0:0,0:0:0:0:
251,214,167849,1,10,0:0:0:0:
361,312,168003,1,0,0:0:0:0:
371,223,168157,1,8,0:0:0:0:
233,329,168310,1,2,0:0:0:0:
476,191,168464,5,8,0:0:0:0:
481,222,168541,1,0,0:0:0:0:
486,254,168618,1,0,0:0:0:0:
491,285,168695,1,0,0:0:0:0:
496,317,168772,1,14,0:0:0:0:
371,223,168926,1,0,0:0:0:0:
252,245,169080,5,8,0:0:0:0:
257,214,169157,1,0,0:0:0:0:
262,182,169234,1,0,0:0:0:0:
267,151,169311,1,0,0:0:0:0:
272,119,169387,1,14,0:0:0:0:
371,223,169541,1,0,0:0:0:0:
233,329,169695,5,14,0:0:0:0:
207,354,169772,1,0,0:0:0:0:
172,363,169849,1,0,0:0:0:0:
135,361,169926,1,0,0:0:0:0:
102,345,170003,1,8,0:0:0:0:
78,317,170080,1,0,0:0:0:0:
67,282,170157,1,0,0:0:0:0:
69,246,170233,1,0,0:0:0:0:
89,194,170310,5,10,0:0:0:0:
131,209,170387,1,0,0:0:0:0:
175,214,170464,1,0,0:0:0:0:
217,198,170541,1,0,0:0:0:0:
244,162,170618,1,10,0:0:0:0:
256,118,170695,1,0,0:0:0:0:
249,73,170772,1,0,0:0:0:0:
221,36,170849,1,0,0:0:0:0:
177,24,170926,5,14,0:0:0:0:
143,117,171080,1,0,0:0:0:0:
17,100,171233,1,2,0:0:0:0:
143,117,171387,1,0,0:0:0:0:
69,246,171541,1,8,0:0:0:0:
204,269,171695,1,2,0:0:0:0:
69,246,171849,5,2,0:0:0:0:
143,117,172003,1,0,0:0:0:0:
279,356,172157,1,10,0:0:0:0:
353,137,172310,1,0,0:0:0:0:
435,312,172464,1,0,0:0:0:0:
506,246,172618,2,0,P|438:231|364:247,1,135,10|0,0:0|0:0,0:0:0:0:
307,269,172926,1,10,0:0:0:0:
269,159,173080,1,10,0:0:0:0:
307,269,173233,1,0,0:0:0:0:
112,310,173387,6,0,P|98:265|101:203,1,90,10|0,0:0|0:0,0:0:0:0:
400,74,173695,2,0,P|414:119|411:181,1,90
43,327,174003,2,0,P|29:282|32:220,1,90,10|0,0:0|0:0,0:0:0:0:
469,57,174310,2,0,P|483:102|480:164,1,90
316,372,174618,5,10,0:0:0:0:
312,339,174695,1,0,0:0:0:0:
310,307,174772,1,0,0:0:0:0:
307,276,174849,1,0,0:0:0:0:
304,243,174926,1,8,0:0:0:0:
301,212,175003,1,0,0:0:0:0:
299,180,175080,1,0,0:0:0:0:
296,148,175157,1,0,0:0:0:0:
256,100,175233,5,10,0:0:0:0:
242,146,175310,1,0,0:0:0:0:
229,192,175387,1,8,0:0:0:0:
216,238,175464,1,0,0:0:0:0:
203,284,175541,1,10,0:0:0:0:
138,204,175695,1,0,0:0:0:0:
384,303,175849,5,14,0:0:0:0:
178,365,176003,1,0,0:0:0:0:
178,365,176080,1,0,0:0:0:0:
178,365,176157,1,8,0:0:0:0:
113,134,176310,1,0,0:0:0:0:
4,257,176464,5,14,0:0:0:0:
35,262,176541,1,0,0:0:0:0:
67,267,176618,1,0,0:0:0:0:
98,272,176695,1,0,0:0:0:0:
130,277,176772,1,8,0:0:0:0:
229,192,176926,1,0,0:0:0:0:
299,328,177080,1,14,0:0:0:0:
448,209,177233,5,0,0:0:0:0:
417,214,177310,1,0,0:0:0:0:
385,219,177387,1,8,0:0:0:0:
308,116,177541,1,0,0:0:0:0:
216,276,177695,1,14,0:0:0:0:
113,134,177849,1,0,0:0:0:0:
144,139,177926,1,0,0:0:0:0:
176,144,178003,1,14,0:0:0:0:
256,32,178157,1,0,0:0:0:0:
399,57,178310,6,0,P|399:102|384:145,1,90,14|0,0:0|0:0,0:0:0:0:
112,134,178618,2,0,P|112:89|128:47,1,90,8|0,0:0|0:0,0:0:0:0:
474,116,178926,2,0,P|474:161|459:204,1,90,14|0,0:0|0:0,0:0:0:0:
23,182,179234,2,0,P|23:137|39:95,1,90,14|0,0:0|0:0,0:0:0:0:
256,16,179541,5,14,0:0:0:0:
292,32,179618,1,0,0:0:0:0:
321,60,179695,1,0,0:0:0:0:
327,99,179772,1,0,0:0:0:0:
320,139,179849,1,10,0:0:0:0:
294,170,179926,1,0,0:0:0:0:
256,184,180003,1,0,0:0:0:0:
210,203,180080,1,0,0:0:0:0:
183,239,180157,5,10,0:0:0:0:
177,283,180233,1,0,0:0:0:0:
187,326,180310,1,0,0:0:0:0:
217,358,180387,1,0,0:0:0:0:
260,370,180464,1,10,0:0:0:0:
303,357,180541,1,0,0:0:0:0:
335,325,180618,1,0,0:0:0:0:
339,280,180695,1,0,0:0:0:0:
317,240,180772,5,14,0:0:0:0:
317,240,181080,1,8,0:0:0:0:
317,240,181387,1,8,0:0:0:0:
317,240,181695,1,8,0:0:0:0:
256,112,181849,1,0,0:0:0:0:
195,240,182003,5,8,0:0:0:0:
195,240,182311,1,8,0:0:0:0:
195,240,182618,1,8,0:0:0:0:
195,240,182926,1,8,0:0:0:0:
256,112,183080,1,0,0:0:0:0:
195,240,183233,6,0,P|153:242|107:237,1,80.9999975280763
0,314,183541,2,0,P|42:312|88:317,1,80.9999975280763,8|0,0:0|0:0,0:0:0:0:
259,369,183849,2,0,L|271:200,1,161.999995056153,8|0,0:0|0:0,0:0:0:0:
287,39,184310,1,0,0:0:0:0:
342,140,184464,2,0,P|422:152|513:136,2,161.999995056153,8|0|8,0:0|0:0|0:0,0:0:0:0:
248,99,185233,1,0,0:0:0:0:
190,167,185387,1,8,0:0:0:0:
16,120,185541,1,0,0:0:0:0:
66,215,185695,6,0,P|107:140|96:55,1,161.999995056153,8|0,0:0|0:0,0:0:0:0:
446,215,186310,2,0,P|405:140|416:55,1,161.999995056153,8|0,0:0|0:0,0:0:0:0:
256,16,186772,1,0,0:0:0:0:
297,129,186926,2,0,P|256:137|213:129,1,80.9999975280763,8|0,0:0|0:0,0:0:0:0:
256,16,187233,1,0,0:0:0:0:
296,221,187387,2,0,P|255:229|212:221,1,80.9999975280763,8|0,0:0|0:0,0:0:0:0:
97,185,187695,1,8,0:0:0:0:
119,292,187849,1,8,0:0:0:0:
36,358,188003,5,0,0:0:0:0:
36,358,188080,1,0,0:0:0:0:
36,358,188157,2,0,P|21:316|17:270,1,80.9999975280763,12|0,0:0|0:0,0:0:0:0:
216,222,188464,2,0,P|221:263|216:311,1,80.9999975280763,8|0,0:0|0:0,0:0:0:0:
458,361,188772,2,0,P|473:319|477:273,1,80.9999975280763,8|0,0:0|0:0,0:0:0:0:
296,222,189080,2,0,P|291:263|296:311,1,80.9999975280763,8|0,0:0|0:0,0:0:0:0:
337,358,189310,5,0,0:0:0:0:
354,348,189387,1,8,0:0:0:0:
367,333,189464,1,0,0:0:0:0:
376,315,189541,1,0,0:0:0:0:
382,295,189618,1,0,0:0:0:0:
381,274,189695,1,8,0:0:0:0:
376,254,189772,1,0,0:0:0:0:
371,234,189849,1,0,0:0:0:0:
369,213,189926,1,0,0:0:0:0:
374,193,190003,1,8,0:0:0:0:
386,160,190080,1,0,0:0:0:0:
422,142,190157,1,0,0:0:0:0:
462,141,190233,1,0,0:0:0:0:
495,164,190310,1,8,0:0:0:0:
455,235,190464,1,0,0:0:0:0:
297,174,190618,5,12,0:0:0:0:
432,34,190849,1,8,0:0:0:0:
512,287,191080,1,8,0:0:0:0:
217,301,191233,2,0,B|271:268|338:331|382:286,1,161.999995056153,8|0,0:0|0:0,0:0:0:0:
297,174,191695,1,8,0:0:0:0:
209,223,191849,6,0,P|164:229|122:225,1,80.9999975280763,8|0,0:0|0:0,0:0:0:0:
14,141,192157,1,8,0:0:0:0:
170,5,192310,2,0,P|190:79|155:171,1,161.999995056153,8|0,0:0|0:0,0:0:0:0:
20,289,192772,2,0,P|8:250|12:210,1,80.9999975280763,8|0,0:0|0:0,0:0:0:0:
356,133,193080,6,0,L|266:133,1,80.9999975280763,8|0,0:0|0:0,0:0:0:0:
156,251,193387,2,0,L|246:251,1,80.9999975280763,8|0,0:0|0:0,0:0:0:0:
77,80,193695,2,0,P|65:119|69:159,1,80.9999975280763,8|0,0:0|0:0,0:0:0:0:
435,304,194003,2,0,P|447:265|443:225,1,80.9999975280763,8|0,0:0|0:0,0:0:0:0:
478,51,194310,5,8,0:0:0:0:
357,254,194464,1,0,0:0:0:0:
330,87,194618,1,8,0:0:0:0:
512,210,194772,1,0,0:0:0:0:
357,254,194926,2,0,L|347:157,1,80.9999975280763,8|0,0:0|0:0,0:0:0:0:
209,2,195233,2,0,L|199:99,1,80.9999975280763,8|0,0:0|0:0,0:0:0:0:
112,269,195541,5,12,0:0:0:0:
96,40,195772,1,8,0:0:0:0:
273,152,196003,1,8,0:0:0:0:
26,324,196157,1,8,0:0:0:0:
275,228,196387,1,8,0:0:0:0:
107,168,196618,6,0,L|108:219,1,40.4999987640381,8|0,0:0|0:0,0:0:0:0:
22,255,196772,2,0,L|16:131,1,121.499996292114,8|0,0:0|0:0,0:0:0:0:
10,59,197080,1,8,0:0:0:0:
275,228,197233,1,8,0:0:0:0:
116,329,197387,2,0,L|106:150,1,161.999995056153,8|0,0:0|0:0,0:0:0:0:
103,85,197849,1,0,0:0:0:0:
202,92,198003,6,0,B|251:118|296:65|358:97,1,144,12|0,0:0|0:0,0:0:0:0:
512,82,198464,1,0,0:0:0:0:
496,169,198618,2,0,B|447:195|402:142|340:174,1,144,8|0,0:0|0:0,0:0:0:0:
259,202,199080,1,0,0:0:0:0:
431,242,199233,6,0,P|433:278|426:323,2,72,8|0|0,0:0|0:0|0:0,0:0:0:0:
304,270,199695,1,0,0:0:0:0:
371,356,199849,2,0,P|303:375|222:352,1,144,8|0,0:0|0:0,0:0:0:0:
59,316,200310,1,0,0:0:0:0:
149,381,200464,6,0,P|168:313|145:232,1,144,8|0,0:0|0:0,0:0:0:0:
10,204,200926,2,0,L|102:207,1,72,0|8,0:0|0:0,0:0:0:0:
197,130,201233,1,0,0:0:0:0:
49,137,201387,2,0,P|42:100|44:61,1,72,8|0,0:0|0:0,0:0:0:0:
197,130,201695,6,0,B|248:69|326:179|407:119,1,216,8|0,0:0|0:0,0:0:0:0:
400,123,202233,1,0,0:0:0:0:
400,123,202310,1,8,0:0:0:0:
331,208,202464,1,0,0:0:0:0:
341,62,202618,1,0,0:0:0:0:
501,193,202772,1,8,0:0:0:0:
331,208,202926,6,0,P|327:247|334:299,1,72,8|0,0:0|0:0,0:0:0:0:
502,338,203233,2,0,P|506:299|499:247,1,72,8|0,0:0|0:0,0:0:0:0:
481,101,203541,1,8,0:0:0:0:
406,237,203695,1,0,0:0:0:0:
218,59,203849,1,8,0:0:0:0:
90,297,204003,1,0,0:0:0:0:
10,215,204157,2,0,P|86:187|173:212,1,157.5,12|0,0:0|0:0,0:0:0:0:
225,234,204772,5,8,0:0:0:0:
243,88,204926,1,0,0:0:0:0:
301,187,205080,1,0,0:0:0:0:
150,289,205233,1,0,0:0:0:0:
367,302,205387,1,8,0:0:0:0:
256,192,212772,12,0,214310,0:0:0:0:
334,231,214618,5,0,0:0:0:0:
487,77,214772,1,0,0:0:0:0:
481,225,214926,1,0,0:0:0:0:
335,151,215080,1,0,0:0:0:0:
413,119,215233,2,0,L|411:199,1,67.5
338,80,215541,6,0,P|412:40|501:103,1,175.499991966248,4|0,0:0|0:0,0:0:0:0:
512,144,215849,1,2,0:0:0:0:
506,184,215926,1,0,0:0:0:0:
494,223,216003,1,0,0:0:0:0:
471,257,216080,1,0,0:0:0:0:
432,271,216157,1,2,0:0:0:0:
391,272,216233,1,0,0:0:0:0:
351,261,216310,1,0,0:0:0:0:
318,235,216387,1,0,0:0:0:0:
289,206,216464,5,10,0:0:0:0:
278,166,216541,1,0,0:0:0:0:
266,126,216618,1,0,0:0:0:0:
242,92,216695,1,0,0:0:0:0:
203,65,216772,1,10,0:0:0:0:
158,51,216849,1,0,0:0:0:0:
111,53,216926,1,0,0:0:0:0:
62,72,217003,1,0,0:0:0:0:
29,111,217080,5,10,0:0:0:0:
12,161,217157,1,0,0:0:0:0:
7,212,217233,1,0,0:0:0:0:
19,263,217310,1,0,0:0:0:0:
47,307,217387,1,10,0:0:0:0:
89,337,217464,1,0,0:0:0:0:
138,356,217541,1,0,0:0:0:0:
190,360,217618,1,0,0:0:0:0:
228,347,217695,5,14,0:0:0:0:
241,183,217849,1,0,0:0:0:0:
380,301,218003,1,0,0:0:0:0:
228,347,218157,1,0,0:0:0:0:
228,347,218233,1,0,0:0:0:0:
228,347,218310,2,0,P|218:303|227:251,1,90,10|0,0:0|0:0,0:0:0:0:
485,83,218618,2,0,P|495:127|486:179,1,90,10|0,0:0|0:0,0:0:0:0:
480,231,218849,1,0,0:0:0:0:
480,231,218926,2,0,L|390:228,1,90,14|0,0:0|0:0,0:0:0:0:
156,88,219233,5,0,0:0:0:0:
322,33,219387,1,0,0:0:0:0:
322,33,219463,1,0,0:0:0:0:
322,33,219540,2,0,P|332:77|323:129,1,90,10|0,0:0|0:0,0:0:0:0:
46,272,219849,2,0,P|36:228|45:176,1,90,10|0,0:0|0:0,0:0:0:0:
121,35,220157,5,10,0:0:0:0:
0,124,220311,1,0,0:0:0:0:
121,35,220465,2,0,P|186:21|264:36,1,135,14|0,0:0|0:0,0:0:0:0:
322,33,220773,1,8,0:0:0:0:
141,157,220927,1,0,0:0:0:0:
379,242,221080,1,8,0:0:0:0:
322,33,221233,1,0,0:0:0:0:
232,109,221387,6,0,L|236:217,1,90,14|0,0:0|0:0,0:0:0:0:
376,332,221695,2,0,L|380:224,1,90
474,24,222003,2,0,L|478:132,1,90,14|0,0:0|0:0,0:0:0:0:
477,113,222233,1,0,0:0:0:0:
477,113,222310,1,10,0:0:0:0:
346,75,222464,1,0,0:0:0:0:
479,200,222618,5,14,0:0:0:0:
200,247,222772,1,0,0:0:0:0:
449,327,222926,1,8,0:0:0:0:
346,75,223080,1,0,0:0:0:0:
256,320,223233,1,14,0:0:0:0:
151,33,223387,1,0,0:0:0:0:
383,209,223541,1,12,0:0:0:0:
15,292,223695,1,8,0:0:0:0:
256,384,223849,5,14,0:0:0:0:
283,367,223926,1,0,0:0:0:0:
302,342,224003,1,0,0:0:0:0:
315,313,224080,1,0,0:0:0:0:
320,282,224157,1,10,0:0:0:0:
317,250,224233,1,0,0:0:0:0:
302,222,224310,1,0,0:0:0:0:
276,202,224387,1,0,0:0:0:0:
235,199,224464,5,10,0:0:0:0:
195,169,224541,1,0,0:0:0:0:
177,122,224618,1,0,0:0:0:0:
185,73,224695,1,0,0:0:0:0:
216,34,224772,1,10,0:0:0:0:
263,19,224849,1,0,0:0:0:0:
310,32,224926,1,0,0:0:0:0:
346,65,225003,1,0,0:0:0:0:
345,114,225080,6,0,P|301:119|255:115,1,90,14|0,0:0|0:0,0:0:0:0:
99,120,225387,1,0,0:0:0:0:
323,239,225541,1,0,0:0:0:0:
103,348,225695,2,0,L|98:237,1,90,10|0,0:0|0:0,0:0:0:0:
92,40,226003,1,10,0:0:0:0:
323,239,226157,1,0,0:0:0:0:
32,319,226310,2,0,L|23:125,1,180,14|0,0:0|0:0,0:0:0:0:
161,68,226772,5,0,0:0:0:0:
227,195,226926,2,0,L|132:202,1,90,2|0,0:0|0:0,0:0:0:0:
285,22,227233,2,0,L|380:29,1,90
374,28,227464,1,0,0:0:0:0:
374,28,227541,1,14,0:0:0:0:
338,264,227695,5,0,0:0:0:0:
345,96,227849,1,0,0:0:0:0:
490,273,228003,1,0,0:0:0:0:
243,313,228157,2,0,P|234:266|242:207,1,90,14|0,0:0|0:0,0:0:0:0:
488,108,228464,2,0,P|497:155|489:214,1,90,10|0,0:0|0:0,0:0:0:0:
493,196,228695,1,0,0:0:0:0:
493,196,228772,1,14,0:0:0:0:
358,166,228926,5,0,0:0:0:0:
490,273,229080,1,10,0:0:0:0:
373,368,229233,1,0,0:0:0:0:
261,266,229387,2,0,L|367:272,1,90,10|0,0:0|0:0,0:0:0:0:
204,368,229695,2,0,L|98:362,1,90,10|0,0:0|0:0,0:0:0:0:
0,160,230003,6,0,L|149:168,1,135,14|0,0:0|0:0,0:0:0:0:
186,173,230310,1,14,0:0:0:0:
409,89,230464,1,0,0:0:0:0:
444,108,230541,1,0,0:0:0:0:
466,141,230618,1,8,0:0:0:0:
465,181,230695,1,0,0:0:0:0:
455,220,230772,1,0,0:0:0:0:
427,250,230849,1,0,0:0:0:0:
386,259,230926,1,8,0:0:0:0:
271,126,231080,5,0,0:0:0:0:
221,270,231233,1,14,0:0:0:0:
136,175,231387,1,0,0:0:0:0:
381,169,231541,1,14,0:0:0:0:
103,89,231695,1,0,0:0:0:0:
68,108,231772,1,0,0:0:0:0:
46,141,231849,1,8,0:0:0:0:
47,181,231926,1,0,0:0:0:0:
57,220,232003,1,0,0:0:0:0:
85,250,232080,1,0,0:0:0:0:
126,259,232157,1,12,0:0:0:0:
273,127,232310,5,0,0:0:0:0:
386,259,232464,1,14,0:0:0:0:
434,251,232541,1,0,0:0:0:0:
473,220,232618,1,0,0:0:0:0:
498,177,232695,1,0,0:0:0:0:
505,128,232772,1,10,0:0:0:0:
491,80,232849,1,0,0:0:0:0:
457,43,232926,1,0,0:0:0:0:
409,28,233003,1,0,0:0:0:0:
362,46,233080,5,10,0:0:0:0:
331,85,233157,1,0,0:0:0:0:
326,133,233233,1,0,0:0:0:0:
347,177,233310,1,0,0:0:0:0:
366,222,233387,1,10,0:0:0:0:
369,271,233464,1,0,0:0:0:0:
351,317,233541,1,0,0:0:0:0:
310,345,233618,1,0,0:0:0:0:
272,352,233695,6,0,L|208:343,1,45,14|0,0:0|0:0,0:0:0:0:
84,330,233849,2,0,L|148:321,1,45
240,272,234003,2,0,L|176:263,1,45,10|0,0:0|0:0,0:0:0:0:
52,250,234157,2,0,L|116:241,1,45
224,192,234310,2,0,L|160:183,1,45,14|0,0:0|0:0,0:0:0:0:
36,170,234464,2,0,L|100:161,1,45
208,112,234618,2,0,L|144:103,1,45,14|0,0:0|0:0,0:0:0:0:
20,90,234772,2,0,L|84:81,1,45
186,24,234926,5,14,0:0:0:0:
340,157,235079,1,0,0:0:0:0:
344,27,235233,1,8,0:0:0:0:
340,157,235387,1,0,0:0:0:0:
507,151,235541,2,0,P|516:197|508:246,1,90,14|0,0:0|0:0,0:0:0:0:
275,293,235849,2,0,P|266:247|274:198,1,90,10|0,0:0|0:0,0:0:0:0:
340,157,236080,1,0,0:0:0:0:
340,157,236157,6,0,P|349:203|341:252,1,90,14|0,0:0|0:0,0:0:0:0:
27,283,236464,2,0,P|18:237|26:188,1,90
13,92,236772,1,10,0:0:0:0:
162,182,236926,1,0,0:0:0:0:
190,5,237080,1,10,0:0:0:0:
13,92,237233,5,0,0:0:0:0:
48,95,237310,1,0,0:0:0:0:
83,100,237387,1,14,0:0:0:0:
190,5,237541,1,0,0:0:0:0:
236,223,237695,1,8,0:0:0:0:
326,127,237849,1,0,0:0:0:0:
397,270,238003,1,10,0:0:0:0:
455,49,238156,1,0,0:0:0:0:
502,161,238310,2,0,P|456:168|410:163,1,90
326,127,238541,1,0,0:0:0:0:
326,127,238618,6,0,L|331:232,1,90,14|0,0:0|0:0,0:0:0:0:
41,304,238926,2,0,L|36:199,1,90,14|0,0:0|0:0,0:0:0:0:
24,63,239233,1,14,0:0:0:0:
247,189,239387,1,0,0:0:0:0:
247,189,239464,1,0,0:0:0:0:
247,189,239541,1,10,0:0:0:0:
119,261,239695,1,0,0:0:0:0:
374,294,239849,5,14,0:0:0:0:
253,370,240003,1,0,0:0:0:0:
247,189,240157,2,0,L|252:294,1,90
239,50,240464,1,10,0:0:0:0:
476,190,240618,1,0,0:0:0:0:
476,190,240695,1,0,0:0:0:0:
476,190,240772,2,0,P|426:199|366:188,1,90,8|0,0:0|0:0,0:0:0:0:
83,91,241080,6,0,P|133:82|193:93,1,90,14|0,0:0|0:0,0:0:0:0:
427,22,241387,2,0,P|431:68|424:120,1,90
129,248,241695,2,0,P|125:202|132:150,1,90,10|0,0:0|0:0,0:0:0:0:
301,15,242003,2,0,L|294:123,1,90
295,104,242233,1,0,0:0:0:0:
295,104,242310,1,14,0:0:0:0:
201,199,242464,5,0,0:0:0:0:
413,251,242618,1,8,0:0:0:0:
211,369,242772,1,0,0:0:0:0:
211,369,242849,1,0,0:0:0:0:
211,369,242926,2,0,L|218:261,1,90,14|0,0:0|0:0,0:0:0:0:
495,156,243233,2,0,P|505:219|483:290,1,135,14|0,0:0|0:0,0:0:0:0:
459,329,243541,5,14,0:0:0:0:
324,182,243695,1,0,0:0:0:0:
211,369,243849,1,14,0:0:0:0:
74,135,244003,1,0,0:0:0:0:
17,263,244157,2,0,P|62:271|117:267,1,90,10|0,0:0|0:0,0:0:0:0:
106,268,244387,1,0,0:0:0:0:
106,268,244464,1,14,0:0:0:0:
177,144,244618,1,0,0:0:0:0:
256,304,244772,5,14,0:0:0:0:
256,304,244926,1,0,0:0:0:0:
496,192,245080,1,8,0:0:0:0:
496,192,245234,1,0,0:0:0:0:
256,0,245387,1,14,0:0:0:0:
256,0,245541,1,0,0:0:0:0:
16,192,245695,1,8,0:0:0:0:
16,192,245849,1,0,0:0:0:0:
256,384,246002,5,14,0:0:0:0:
256,224,246156,1,0,0:0:0:0:
400,304,246310,1,8,0:0:0:0:
256,112,246464,1,0,0:0:0:0:
128,304,246618,1,14,0:0:0:0:
64,80,246772,1,0,0:0:0:0:
256,304,246926,1,10,0:0:0:0:
448,80,247079,1,0,0:0:0:0:
448,80,247156,1,0,0:0:0:0:
448,80,247233,1,14,0:0:0:0:
256,192,247387,5,0,0:0:0:0:
256,0,247541,1,14,0:0:0:0:
128,304,247695,1,0,0:0:0:0:
448,80,247849,1,14,0:0:0:0:
64,80,248002,1,0,0:0:0:0:
448,352,248156,1,14,0:0:0:0:
256,0,248310,1,8,0:0:0:0:
64,352,248464,1,14,0:0:0:0:
256,192,249695,5,8,0:0:0:0:
256,192,249849,1,4,0:0:0:0:
256,96,250157,1,0,0:0:0:0:
160,256,250310,1,8,0:0:0:0:
347,271,250464,1,0,0:0:0:0:
256,0,250772,6,0,L|256:88,1,67.5
256,96,251080,1,8,0:0:0:0:
154,119,251233,1,8,0:0:0:0:
256,192,251387,1,0,0:0:0:0:
358,119,251541,5,8,0:0:0:0:
160,256,251695,1,0,0:0:0:0:
154,119,251849,1,8,0:0:0:0:
352,256,252003,1,12,0:0:0:0:
256,192,252080,12,0,262003,0:0:0:0:
