osu file format v14

[General]
AudioFilename: audio.mp3
AudioLeadIn: 0
PreviewTime: 49802
Countdown: 0
SampleSet: Soft
StackLeniency: 0.7
Mode: 0
LetterboxInBreaks: 0
WidescreenStoryboard: 1

[Editor]
DistanceSpacing: 0.8
BeatDivisor: 4
GridSize: 32
TimelineZoom: 2

[Metadata]
Title:RESOLVE (TV Size)
TitleUnicode:RESOLVE (TV Size)
Artist:Tadokoro Azusa
ArtistUnicode:田所あずさ
Creator:_kotachi_
Version:KOUME'S EXTRA
Source:バキ
Tags:Baki ending Yasaija 714 Shunao Shogunmoon -laura- akitoshi corinn Shirasaka Koume Affirmation neoskylove Firis Mistlud KuranteMelodii krt
BeatmapID:1760280
BeatmapSetID:840081

[Difficulty]
HPDrainRate:6
CircleSize:4
OverallDifficulty:8.5
ApproachRate:9.4
SliderMultiplier:1.9
SliderTickRate:1

[Events]
//Background and Video events
0,0,"BG.jpg",0,0
//Break Periods
2,11172,12278
//Storyboard Layer 0 (Background)
//Storyboard Layer 1 (Fail)
//Storyboard Layer 2 (Pass)
//Storyboard Layer 3 (Foreground)
//Storyboard Sound Samples

[TimingPoints]
1280,307.692307692308,4,2,2,70,1,0
5895,-100,4,2,1,70,0,0
6203,-100,4,2,2,70,0,0
8664,-133.333333333333,4,2,2,70,0,0
8972,-133.333333333333,4,2,2,50,0,0
9280,-133.333333333333,4,2,2,60,0,0
9587,-133.333333333333,4,2,2,70,0,0
9895,-100,4,2,2,70,0,0
10972,-100,4,2,1,70,0,0
12818,-111.111111111111,4,2,1,70,0,0
13587,-111.111111111111,4,2,2,60,0,0
23126,-111.111111111111,4,2,1,60,0,0
23433,-111.111111111111,4,2,2,60,0,0
30049,-111.111111111111,4,2,1,60,0,0
30203,-111.111111111111,4,2,2,60,0,0
30895,-111.111111111111,4,2,2,5,0,0
30972,-100,4,2,2,60,0,0
31049,-100,4,2,2,5,0,0
31126,-100,4,2,2,60,0,0
31203,-100,4,2,2,5,0,0
31280,-100,4,2,2,60,0,0
31433,-100,4,2,1,60,0,0
31895,-100,4,2,2,60,0,0
32126,-100,4,2,2,5,0,0
32203,-100,4,2,1,60,0,0
32972,-166.666666666667,4,2,1,60,0,0
33280,-76.9230769230769,4,2,1,70,0,0
37433,-100,4,2,1,70,0,0
38203,-100,4,2,2,70,0,0
40049,-100,4,2,1,70,0,0
40664,-100,4,2,2,70,0,0
41126,-100,4,2,1,70,0,0
41280,-100,4,2,2,70,0,0
41587,-100,4,2,1,70,0,0
41741,-100,4,2,2,70,0,0
42818,-100,4,2,1,70,0,0
43126,-133.333333333333,4,2,1,70,0,0
46818,-100,4,2,1,70,0,0
48203,-133.333333333333,4,2,2,45,0,0
49126,-83.3333333333333,4,2,2,70,0,0
49433,-83.3333333333333,4,2,2,70,0,0
50510,-100,4,2,1,75,0,1
55433,-100,4,2,2,75,0,1
55587,-100,4,2,1,75,0,1
59126,-100,4,2,2,75,0,1
60049,-100,4,2,1,75,0,1
62818,-100,4,2,2,75,0,1
62972,-100,4,2,1,75,0,1
65280,-100,4,2,2,75,0,1
65433,-100,4,2,1,75,0,1
67741,-100,4,2,2,75,0,1
68664,-100,4,2,1,75,0,1
68741,-100,4,2,2,75,0,1
69433,-100,4,2,1,75,0,1
70203,-83.3333333333333,4,2,1,75,0,1
72664,-83.3333333333333,4,2,2,75,0,1
72818,-83.3333333333333,4,2,1,75,0,1
75126,-83.3333333333333,4,2,2,75,0,1
75587,-83.3333333333333,4,2,1,75,0,1
75741,-83.3333333333333,4,2,2,75,0,1
76664,-83.3333333333333,4,2,2,45,0,1
76972,-83.3333333333333,4,2,2,55,0,1
77280,-83.3333333333333,4,2,2,65,0,1
77587,-76.9230769230769,4,2,1,75,0,1
80049,-111.111111111111,4,2,1,75,0,0
86203,-111.111111111111,4,2,1,55,0,0
87433,-111.111111111111,4,2,1,45,0,0
88049,-111.111111111111,4,2,1,30,0,0
88664,-111.111111111111,4,2,1,15,0,0
88972,-111.111111111111,4,2,1,5,0,0

[Colours]
Combo1 : 255,169,128
Combo2 : 255,0,0
Combo3 : 64,0,0
Combo4 : 255,128,128

[HitObjects]
29,130,1280,5,14,0:1:0:0:
37,101,1356,1,8,0:0:0:0:
52,76,1433,1,8,0:0:0:0:
74,56,1510,1,8,0:0:0:0:
100,43,1587,1,8,0:0:0:0:
129,37,1664,1,8,0:0:0:0:
159,40,1741,1,14,0:0:0:0:
187,50,1818,1,8,0:0:0:0:
210,68,1895,6,0,L|201:129,1,47.5,8|8,0:0|0:0,0:0:0:0:
315,200,2049,2,0,L|308:153,1,47.5,8|8,0:0|0:0,0:0:0:0:
379,18,2203,2,0,L|370:79,1,47.5,14|8,0:1|0:0,0:0:0:0:
484,150,2357,2,0,L|477:103,1,47.5,8|8,0:0|0:0,0:0:0:0:
315,200,2510,5,8,0:0:0:0:
299,218,2586,1,8,0:0:0:0:
290,239,2663,1,14,0:0:0:0:
287,263,2740,1,8,0:0:0:0:
292,286,2817,1,8,0:0:0:0:
303,307,2894,1,8,0:0:0:0:
319,324,2971,1,8,0:0:0:0:
340,335,3048,1,8,0:0:0:0:
364,341,3126,6,0,L|414:329,3,47.5,14|8|8|8,0:1|0:0|0:0|0:0,0:0:0:0:
315,200,3433,2,0,L|265:212,1,47.5,14|8,0:0|0:0,0:0:0:0:
182,303,3587,2,0,L|132:291,1,47.5,8|8,0:0|0:0,0:0:0:0:
8,195,3741,5,14,0:1:0:0:
37,197,3817,1,8,0:0:0:0:
66,191,3894,1,8,0:0:0:0:
91,176,3971,1,8,0:0:0:0:
110,153,4048,1,8,0:0:0:0:
122,126,4125,1,8,0:0:0:0:
124,97,4202,1,14,0:0:0:0:
116,68,4279,1,8,0:0:0:0:
100,43,4356,6,0,L|88:98,1,47.5,8|8,0:0|0:0,0:0:0:0:
211,186,4510,2,0,L|200:139,1,47.5,8|8,0:0|0:0,0:0:0:0:
263,0,4664,2,0,L|251:55,1,47.5,14|8,0:1|0:0,0:0:0:0:
374,143,4818,2,0,L|363:96,1,47.5,8|8,0:0|0:0,0:0:0:0:
493,199,4972,5,8,0:0:0:0:
487,222,5048,1,8,0:0:0:0:
482,245,5125,1,14,0:0:0:0:
477,268,5202,1,8,0:0:0:0:
472,291,5279,1,8,0:0:0:0:
467,315,5356,1,8,0:0:0:0:
462,338,5433,1,8,0:0:0:0:
457,361,5510,1,8,0:0:0:0:
452,384,5587,6,0,L|400:375,3,47.5,14|8|8|8,0:1|0:0|0:0|0:0,0:0:0:0:
337,260,5895,2,0,L|285:269,1,47.5,8|8,0:0|0:3,0:0:0:0:
205,348,6049,2,0,L|153:339,1,47.5,4|8,0:3|0:1,0:0:0:0:
18,223,6203,5,14,0:1:0:0:
34,179,6279,1,8,0:0:0:0:
70,148,6356,1,8,0:0:0:0:
116,140,6433,1,8,0:0:0:0:
161,156,6510,2,0,L|168:213,1,47.5,8|8,0:0|0:0,0:0:0:0:
205,348,6664,5,14,0:0:0:0:
250,364,6741,1,8,0:0:0:0:
296,356,6818,1,8,0:0:0:0:
332,325,6895,1,8,0:0:0:0:
348,281,6972,2,0,L|342:233,1,47.5,8|8,0:0|0:0,0:0:0:0:
267,49,7126,5,14,0:1:0:0:
264,72,7202,1,8,0:0:0:0:
261,96,7279,1,8,0:0:0:0:
258,119,7356,1,8,0:0:0:0:
255,143,7433,2,0,L|307:135,1,47.5,8|8,0:0|0:0,0:0:0:0:
466,162,7587,5,14,0:0:0:0:
469,185,7663,1,8,0:0:0:0:
472,209,7740,1,8,0:0:0:0:
475,232,7817,1,8,0:0:0:0:
478,256,7895,2,0,L|426:248,1,47.5,8|8,0:0|0:0,0:0:0:0:
250,364,8049,6,0,L|302:356,3,47.5,14|8|8|8,0:1|0:0|0:0|0:0,0:0:0:0:
213,210,8356,2,0,L|161:202,1,47.5,14|8,0:0|0:0,0:0:0:0:
46,330,8510,2,0,L|98:322,1,47.5,8|8,0:0|0:0,0:0:0:0:
55,131,8664,6,0,B|13:164|13:164|29:214,1,106.875004076958,6|0,0:1|0:0,0:0:0:0:
103,255,8972,5,10,0:0:0:0:
40,58,9126,1,8,0:0:0:0:
185,219,9280,5,10,0:0:0:0:
162,9,9433,1,8,0:0:0:0:
274,228,9587,5,10,0:0:0:0:
293,16,9741,1,8,0:0:0:0:
346,280,9895,5,14,0:0:0:0:
408,77,10049,1,8,0:0:0:0:
417,62,10125,1,8,0:0:0:0:
431,50,10202,1,10,0:0:0:0:
447,43,10279,1,8,0:0:0:0:
465,41,10356,1,8,0:0:0:0:
482,44,10433,1,8,0:0:0:0:
499,53,10510,6,0,L|491:112,1,47.5,14|8,0:0|0:0,0:0:0:0:
344,195,10664,2,0,L|337:147,1,47.5,8|8,0:0|0:0,0:0:0:0:
512,306,10818,1,10,0:0:0:0:
274,228,10972,1,2,0:3:0:0:
106,144,12818,5,8,0:1:0:0:
106,144,12895,1,8,0:1:0:0:
106,144,12972,1,8,0:0:0:0:
181,240,13126,2,0,L|265:226,1,85.4999973907472,12|0,0:0|0:0,0:0:0:0:
446,107,13433,1,8,0:0:0:0:
446,107,13510,1,8,0:0:0:0:
446,107,13587,6,0,P|400:40|302:66,1,170.999994781494,6|8,0:1|0:0,0:0:0:0:
239,133,14049,1,2,0:0:0:0:
418,223,14203,2,0,L|510:205,1,85.4999973907472,2|2,0:0|0:0,0:0:0:0:
355,384,14510,2,0,P|327:350|326:299,1,85.4999973907472,8|2,0:0|0:0,0:0:0:0:
251,171,14818,5,2,0:0:0:0:
174,342,14972,1,2,0:0:0:0:
52,260,15126,2,0,L|144:242,1,85.4999973907472,8|2,0:0|0:0,0:0:0:0:
295,105,15433,1,2,0:0:0:0:
220,8,15587,2,0,P|175:7|139:34,1,85.4999973907472,2|8,0:0|0:0,0:0:0:0:
101,174,15895,1,2,0:0:0:0:
240,259,16049,6,0,L|377:237,1,128.249996086121,2|2,0:0|0:0,0:0:0:0:
429,275,16356,2,0,P|400:232|400:195,1,85.4999973907472,8|2,0:0|0:0,0:0:0:0:
341,0,16664,2,0,P|314:33|309:75,1,85.4999973907472,2|2,0:0|0:0,0:0:0:0:
131,152,16972,2,0,L|215:165,1,85.4999973907472,8|2,0:0|0:0,0:0:0:0:
65,312,17280,5,2,0:0:0:0:
14,173,17433,1,2,0:0:0:0:
191,365,17587,2,0,L|106:378,1,85.4999973907472,8|2,0:0|0:0,0:0:0:0:
240,259,17895,1,2,0:0:0:0:
342,310,18049,1,2,0:0:0:0:
417,157,18203,1,8,0:0:0:0:
496,365,18356,1,10,0:0:0:0:
496,365,18433,1,0,0:0:0:0:
496,365,18510,6,0,L|393:347,1,85.4999973907472,6|2,0:0|0:0,0:0:0:0:
308,214,18818,2,0,L|411:196,1,85.4999973907472,8|2,0:0|0:0,0:0:0:0:
485,132,19126,1,2,0:0:0:0:
345,51,19280,1,2,0:0:0:0:
237,179,19433,2,0,P|225:218|246:267,1,85.4999973907472,8|2,0:0|0:0,0:0:0:0:
411,350,19741,5,2,0:0:0:0:
308,214,19895,1,2,0:0:0:0:
192,348,20049,2,0,L|295:330,1,85.4999973907472,8|2,0:0|0:0,0:0:0:0:
166,144,20356,1,2,0:0:0:0:
107,362,20510,1,2,0:0:0:0:
0,204,20664,2,0,L|103:222,1,85.4999973907472,8|0,0:0|0:0,0:0:0:0:
191,60,20972,6,0,P|146:56|105:83,1,85.4999973907472,14|2,0:0|0:0,0:0:0:0:
250,169,21280,2,0,P|295:173|336:146,1,85.4999973907472,8|2,0:0|0:0,0:0:0:0:
166,144,21587,2,0,P|162:189|189:230,1,85.4999973907472,8|2,0:0|0:0,0:0:0:0:
275,85,21895,2,0,P|279:40|252:-1,1,85.4999973907472,8|2,0:0|0:0,0:0:0:0:
67,180,22203,5,2,0:0:0:0:
263,256,22356,1,2,0:0:0:0:
107,362,22510,2,0,L|120:270,1,85.4999973907472,12|2,0:0|0:0,0:0:0:0:
220,114,22818,1,8,0:0:0:0:
338,299,22972,1,8,0:0:0:0:
361,314,23048,1,8,0:0:0:0:
389,321,23125,1,8,0:3:0:0:
417,318,23202,1,8,0:3:0:0:
443,306,23279,1,4,0:3:0:0:
463,286,23356,1,4,0:3:0:0:
476,261,23433,6,0,L|463:169,1,85.4999973907472,6|2,0:1|0:0,0:0:0:0:
343,66,23741,2,0,L|331:150,1,85.4999973907472,8|2,0:0|0:0,0:0:0:0:
247,308,24049,1,2,0:0:0:0:
147,183,24203,1,2,0:0:0:0:
96,362,24356,1,8,0:0:0:0:
9,258,24510,1,2,0:0:0:0:
9,258,24587,1,2,0:0:0:0:
9,258,24664,6,0,L|101:244,1,85.4999973907472,2|2,0:0|0:0,0:0:0:0:
187,89,24972,2,0,L|95:75,1,85.4999973907472,8|2,0:0|0:0,0:0:0:0:
245,185,25280,1,2,0:0:0:0:
351,221,25433,1,2,0:0:0:0:
455,180,25587,1,8,0:0:0:0:
508,81,25741,1,2,0:0:0:0:
508,81,25818,1,2,0:0:0:0:
508,81,25895,6,0,L|494:-4,1,85.4999973907472,2|2,0:0|0:0,0:0:0:0:
337,136,26203,2,0,L|351:221,1,85.4999973907472,10|2,0:0|0:0,0:0:0:0:
512,345,26510,1,0,0:0:0:0:
309,295,26664,1,0,0:0:0:0:
467,216,26818,1,8,0:0:0:0:
339,371,26972,1,2,0:0:0:0:
339,371,27049,1,2,0:0:0:0:
339,371,27126,6,0,P|287:375|247:342,1,85.4999973907472,2|2,0:0|0:0,0:0:0:0:
162,188,27433,1,8,0:0:0:0:
64,300,27587,1,2,0:0:0:0:
71,342,27663,1,2,0:0:0:0:
79,384,27740,1,2,0:0:0:0:
236,246,27895,1,2,0:0:0:0:
0,150,28049,2,0,L|100:132,1,85.4999973907472,8|8,0:0|0:0,0:0:0:0:
120,159,28280,1,8,0:0:0:0:
120,159,28356,6,0,P|100:114|109:75,1,85.4999973907472,6|0,0:1|0:0,0:0:0:0:
284,12,28664,1,2,0:0:0:0:
201,239,28818,1,8,0:0:0:0:
201,239,28895,1,8,0:0:0:0:
201,239,28972,2,0,L|110:253,1,85.4999973907472,6|0,0:1|0:0,0:0:0:0:
180,34,29280,1,2,0:0:0:0:
368,112,29433,1,8,0:0:0:0:
368,112,29510,1,8,0:0:0:0:
368,112,29587,6,0,P|373:153|354:191,1,85.4999973907472,6|8,0:0|0:0,0:0:0:0:
296,233,29818,1,8,0:0:0:0:
335,217,29894,1,8,0:0:0:0:
377,216,29971,1,8,0:0:0:0:
417,231,30048,1,8,0:3:0:0:
449,259,30125,1,4,0:3:0:0:
469,297,30202,5,8,0:0:0:0:
289,359,30356,1,2,0:0:0:0:
503,185,30510,1,8,0:0:0:0:
210,105,30664,6,0,B|175:138|175:138|190:216,1,128.249996086121,6|0,0:1|0:0,0:0:0:0:
326,179,30972,2,0,L|278:173,1,47.5,8|0,0:0|0:0,0:0:0:0:
80,58,31126,2,0,L|139:51,1,47.5,8|0,0:0|0:0,0:0:0:0:
301,8,31280,1,2,0:0:0:0:
301,8,31356,1,2,0:0:0:0:
301,8,31433,2,0,P|302:32|292:55,1,47.5,8|8,0:0|0:3,0:0:0:0:
106,171,31587,2,0,P|105:195|115:218,1,47.5,8|4,0:3|0:3,0:0:0:0:
254,313,31741,1,4,0:3:0:0:
8,145,31895,6,0,L|149:128,1,142.5,6|0,0:1|0:0,0:0:0:0:
224,19,32203,2,0,L|153:10,1,47.5,4|4,0:3|0:3,0:0:0:0:
258,172,32356,1,8,0:0:0:0:
308,201,32432,1,8,0:3:0:0:
367,197,32509,1,4,0:3:0:0:
413,162,32586,1,8,0:1:0:0:
433,107,32663,1,12,0:0:0:0:
433,107,32972,6,0,L|425:192,1,85.4999973907472,0|0,0:0|0:0,0:0:0:0:
394,263,33280,6,0,P|420:238|456:233,1,61.7499971733095,12|0,0:1|0:0,0:0:0:0:
118,121,33895,6,0,P|92:146|56:151,1,61.7499971733095,12|0,0:0|0:0,0:0:0:0:
303,339,34510,6,0,P|339:340|368:362,1,61.7499971733095,12|0,0:1|0:0,0:0:0:0:
208,44,35126,6,0,P|172:43|143:21,1,61.7499971733095,12|0,0:0|0:0,0:0:0:0:
184,330,35741,6,0,P|210:356|215:392,1,61.7499971733095,12|0,0:1|0:0,0:0:0:0:
327,53,36356,6,0,P|302:28|297:-7,1,61.7499971733095,12|0,0:0|0:0,0:0:0:0:
108,239,36972,6,0,P|107:275|85:304,1,61.7499971733095,12|0,0:1|0:0,0:0:0:0:
403,144,37433,5,8,0:1:0:0:
283,213,37587,1,8,0:0:0:0:
371,42,37741,1,8,0:1:0:0:
371,42,37818,1,8,0:1:0:0:
371,42,37895,2,0,L|474:61,1,95,8|0,0:0|0:0,0:0:0:0:
498,312,38203,5,12,0:1:0:0:
476,270,38279,1,8,0:0:0:0:
435,246,38356,1,8,0:0:0:0:
388,246,38433,1,8,0:0:0:0:
348,270,38510,1,10,0:0:0:0:
307,294,38586,1,8,0:0:0:0:
260,294,38663,1,8,0:0:0:0:
220,269,38740,1,8,0:0:0:0:
198,228,38818,6,0,L|206:181,1,47.5,10|8,0:0|0:0,0:0:0:0:
50,98,38972,2,0,L|57:145,1,47.5,8|0,0:0|0:0,0:0:0:0:
226,67,39126,2,0,L|233:19,3,47.5,10|0|8|8,0:0|0:0|0:0|0:0,0:0:0:0:
130,173,39433,5,14,0:0:0:0:
151,131,39509,1,8,0:0:0:0:
192,107,39586,1,8,0:0:0:0:
239,107,39663,1,8,0:0:0:0:
279,131,39740,1,10,0:0:0:0:
320,155,39818,1,0,0:0:0:0:
367,155,39895,1,0,0:0:0:0:
407,130,39972,1,0,0:0:0:0:
428,89,40049,5,8,0:3:0:0:
415,108,40125,1,8,0:3:0:0:
406,130,40202,1,8,0:3:0:0:
404,153,40279,1,8,0:3:0:0:
408,177,40356,1,4,0:3:0:0:
418,198,40433,1,4,0:3:0:0:
434,216,40510,1,8,0:1:0:0:
453,229,40587,1,8,0:1:0:0:
476,237,40664,5,12,0:1:0:0:
368,314,40818,1,8,0:0:0:0:
368,314,40895,1,8,0:0:0:0:
368,314,40972,2,0,L|263:297,1,95,10|8,0:0|0:3,0:0:0:0:
217,189,41280,1,10,0:0:0:0:
44,261,41433,1,8,0:0:0:0:
44,261,41510,1,8,0:0:0:0:
44,261,41587,1,8,0:3:0:0:
192,374,41741,1,8,0:0:0:0:
192,374,41818,1,8,0:0:0:0:
192,374,41895,5,10,0:0:0:0:
44,261,42049,2,0,L|-4:270,2,47.5,8|8|2,0:0|0:0|0:0,0:0:0:0:
217,189,42356,2,0,L|265:198,2,47.5,8|8|6,0:0|0:0|0:0,0:0:0:0:
84,87,42664,1,2,0:0:0:0:
177,15,42818,2,0,L|278:34,1,95,8|8,0:3|0:1,0:0:0:0:
448,89,43126,6,0,P|395:89|362:150,1,106.875004076958,12|0,0:1|0:0,0:0:0:0:
443,171,43433,2,0,L|513:157,1,71.2500027179719,8|8,0:1|0:1,0:0:0:0:
395,337,43741,2,0,B|348:328|348:328|323:287|323:287|276:279,1,142.500005435944,12|8,0:0|0:1,0:0:0:0:
185,384,44203,6,0,P|204:350|195:297,1,71.2500027179719,12|0,0:0|0:0,0:0:0:0:
74,193,44510,2,0,B|33:227|33:227|54:316,1,142.500005435944,12|8,0:1|0:1,0:0:0:0:
53,313,44895,1,8,0:1:0:0:
53,313,44972,2,0,L|127:327,1,71.2500027179719,8|8,0:0|0:0,0:0:0:0:
261,189,45280,2,0,L|187:203,1,71.2500027179719,8|8,0:1|0:0,0:0:0:0:
9,133,45587,6,0,P|54:75|127:89,1,142.500005435944,12|10,0:1|0:1,0:0:0:0:
190,202,46049,1,8,0:1:0:0:
299,38,46203,2,0,L|228:24,1,71.2500027179719,10|8,0:0|0:1,0:0:0:0:
360,175,46510,2,0,L|430:161,1,71.2500027179719,10|4,0:3|0:3,0:0:0:0:
499,68,46818,5,12,0:1:0:0:
360,175,46972,1,8,0:3:0:0:
339,204,47048,1,8,0:3:0:0:
332,238,47125,1,4,0:3:0:0:
339,273,47202,1,4,0:3:0:0:
358,302,47279,1,8,0:1:0:0:
388,322,47356,1,8,0:1:0:0:
423,328,47433,6,0,L|412:276,1,47.5,4|4,0:3|0:3,0:0:0:0:
267,186,47587,2,0,L|256:232,1,47.5,4|4,0:3|0:3,0:0:0:0:
175,365,47741,1,8,0:1:0:0:
290,106,47895,1,8,0:0:0:0:
289,106,48203,6,0,P|291:70|274:39,1,71.2500027179719,2|2,0:0|0:0,0:0:0:0:
150,68,48510,1,2,0:0:0:0:
150,68,48587,1,2,0:0:0:0:
150,68,48664,2,0,P|148:103|165:134,2,71.2500027179719,2|2|2,0:0|0:0|0:0,0:0:0:0:
26,249,49126,6,0,L|196:222,1,170.999994781494,14|0,0:0|0:0,0:0:0:0:
245,188,49433,2,0,P|231:217|234:249,1,56.9999982604981,14|8,0:1|0:0,0:0:0:0:
298,363,49587,1,8,0:0:0:0:
325,298,49663,1,8,0:0:0:0:
383,259,49740,1,10,0:1:0:0:
453,258,49817,1,0,0:0:0:0:
512,297,49894,1,8,0:0:0:0:
254,55,50510,6,0,L|149:69,1,95,12|8,0:1|0:1,0:0:0:0:
17,218,50818,2,0,L|122:232,1,95,10|0,0:0|0:0,0:0:0:0:
290,149,51126,1,10,0:1:0:0:
115,317,51280,1,8,0:1:0:0:
347,384,51433,2,0,P|366:338|351:289,1,95,10|0,0:0|0:0,0:0:0:0:
189,110,51741,6,0,B|170:154|170:154|192:196,1,95,10|8,0:1|0:1,0:0:0:0:
389,31,52049,2,0,L|283:8,1,95,10|0,0:0|0:0,0:0:0:0:
241,259,52356,1,10,0:1:0:0:
321,131,52510,1,8,0:1:0:0:
371,306,52664,1,10,0:0:0:0:
451,84,52818,1,0,0:0:0:0:
501,353,52972,6,0,L|400:369,1,95,10|8,0:1|0:1,0:0:0:0:
321,131,53280,2,0,L|422:147,1,95,10|0,0:0|0:0,0:0:0:0:
262,330,53587,1,10,0:1:0:0:
140,199,53741,1,8,0:1:0:0:
22,353,53895,2,0,P|61:385|108:383,1,95,10|0,0:0|0:0,0:0:0:0:
233,182,54203,6,0,L|129:200,1,95,10|8,0:1|0:1,0:0:0:0:
0,36,54510,2,0,L|104:54,1,95,10|0,0:0|0:1,0:0:0:0:
307,212,54818,1,10,0:1:0:0:
168,22,54972,1,8,0:1:0:0:
72,237,55126,2,0,P|109:272|153:274,1,95,10|0,0:0|0:0,0:0:0:0:
265,56,55433,5,6,0:0:0:0:
134,119,55587,1,8,0:1:0:0:
307,212,55741,2,0,P|365:176|456:184,1,142.5,10|0,0:0|0:0,0:0:0:0:
497,237,56049,1,10,0:1:0:0:
386,61,56203,1,8,0:1:0:0:
258,274,56356,2,0,L|277:377,1,95,10|0,0:0|0:0,0:0:0:0:
240,180,56664,5,10,0:1:0:0:
122,265,56818,1,8,0:1:0:0:
8,49,56972,2,0,P|66:85|157:77,1,142.5,10|8,0:0|0:1,0:0:0:0:
198,24,57280,1,10,0:1:0:0:
313,190,57433,1,8,0:1:0:0:
492,92,57587,2,0,P|499:43|481:0,1,95,10|8,0:0|0:1,0:0:0:0:
313,190,57895,6,0,L|328:294,1,95,12|8,0:1|0:1,0:0:0:0:
485,373,58203,2,0,L|498:278,1,95,10|0,0:0|3:1,0:0:0:0:
374,123,58510,1,10,0:1:0:0:
252,257,58664,1,8,0:1:0:0:
139,28,58818,2,0,L|237:42,1,95,12|0,0:0|0:0,0:0:0:0:
29,189,59126,5,14,0:0:0:0:
45,150,59202,1,8,0:0:0:0:
78,126,59279,1,8,0:0:0:0:
118,122,59356,1,8,0:0:0:0:
155,140,59433,1,10,0:0:0:0:
178,174,59510,1,8,0:0:0:0:
179,215,59587,1,8,0:0:0:0:
158,251,59664,1,8,0:0:0:0:
123,270,59741,5,6,0:0:0:0:
156,221,59817,1,0,0:0:0:0:
204,187,59894,1,8,0:0:0:0:
261,172,59971,1,8,0:0:0:0:
320,179,60048,1,8,0:1:0:0:
372,205,60125,1,8,0:1:0:0:
412,249,60202,1,4,0:3:0:0:
434,304,60279,1,4,0:3:0:0:
434,363,60356,6,0,L|332:346,1,95,12|8,0:1|0:1,0:0:0:0:
419,137,60664,2,0,L|521:120,1,95,10|0,0:0|0:0,0:0:0:0:
262,249,60972,1,10,0:1:0:0:
356,56,61126,1,8,0:1:0:0:
155,140,61280,2,0,L|257:157,1,95,10|0,0:0|0:0,0:0:0:0:
71,60,61587,6,0,P|39:96|41:150,1,95,10|8,0:1|0:1,0:0:0:0:
262,249,61895,2,0,L|247:145,1,95,10|0,0:0|0:0,0:0:0:0:
40,316,62203,1,10,0:1:0:0:
110,206,62356,1,8,0:1:0:0:
178,350,62510,1,10,0:0:0:0:
248,154,62664,1,0,0:0:0:0:
316,384,62818,6,0,P|273:359|261:301,1,95,6|8,0:0|0:1,0:0:0:0:
436,205,63126,2,0,P|479:230|491:288,1,95,10|0,0:0|0:0,0:0:0:0:
248,154,63433,1,10,0:1:0:0:
409,287,63587,1,8,0:1:0:0:
512,105,63741,2,0,L|491:6,1,95,10|0,0:0|0:0,0:0:0:0:
350,175,64049,6,0,P|389:202|436:205,1,95,10|8,0:1|0:1,0:0:0:0:
256,45,64356,2,0,L|153:66,1,95,10|0,0:0|0:1,0:0:0:0:
31,194,64664,1,10,0:1:0:0:
245,254,64818,1,8,0:1:0:0:
117,362,64972,2,0,P|88:320|95:267,1,95,10|0,0:0|0:0,0:0:0:0:
289,127,65280,5,6,0:0:0:0:
158,188,65433,1,8,0:1:0:0:
324,305,65587,2,0,P|380:265|463:273,1,142.5,10|0,0:0|3:3,0:0:0:0:
512,343,65895,1,10,0:1:0:0:
512,343,65972,1,8,0:1:0:0:
512,343,66049,1,8,0:1:0:0:
512,343,66126,1,8,0:1:0:0:
512,343,66203,2,0,L|499:238,1,95,12|0,0:0|0:0,0:0:0:0:
336,44,66510,5,12,0:1:0:0:
467,105,66663,1,8,0:1:0:0:
285,225,66818,2,0,P|229:185|146:193,1,142.5,10|0,0:0|3:0,0:0:0:0:
120,255,67125,1,10,0:1:0:0:
120,255,67202,1,8,0:1:0:0:
120,255,67279,1,8,0:1:0:0:
120,255,67356,1,8,0:1:0:0:
120,255,67433,2,0,L|133:150,1,95,12|0,0:0|0:1,0:0:0:0:
466,11,67741,5,14,0:1:0:0:
449,55,67817,1,8,0:0:0:0:
413,85,67894,1,8,0:0:0:0:
367,93,67971,1,8,0:0:0:0:
322,76,68050,1,8,0:0:0:0:
284,51,68126,1,8,0:0:0:0:
238,56,68203,1,10,0:0:0:0:
205,89,68280,1,8,0:0:0:0:
202,135,68357,5,8,0:0:0:0:
229,173,68434,1,8,0:0:0:0:
274,185,68510,2,0,L|342:170,1,47.5,8|8,0:0|0:0,0:0:0:0:
477,249,68664,2,0,L|408:234,1,47.5,8|8,0:3|0:0,0:0:0:0:
215,331,68818,2,0,L|283:316,1,47.5,8|8,0:0|0:0,0:0:0:0:
506,384,68972,5,14,0:0:0:0:
274,185,69126,1,8,0:0:0:0:
228,141,69202,1,8,0:0:0:0:
168,124,69279,1,8,0:0:0:0:
107,137,69356,1,8,0:0:0:0:
58,177,69433,1,8,0:3:0:0:
34,234,69510,1,8,0:3:0:0:
40,297,69587,5,8,0:0:0:0:
46,307,69663,1,8,0:1:0:0:
54,316,69740,1,4,0:3:0:0:
63,324,69817,1,8,0:1:0:0:
74,329,69894,1,8,0:3:0:0:
85,333,69971,1,4,0:3:0:0:
96,335,70048,1,8,0:1:0:0:
108,335,70125,1,8,0:1:0:0:
120,332,70203,6,0,L|137:210,1,113.999996520996,12|0,0:1|0:0,0:0:0:0:
315,95,70510,1,8,0:1:0:0:
404,252,70664,6,0,L|385:126,1,113.999996520996,8|8,0:0|0:1,0:0:0:0:
168,7,70971,1,8,0:1:0:0:
79,164,71126,6,0,L|98:30,1,113.999996520996,8|8,0:0|0:1,0:0:0:0:
257,164,71433,5,12,0:0:0:0:
51,246,71587,1,8,0:1:0:0:
226,384,71741,1,8,0:1:0:0:
360,122,71895,5,12,0:0:0:0:
154,204,72049,1,8,0:1:0:0:
329,342,72203,1,8,0:1:0:0:
463,82,72356,5,12,0:0:0:0:
257,164,72510,1,8,0:1:0:0:
432,302,72664,6,0,P|487:298|524:251,1,113.999996520996,12|8,0:1|0:1,0:0:0:0:
367,17,72972,1,8,0:1:0:0:
249,281,73126,6,0,P|279:326|339:335,1,113.999996520996,8|8,0:0|0:1,0:0:0:0:
463,82,73434,1,8,0:1:0:0:
175,112,73587,6,0,P|150:161|173:217,1,113.999996520996,8|8,0:0|0:1,0:0:0:0:
454,197,73895,5,12,0:0:0:0:
278,61,74049,1,8,0:1:0:0:
249,281,74203,1,8,0:1:0:0:
443,27,74356,5,12,0:0:0:0:
136,153,74510,1,8,0:1:0:0:
400,357,74664,1,8,0:1:0:0:
443,27,74818,2,0,L|320:4,1,113.999996520996,12|8,0:0|0:1,0:0:0:0:
42,173,75126,5,6,0:1:0:0:
67,222,75202,1,8,0:0:0:0:
117,249,75279,1,8,0:0:0:0:
173,242,75356,1,8,0:0:0:0:
215,205,75433,1,10,0:0:0:0:
257,168,75509,1,8,0:0:0:0:
313,161,75586,1,8,0:3:0:0:
362,187,75663,1,8,0:3:0:0:
388,237,75740,5,10,0:0:0:0:
380,293,75817,1,8,0:0:0:0:
342,334,75894,1,8,0:0:0:0:
287,346,75971,1,8,0:0:0:0:
235,324,76049,2,0,P|176:319|130:349,1,113.999996520996,10|8,0:0|0:0,0:0:0:0:
132,346,76280,1,8,0:0:0:0:
131,347,76356,6,0,L|143:284,1,56.9999982604981,14|0,0:0|0:0,0:0:0:0:
41,306,76510,2,0,L|52:242,1,56.9999982604981,0|0,0:0|0:0,0:0:0:0:
106,141,76664,6,0,L|94:77,1,56.9999982604981,10|0,0:0|0:0,0:0:0:0:
196,99,76818,2,0,L|184:35,1,56.9999982604981,8|0,0:0|0:0,0:0:0:0:
406,141,76972,6,0,L|417:77,1,56.9999982604981,10|0,0:0|0:0,0:0:0:0:
316,99,77126,2,0,L|327:35,1,56.9999982604981,8|0,0:0|0:0,0:0:0:0:
380,347,77279,6,0,L|369:284,1,56.9999982604981,10|0,0:0|0:0,0:0:0:0:
471,306,77433,2,0,L|459:242,1,56.9999982604981,8|0,0:0|0:0,0:0:0:0:
256,151,77587,6,0,L|244:211,1,61.7499971733095,12|8,0:0|0:0,0:0:0:0:
118,359,77741,1,8,0:3:0:0:
57,361,77817,1,8,0:3:0:0:
10,323,77894,1,4,0:3:0:0:
1,263,77971,1,0,0:0:0:0:
34,212,78049,2,0,L|99:223,1,61.7499971733095,8|8,0:0|0:0,0:0:0:0:
233,288,78203,5,8,0:3:0:0:
293,290,78279,1,8,0:3:0:0:
340,252,78356,1,4,0:3:0:0:
349,192,78433,1,4,0:3:0:0:
316,141,78511,2,0,L|251:151,1,61.7499971733095,8|0,0:0|0:0,0:0:0:0:
97,14,78664,2,0,L|161:24,1,61.7499971733095,8|8,0:0|0:0,0:0:0:0:
423,143,78818,5,12,0:0:0:0:
423,143,80049,5,8,0:0:0:0:
259,255,80203,2,0,P|196:213|96:220,1,170.999994781494,6|8,0:3|0:1,0:0:0:0:
103,216,80587,1,8,0:1:0:0:
103,216,80664,2,0,L|113:306,2,85.4999973907472,8|10|8,0:0|0:1|0:0,0:0:0:0:
20,34,81126,6,0,L|107:51,1,85.4999973907472,6|0,0:3|0:0,0:0:0:0:
227,139,81433,1,8,0:1:0:0:
268,130,81509,1,8,0:1:0:0:
310,122,81587,1,12,0:0:0:0:
428,150,81741,1,8,0:1:0:0:
500,56,81895,5,12,0:0:0:0:
237,215,82050,1,8,0:0:0:0:
289,5,82203,5,8,0:0:0:0:
449,267,82356,1,12,0:1:0:0:
256,192,82433,12,0,89280,0:0:0:0:
