osu file format v14

[General]
AudioFilename: audio2.mp3
AudioLeadIn: 0
PreviewTime: 57611
Countdown: 0
SampleSet: None
StackLeniency: 0.7
Mode: 3
LetterboxInBreaks: 0
SpecialStyle: 0
WidescreenStoryboard: 0

[Editor]
DistanceSpacing: 0.4
BeatDivisor: 4
GridSize: 32
TimelineZoom: 1.8

[Metadata]
Title:Little Soldier (TV Size)
TitleUnicode:リトルソルジャー (TV Size)
Artist:Tadokoro Azusa
ArtistUnicode:田所あずさ
Creator:- Theya -
Version:MX
Source:転生したらスライムだった件
Tags:TVアニメ エンディング主題歌第二弾 That Time I Got Reincarnated as a Slime ending japanese anime
BeatmapID:2047735
BeatmapSetID:978527

[Difficulty]
HPDrainRate:8
CircleSize:4
OverallDifficulty:8
ApproachRate:5
SliderMultiplier:1.4
SliderTickRate:1

[Events]
//Background and Video events
0,0,"996377.png",0,0
//Break Periods
//Storyboard Layer 0 (Background)
//Storyboard Layer 1 (Fail)
//Storyboard Layer 2 (Pass)
//Storyboard Layer 3 (Foreground)
//Storyboard Sound Samples

[TimingPoints]
945,416.666666666667,4,1,0,5,1,0
57611,-100,4,1,0,5,0,1
69278,-100,4,1,0,5,0,0
70945,-100,4,1,0,5,0,1
80945,-100,4,1,0,5,0,0
85111,-111.111111111111,4,1,0,5,0,0
85945,-125,4,1,0,5,0,0
86778,-142.857142857143,4,1,0,5,0,0

[HitObjects]
448,192,736,5,0,0:0:0:0:
320,192,840,1,0,0:0:0:0:
64,192,945,128,0,2611:0:0:0:0:
192,192,945,128,0,1570:0:0:0:0:
448,192,1570,128,0,1986:0:0:0:0:
192,192,1986,128,0,2195:0:0:0:0:
320,192,2195,128,0,2403:0:0:0:0:
448,192,2403,128,0,2611:0:0:0:0:
192,192,2611,128,0,4278:0:0:0:0:
320,192,2611,128,0,2820:0:0:0:0:
64,192,2924,128,0,3132:0:0:0:0:
448,192,3236,128,0,4070:0:0:0:0:
64,192,4070,128,0,4174:0:0:0:0:
320,192,4174,128,0,4278:0:0:0:0:
64,192,4278,128,0,4903:0:0:0:0:
448,192,4278,128,0,5945:0:0:0:0:
320,192,4903,128,0,5320:0:0:0:0:
192,192,5320,128,0,5528:0:0:0:0:
64,192,5528,128,0,5736:0:0:0:0:
192,192,5736,128,0,5945:0:0:0:0:
64,192,5945,128,0,6361:0:0:0:0:
320,192,5945,128,0,7195:0:0:0:0:
64,192,6570,128,0,6674:0:0:0:0:
448,192,6674,128,0,6778:0:0:0:0:
192,192,6778,128,0,6882:0:0:0:0:
64,192,6986,128,0,7090:0:0:0:0:
64,192,7195,1,0,0:0:0:0:
192,192,7195,1,0,0:0:0:0:
448,192,7195,128,0,7507:0:0:0:0:
64,192,7611,1,0,0:0:0:0:
192,192,7611,1,0,0:0:0:0:
448,192,7611,1,0,0:0:0:0:
448,192,7820,1,0,0:0:0:0:
192,192,7820,1,0,0:0:0:0:
192,192,8028,1,0,0:0:0:0:
64,192,8028,1,0,0:0:0:0:
320,192,8028,1,0,0:0:0:0:
448,192,8236,1,0,0:0:0:0:
320,192,8236,1,0,0:0:0:0:
448,192,8445,1,0,0:0:0:0:
64,192,8445,1,0,0:0:0:0:
192,192,8445,1,0,0:0:0:0:
192,192,8653,1,0,0:0:0:0:
320,192,8653,1,0,0:0:0:0:
448,192,8861,1,0,0:0:0:0:
192,192,8861,1,0,0:0:0:0:
64,192,8861,1,0,0:0:0:0:
320,192,9070,1,0,0:0:0:0:
64,192,9070,1,0,0:0:0:0:
448,192,9278,1,0,0:0:0:0:
320,192,9278,1,0,0:0:0:0:
192,192,9278,1,0,0:0:0:0:
192,192,9486,1,0,0:0:0:0:
64,192,9486,1,0,0:0:0:0:
64,192,9695,1,0,0:0:0:0:
320,192,9695,1,0,0:0:0:0:
448,192,9695,1,0,0:0:0:0:
448,192,9903,1,0,0:0:0:0:
64,192,9903,1,0,0:0:0:0:
192,192,10111,1,0,0:0:0:0:
448,192,10111,1,0,0:0:0:0:
320,192,10111,1,0,0:0:0:0:
320,192,10320,1,0,0:0:0:0:
64,192,10320,1,0,0:0:0:0:
448,192,10528,1,0,0:0:0:0:
320,192,10528,1,0,0:0:0:0:
64,192,10528,1,0,0:0:0:0:
448,192,10736,1,0,0:0:0:0:
192,192,10736,1,0,0:0:0:0:
448,192,10945,1,0,0:0:0:0:
320,192,10945,1,0,0:0:0:0:
192,192,10945,1,0,0:0:0:0:
64,192,10945,1,0,0:0:0:0:
64,192,11153,1,0,0:0:0:0:
192,192,11153,1,0,0:0:0:0:
64,192,11361,1,0,0:0:0:0:
192,192,11361,1,0,0:0:0:0:
192,192,11570,1,0,0:0:0:0:
64,192,11570,1,0,0:0:0:0:
448,192,11570,1,0,0:0:0:0:
320,192,11674,1,0,0:0:0:0:
448,192,11778,1,0,0:0:0:0:
64,192,11778,1,0,0:0:0:0:
192,192,11882,1,0,0:0:0:0:
320,192,11986,1,0,0:0:0:0:
448,192,11986,1,0,0:0:0:0:
192,192,12090,1,0,0:0:0:0:
64,192,12195,1,0,0:0:0:0:
448,192,12195,1,0,0:0:0:0:
320,192,12299,1,0,0:0:0:0:
192,192,12403,1,0,0:0:0:0:
64,192,12403,1,0,0:0:0:0:
320,192,12507,1,0,0:0:0:0:
448,192,12611,1,0,0:0:0:0:
64,192,12611,1,0,0:0:0:0:
192,192,12611,1,0,0:0:0:0:
64,192,14070,1,0,0:0:0:0:
192,192,14174,1,0,0:0:0:0:
320,192,14278,1,0,0:0:0:0:
448,192,14278,1,0,0:0:0:0:
192,192,14382,1,0,0:0:0:0:
64,192,14486,1,0,0:0:0:0:
320,192,14486,1,0,0:0:0:0:
320,192,14590,1,0,0:0:0:0:
448,192,14590,1,0,0:0:0:0:
192,192,14695,1,0,0:0:0:0:
64,192,14695,1,0,0:0:0:0:
448,192,14799,1,0,0:0:0:0:
64,192,14903,128,0,15320:0:0:0:0:
448,192,14903,1,0,0:0:0:0:
320,192,14903,128,0,15215:0:0:0:0:
192,192,14903,128,0,15215:0:0:0:0:
448,192,15320,1,0,0:0:0:0:
320,192,15320,1,0,0:0:0:0:
192,192,15424,1,0,0:0:0:0:
64,192,15424,1,0,0:0:0:0:
320,192,15528,1,0,0:0:0:0:
448,192,15528,1,0,0:0:0:0:
64,192,15632,1,0,0:0:0:0:
192,192,15632,1,0,0:0:0:0:
320,192,15736,1,0,0:0:0:0:
448,192,15736,1,0,0:0:0:0:
192,192,15840,1,0,0:0:0:0:
64,192,15840,1,0,0:0:0:0:
320,192,15945,1,0,0:0:0:0:
192,192,15945,1,0,0:0:0:0:
448,192,15945,128,0,16361:0:0:0:0:
320,192,16153,128,0,16361:0:0:0:0:
192,192,16361,128,0,16570:0:0:0:0:
448,192,16570,128,0,16986:0:0:0:0:
64,192,16570,1,0,0:0:0:0:
320,192,16570,1,0,0:0:0:0:
192,192,16986,1,0,0:0:0:0:
64,192,16986,128,0,17507:0:0:0:0:
320,192,17195,1,0,0:0:0:0:
448,192,17195,128,0,17611:0:0:0:0:
192,192,17611,1,0,0:0:0:0:
64,192,17611,1,0,0:0:0:0:
320,192,17611,1,0,0:0:0:0:
192,192,17820,1,0,0:0:0:0:
320,192,18028,1,0,0:0:0:0:
64,192,18028,1,0,0:0:0:0:
448,192,18028,1,0,0:0:0:0:
320,192,18236,1,0,0:0:0:0:
192,192,18445,1,0,0:0:0:0:
64,192,18445,1,0,0:0:0:0:
448,192,18445,1,0,0:0:0:0:
64,192,18653,1,0,0:0:0:0:
448,192,18861,1,0,0:0:0:0:
192,192,18861,1,0,0:0:0:0:
320,192,18861,1,0,0:0:0:0:
320,192,19070,1,0,0:0:0:0:
192,192,19278,1,0,0:0:0:0:
64,192,19278,1,0,0:0:0:0:
448,192,19278,1,0,0:0:0:0:
64,192,19486,1,0,0:0:0:0:
192,192,19695,1,0,0:0:0:0:
320,192,19695,1,0,0:0:0:0:
448,192,19695,1,0,0:0:0:0:
448,192,19903,1,0,0:0:0:0:
320,192,20111,1,0,0:0:0:0:
192,192,20111,1,0,0:0:0:0:
64,192,20111,1,0,0:0:0:0:
192,192,20320,1,0,0:0:0:0:
320,192,20528,1,0,0:0:0:0:
448,192,20528,1,0,0:0:0:0:
64,192,20528,1,0,0:0:0:0:
320,192,20736,1,0,0:0:0:0:
64,192,20945,1,0,0:0:0:0:
448,192,20945,1,0,0:0:0:0:
192,192,20945,1,0,0:0:0:0:
64,192,21153,1,0,0:0:0:0:
320,192,21361,1,0,0:0:0:0:
448,192,21361,1,0,0:0:0:0:
192,192,21361,1,0,0:0:0:0:
320,192,21570,1,0,0:0:0:0:
448,192,21778,1,0,0:0:0:0:
64,192,21778,1,0,0:0:0:0:
192,192,21778,1,0,0:0:0:0:
64,192,21986,1,0,0:0:0:0:
448,192,22195,1,0,0:0:0:0:
320,192,22195,1,0,0:0:0:0:
192,192,22195,1,0,0:0:0:0:
320,192,22403,1,0,0:0:0:0:
448,192,22611,1,0,0:0:0:0:
64,192,22611,1,0,0:0:0:0:
192,192,22611,1,0,0:0:0:0:
320,192,22820,1,0,0:0:0:0:
448,192,23028,1,0,0:0:0:0:
64,192,23028,1,0,0:0:0:0:
320,192,23028,1,0,0:0:0:0:
192,192,23236,1,0,0:0:0:0:
64,192,23445,128,0,23653:0:0:0:0:
192,192,23445,128,0,23627:0:0:0:0:
320,192,23445,128,0,23601:0:0:0:0:
448,192,23445,128,0,23575:0:0:0:0:
448,192,23653,128,0,23809:0:0:0:0:
320,192,23679,128,0,23809:0:0:0:0:
192,192,23705,128,0,23809:0:0:0:0:
64,192,23731,128,0,23809:0:0:0:0:
320,192,23861,128,0,24043:0:0:0:0:
192,192,23861,128,0,24017:0:0:0:0:
448,192,23861,128,0,24070:0:0:0:0:
64,192,23861,128,0,23991:0:0:0:0:
64,192,24070,128,0,24226:0:0:0:0:
192,192,24096,128,0,24226:0:0:0:0:
320,192,24122,128,0,24226:0:0:0:0:
448,192,24148,128,0,24226:0:0:0:0:
320,192,24278,1,0,0:0:0:0:
448,192,24278,1,0,0:0:0:0:
64,192,24278,1,0,0:0:0:0:
448,192,24486,1,0,0:0:0:0:
320,192,24695,1,0,0:0:0:0:
192,192,24695,1,0,0:0:0:0:
64,192,24695,1,0,0:0:0:0:
64,192,24903,1,0,0:0:0:0:
192,192,25111,1,0,0:0:0:0:
320,192,25111,1,0,0:0:0:0:
448,192,25111,1,0,0:0:0:0:
320,192,25320,1,0,0:0:0:0:
320,192,25528,1,0,0:0:0:0:
64,192,25528,1,0,0:0:0:0:
448,192,25528,1,0,0:0:0:0:
64,192,25736,1,0,0:0:0:0:
192,192,25945,1,0,0:0:0:0:
320,192,25945,1,0,0:0:0:0:
448,192,25945,1,0,0:0:0:0:
448,192,26153,1,0,0:0:0:0:
320,192,26361,1,0,0:0:0:0:
192,192,26361,1,0,0:0:0:0:
64,192,26361,1,0,0:0:0:0:
320,192,26570,1,0,0:0:0:0:
320,192,26778,1,0,0:0:0:0:
448,192,26778,1,0,0:0:0:0:
64,192,26778,1,0,0:0:0:0:
192,192,26986,1,0,0:0:0:0:
192,192,27195,1,0,0:0:0:0:
320,192,27195,1,0,0:0:0:0:
448,192,27195,1,0,0:0:0:0:
320,192,27403,1,0,0:0:0:0:
320,192,27611,1,0,0:0:0:0:
64,192,27611,1,0,0:0:0:0:
448,192,27611,1,0,0:0:0:0:
64,192,27820,1,0,0:0:0:0:
192,192,28028,1,0,0:0:0:0:
320,192,28028,1,0,0:0:0:0:
448,192,28028,1,0,0:0:0:0:
448,192,28236,1,0,0:0:0:0:
320,192,28445,1,0,0:0:0:0:
192,192,28445,1,0,0:0:0:0:
64,192,28445,1,0,0:0:0:0:
192,192,28653,1,0,0:0:0:0:
448,192,28653,1,0,0:0:0:0:
320,192,28861,1,0,0:0:0:0:
64,192,28861,1,0,0:0:0:0:
448,192,28861,1,0,0:0:0:0:
448,192,29070,1,0,0:0:0:0:
64,192,29070,1,0,0:0:0:0:
320,192,29174,1,0,0:0:0:0:
192,192,29278,1,0,0:0:0:0:
64,192,29278,128,0,29486:0:0:0:0:
320,192,29486,1,0,0:0:0:0:
448,192,29486,1,0,0:0:0:0:
320,192,29590,1,0,0:0:0:0:
64,192,29695,1,0,0:0:0:0:
448,192,29695,1,0,0:0:0:0:
192,192,29799,1,0,0:0:0:0:
320,192,29903,1,0,0:0:0:0:
448,192,29903,128,0,30320:0:0:0:0:
192,192,30320,1,0,0:0:0:0:
64,192,30320,1,0,0:0:0:0:
320,192,30424,1,0,0:0:0:0:
448,192,30424,1,0,0:0:0:0:
192,192,30528,1,0,0:0:0:0:
64,192,30528,1,0,0:0:0:0:
320,192,30632,1,0,0:0:0:0:
448,192,30632,1,0,0:0:0:0:
192,192,30736,1,0,0:0:0:0:
64,192,30736,1,0,0:0:0:0:
320,192,30840,1,0,0:0:0:0:
448,192,30840,1,0,0:0:0:0:
64,192,30945,1,0,0:0:0:0:
192,192,30945,1,0,0:0:0:0:
448,192,30945,1,0,0:0:0:0:
320,192,31153,1,0,0:0:0:0:
64,192,31361,1,0,0:0:0:0:
448,192,31361,1,0,0:0:0:0:
192,192,31361,1,0,0:0:0:0:
192,192,31570,1,0,0:0:0:0:
448,192,31778,1,0,0:0:0:0:
320,192,31778,1,0,0:0:0:0:
64,192,31778,1,0,0:0:0:0:
448,192,31986,1,0,0:0:0:0:
192,192,32195,1,0,0:0:0:0:
320,192,32195,1,0,0:0:0:0:
64,192,32195,1,0,0:0:0:0:
192,192,32403,1,0,0:0:0:0:
448,192,32611,1,0,0:0:0:0:
64,192,32611,1,0,0:0:0:0:
320,192,32611,1,0,0:0:0:0:
448,192,32820,1,0,0:0:0:0:
192,192,33028,1,0,0:0:0:0:
320,192,33028,1,0,0:0:0:0:
64,192,33028,1,0,0:0:0:0:
64,192,33236,1,0,0:0:0:0:
320,192,33445,1,0,0:0:0:0:
192,192,33445,1,0,0:0:0:0:
448,192,33445,1,0,0:0:0:0:
320,192,33653,1,0,0:0:0:0:
64,192,33861,1,0,0:0:0:0:
192,192,33861,1,0,0:0:0:0:
448,192,33861,1,0,0:0:0:0:
192,192,34070,1,0,0:0:0:0:
448,192,34278,1,0,0:0:0:0:
64,192,34278,1,0,0:0:0:0:
320,192,34278,1,0,0:0:0:0:
448,192,34486,1,0,0:0:0:0:
320,192,34695,1,0,0:0:0:0:
64,192,34695,1,0,0:0:0:0:
192,192,34695,1,0,0:0:0:0:
192,192,34903,1,0,0:0:0:0:
320,192,35111,1,0,0:0:0:0:
448,192,35111,1,0,0:0:0:0:
64,192,35111,1,0,0:0:0:0:
448,192,35320,1,0,0:0:0:0:
192,192,35528,1,0,0:0:0:0:
320,192,35528,1,0,0:0:0:0:
64,192,35528,1,0,0:0:0:0:
192,192,35736,1,0,0:0:0:0:
320,192,35945,1,0,0:0:0:0:
448,192,35945,1,0,0:0:0:0:
64,192,35945,1,0,0:0:0:0:
192,192,36153,1,0,0:0:0:0:
192,192,36361,1,0,0:0:0:0:
448,192,36361,1,0,0:0:0:0:
64,192,36361,1,0,0:0:0:0:
320,192,36570,1,0,0:0:0:0:
192,192,36778,128,0,36960:0:0:0:0:
64,192,36778,128,0,36908:0:0:0:0:
320,192,36778,128,0,36934:0:0:0:0:
448,192,36778,128,0,36986:0:0:0:0:
64,192,36986,128,0,37142:0:0:0:0:
320,192,37012,128,0,37142:0:0:0:0:
192,192,37038,128,0,37142:0:0:0:0:
448,192,37064,128,0,37142:0:0:0:0:
320,192,37195,128,0,37351:0:0:0:0:
64,192,37195,128,0,37325:0:0:0:0:
192,192,37195,128,0,37377:0:0:0:0:
448,192,37195,128,0,37403:0:0:0:0:
64,192,37403,128,0,37559:0:0:0:0:
320,192,37429,128,0,37559:0:0:0:0:
192,192,37455,128,0,37559:0:0:0:0:
448,192,37481,128,0,37559:0:0:0:0:
448,192,37611,1,0,0:0:0:0:
64,192,37611,1,0,0:0:0:0:
192,192,37611,1,0,0:0:0:0:
64,192,37820,1,0,0:0:0:0:
320,192,38028,1,0,0:0:0:0:
448,192,38028,1,0,0:0:0:0:
192,192,38028,1,0,0:0:0:0:
448,192,38236,1,0,0:0:0:0:
64,192,38445,1,0,0:0:0:0:
192,192,38445,1,0,0:0:0:0:
320,192,38445,1,0,0:0:0:0:
192,192,38653,1,0,0:0:0:0:
64,192,38861,1,0,0:0:0:0:
448,192,38861,1,0,0:0:0:0:
192,192,38861,1,0,0:0:0:0:
448,192,39070,1,0,0:0:0:0:
64,192,39278,1,0,0:0:0:0:
192,192,39278,1,0,0:0:0:0:
320,192,39278,1,0,0:0:0:0:
64,192,39486,1,0,0:0:0:0:
320,192,39695,1,0,0:0:0:0:
448,192,39695,1,0,0:0:0:0:
192,192,39695,1,0,0:0:0:0:
192,192,39903,1,0,0:0:0:0:
448,192,40111,1,0,0:0:0:0:
64,192,40111,1,0,0:0:0:0:
192,192,40111,1,0,0:0:0:0:
320,192,40320,1,0,0:0:0:0:
192,192,40528,1,0,0:0:0:0:
320,192,40528,1,0,0:0:0:0:
64,192,40528,1,0,0:0:0:0:
192,192,40736,1,0,0:0:0:0:
192,192,40945,1,0,0:0:0:0:
448,192,40945,1,0,0:0:0:0:
64,192,40945,1,0,0:0:0:0:
448,192,41153,1,0,0:0:0:0:
192,192,41361,1,0,0:0:0:0:
320,192,41361,1,0,0:0:0:0:
64,192,41361,1,0,0:0:0:0:
64,192,41570,1,0,0:0:0:0:
448,192,41778,1,0,0:0:0:0:
320,192,41778,1,0,0:0:0:0:
192,192,41778,1,0,0:0:0:0:
64,192,41986,1,0,0:0:0:0:
320,192,41986,1,0,0:0:0:0:
64,192,42195,1,0,0:0:0:0:
448,192,42195,1,0,0:0:0:0:
192,192,42195,1,0,0:0:0:0:
64,192,42403,1,0,0:0:0:0:
448,192,42403,1,0,0:0:0:0:
192,192,42507,1,0,0:0:0:0:
448,192,42611,1,0,0:0:0:0:
320,192,42611,1,0,0:0:0:0:
192,192,42820,1,0,0:0:0:0:
320,192,42820,1,0,0:0:0:0:
64,192,43028,1,0,0:0:0:0:
192,192,43028,1,0,0:0:0:0:
448,192,43236,1,0,0:0:0:0:
320,192,43236,1,0,0:0:0:0:
192,192,43340,1,0,0:0:0:0:
64,192,43445,1,0,0:0:0:0:
448,192,43445,1,0,0:0:0:0:
448,192,43549,1,0,0:0:0:0:
64,192,43653,1,0,0:0:0:0:
192,192,43653,1,0,0:0:0:0:
192,192,43757,1,0,0:0:0:0:
320,192,43861,1,0,0:0:0:0:
448,192,43861,1,0,0:0:0:0:
64,192,43965,1,0,0:0:0:0:
320,192,44070,1,0,0:0:0:0:
192,192,44070,1,0,0:0:0:0:
448,192,44174,1,0,0:0:0:0:
192,192,44278,1,0,0:0:0:0:
64,192,44278,1,0,0:0:0:0:
192,192,44590,1,0,0:0:0:0:
64,192,44590,1,0,0:0:0:0:
192,192,44903,1,0,0:0:0:0:
64,192,44903,1,0,0:0:0:0:
448,192,45320,1,0,0:0:0:0:
64,192,45320,1,0,0:0:0:0:
192,192,45528,1,0,0:0:0:0:
320,192,45528,1,0,0:0:0:0:
64,192,45528,1,0,0:0:0:0:
192,192,45736,1,0,0:0:0:0:
448,192,45945,1,0,0:0:0:0:
320,192,45945,1,0,0:0:0:0:
448,192,46257,1,0,0:0:0:0:
320,192,46257,1,0,0:0:0:0:
448,192,46570,1,0,0:0:0:0:
320,192,46570,1,0,0:0:0:0:
64,192,46986,1,0,0:0:0:0:
320,192,46986,1,0,0:0:0:0:
192,192,47195,1,0,0:0:0:0:
320,192,47195,1,0,0:0:0:0:
448,192,47195,1,0,0:0:0:0:
448,192,47403,1,0,0:0:0:0:
320,192,47611,1,0,0:0:0:0:
64,192,47611,1,0,0:0:0:0:
64,192,47924,1,0,0:0:0:0:
320,192,47924,1,0,0:0:0:0:
64,192,48236,1,0,0:0:0:0:
320,192,48236,1,0,0:0:0:0:
320,192,48653,1,0,0:0:0:0:
448,192,48653,1,0,0:0:0:0:
64,192,48861,1,0,0:0:0:0:
320,192,48861,1,0,0:0:0:0:
448,192,48861,1,0,0:0:0:0:
320,192,49070,1,0,0:0:0:0:
192,192,49070,1,0,0:0:0:0:
448,192,49278,1,0,0:0:0:0:
64,192,49278,1,0,0:0:0:0:
64,192,49590,1,0,0:0:0:0:
448,192,49590,1,0,0:0:0:0:
448,192,49903,1,0,0:0:0:0:
64,192,49903,1,0,0:0:0:0:
192,192,50111,1,0,0:0:0:0:
320,192,50111,1,0,0:0:0:0:
448,192,50111,1,0,0:0:0:0:
64,192,50111,1,0,0:0:0:0:
448,192,50320,1,0,0:0:0:0:
320,192,50320,1,0,0:0:0:0:
192,192,50424,1,0,0:0:0:0:
64,192,50424,1,0,0:0:0:0:
320,192,50528,1,0,0:0:0:0:
448,192,50528,1,0,0:0:0:0:
192,192,50632,1,0,0:0:0:0:
64,192,50632,1,0,0:0:0:0:
320,192,50736,1,0,0:0:0:0:
448,192,50736,1,0,0:0:0:0:
192,192,50840,1,0,0:0:0:0:
64,192,50840,1,0,0:0:0:0:
320,192,50945,1,0,0:0:0:0:
448,192,50945,1,0,0:0:0:0:
192,192,50945,1,0,0:0:0:0:
192,192,51153,1,0,0:0:0:0:
64,192,51153,1,0,0:0:0:0:
320,192,51361,1,0,0:0:0:0:
192,192,51361,1,0,0:0:0:0:
448,192,51570,1,0,0:0:0:0:
64,192,51570,1,0,0:0:0:0:
192,192,51778,1,0,0:0:0:0:
448,192,51778,1,0,0:0:0:0:
320,192,51986,1,0,0:0:0:0:
64,192,51986,1,0,0:0:0:0:
192,192,52195,1,0,0:0:0:0:
320,192,52195,1,0,0:0:0:0:
448,192,52195,1,0,0:0:0:0:
448,192,52403,1,0,0:0:0:0:
320,192,52403,1,0,0:0:0:0:
64,192,52403,1,0,0:0:0:0:
64,192,52611,1,0,0:0:0:0:
192,192,52611,1,0,0:0:0:0:
448,192,52611,1,0,0:0:0:0:
64,192,52820,1,0,0:0:0:0:
192,192,52820,1,0,0:0:0:0:
320,192,52820,1,0,0:0:0:0:
448,192,53028,1,0,0:0:0:0:
320,192,53028,1,0,0:0:0:0:
64,192,53028,1,0,0:0:0:0:
192,192,53236,1,0,0:0:0:0:
320,192,53236,1,0,0:0:0:0:
448,192,53236,1,0,0:0:0:0:
64,192,53445,1,0,0:0:0:0:
448,192,53445,1,0,0:0:0:0:
192,192,53445,128,0,53757:0:0:0:0:
448,192,53757,1,0,0:0:0:0:
320,192,53757,1,0,0:0:0:0:
192,192,53861,1,0,0:0:0:0:
64,192,53861,1,0,0:0:0:0:
320,192,53965,1,0,0:0:0:0:
448,192,53965,1,0,0:0:0:0:
192,192,54070,1,0,0:0:0:0:
64,192,54070,1,0,0:0:0:0:
320,192,54174,1,0,0:0:0:0:
448,192,54174,1,0,0:0:0:0:
192,192,54278,1,0,0:0:0:0:
64,192,54278,1,0,0:0:0:0:
320,192,54278,1,0,0:0:0:0:
448,192,54590,128,0,54695:0:0:0:0:
320,192,54695,128,0,54799:0:0:0:0:
64,192,54903,128,0,55007:0:0:0:0:
192,192,55007,128,0,55111:0:0:0:0:
320,192,55111,128,0,55215:0:0:0:0:
448,192,55320,128,0,55424:0:0:0:0:
320,192,55424,128,0,55528:0:0:0:0:
192,192,55528,128,0,55632:0:0:0:0:
64,192,55736,128,0,55840:0:0:0:0:
192,192,55736,1,0,0:0:0:0:
320,192,55840,128,0,55945:0:0:0:0:
192,192,55945,128,0,56049:0:0:0:0:
448,192,55945,128,0,56049:0:0:0:0:
64,192,55945,128,0,56049:0:0:0:0:
192,192,56153,128,0,56257:0:0:0:0:
320,192,56153,128,0,56257:0:0:0:0:
448,192,56153,128,0,56257:0:0:0:0:
64,192,56361,128,0,56465:0:0:0:0:
192,192,56361,128,0,56465:0:0:0:0:
320,192,56361,128,0,56465:0:0:0:0:
448,192,56570,1,0,0:0:0:0:
320,192,56570,1,0,0:0:0:0:
192,192,56674,1,0,0:0:0:0:
64,192,56674,1,0,0:0:0:0:
320,192,56778,1,0,0:0:0:0:
448,192,56778,1,0,0:0:0:0:
192,192,56882,1,0,0:0:0:0:
64,192,56882,1,0,0:0:0:0:
320,192,56986,1,0,0:0:0:0:
192,192,56986,1,0,0:0:0:0:
448,192,56986,1,0,0:0:0:0:
192,192,57090,1,0,0:0:0:0:
64,192,57090,1,0,0:0:0:0:
64,192,57195,5,0,0:0:0:0:
320,192,57195,1,0,0:0:0:0:
320,192,57299,1,0,0:0:0:0:
448,192,57299,1,0,0:0:0:0:
192,192,57403,1,0,0:0:0:0:
64,192,57403,1,0,0:0:0:0:
448,192,57507,1,0,0:0:0:0:
320,192,57507,1,0,0:0:0:0:
64,192,57611,128,0,58028:0:0:0:0:
192,192,57611,128,0,57820:0:0:0:0:
320,192,57715,128,0,57820:0:0:0:0:
448,192,57820,128,0,57924:0:0:0:0:
192,192,57924,128,0,58028:0:0:0:0:
448,192,58028,128,0,58445:0:0:0:0:
320,192,58028,128,0,58236:0:0:0:0:
64,192,58132,128,0,58236:0:0:0:0:
192,192,58236,128,0,58340:0:0:0:0:
320,192,58340,128,0,58445:0:0:0:0:
192,192,58445,128,0,58861:0:0:0:0:
64,192,58445,128,0,58653:0:0:0:0:
448,192,58549,128,0,58653:0:0:0:0:
320,192,58653,128,0,58757:0:0:0:0:
64,192,58757,128,0,58861:0:0:0:0:
448,192,58861,128,0,59278:0:0:0:0:
320,192,58861,128,0,59070:0:0:0:0:
192,192,58965,128,0,59070:0:0:0:0:
64,192,59070,128,0,59174:0:0:0:0:
320,192,59174,128,0,59278:0:0:0:0:
192,192,59278,128,0,59695:0:0:0:0:
64,192,59278,128,0,59486:0:0:0:0:
320,192,59382,128,0,59486:0:0:0:0:
448,192,59486,128,0,59590:0:0:0:0:
64,192,59590,128,0,59695:0:0:0:0:
320,192,59695,128,0,60111:0:0:0:0:
448,192,59695,128,0,59903:0:0:0:0:
192,192,59799,128,0,59903:0:0:0:0:
64,192,59903,128,0,60007:0:0:0:0:
448,192,60007,128,0,60111:0:0:0:0:
64,192,60111,128,0,60528:0:0:0:0:
192,192,60111,128,0,60320:0:0:0:0:
448,192,60215,128,0,60320:0:0:0:0:
320,192,60320,128,0,60424:0:0:0:0:
192,192,60424,128,0,60528:0:0:0:0:
320,192,60528,128,0,60736:0:0:0:0:
448,192,60528,128,0,60945:0:0:0:0:
192,192,60632,128,0,60736:0:0:0:0:
64,192,60736,128,0,60840:0:0:0:0:
320,192,60840,128,0,60945:0:0:0:0:
192,192,60945,128,0,61153:0:0:0:0:
64,192,60945,128,0,61361:0:0:0:0:
448,192,61049,128,0,61153:0:0:0:0:
320,192,61153,128,0,61257:0:0:0:0:
192,192,61257,128,0,61361:0:0:0:0:
320,192,61361,128,0,61778:0:0:0:0:
448,192,61361,128,0,61570:0:0:0:0:
64,192,61465,128,0,61570:0:0:0:0:
192,192,61570,128,0,61674:0:0:0:0:
448,192,61674,128,0,61778:0:0:0:0:
192,192,61778,128,0,62195:0:0:0:0:
64,192,61778,128,0,61986:0:0:0:0:
320,192,61882,128,0,61986:0:0:0:0:
448,192,61986,128,0,62090:0:0:0:0:
64,192,62090,128,0,62195:0:0:0:0:
320,192,62195,128,0,62403:0:0:0:0:
448,192,62195,128,0,62611:0:0:0:0:
192,192,62299,128,0,62403:0:0:0:0:
64,192,62403,128,0,62507:0:0:0:0:
320,192,62507,128,0,62611:0:0:0:0:
64,192,62611,128,0,63028:0:0:0:0:
192,192,62611,128,0,62820:0:0:0:0:
448,192,62715,128,0,62820:0:0:0:0:
320,192,62820,128,0,62924:0:0:0:0:
192,192,62924,128,0,63028:0:0:0:0:
320,192,63028,128,0,63445:0:0:0:0:
448,192,63028,128,0,63236:0:0:0:0:
192,192,63132,128,0,63236:0:0:0:0:
64,192,63236,128,0,63340:0:0:0:0:
448,192,63340,128,0,63445:0:0:0:0:
192,192,63445,128,0,63861:0:0:0:0:
64,192,63445,128,0,63653:0:0:0:0:
320,192,63549,128,0,63653:0:0:0:0:
448,192,63653,128,0,63757:0:0:0:0:
64,192,63757,128,0,63861:0:0:0:0:
448,192,63861,128,0,64278:0:0:0:0:
320,192,63861,128,0,64070:0:0:0:0:
192,192,63965,128,0,64070:0:0:0:0:
64,192,64070,128,0,64174:0:0:0:0:
320,192,64174,128,0,64278:0:0:0:0:
64,192,64278,128,0,64695:0:0:0:0:
192,192,64278,128,0,64486:0:0:0:0:
448,192,64382,128,0,64486:0:0:0:0:
320,192,64486,128,0,64590:0:0:0:0:
192,192,64590,128,0,64695:0:0:0:0:
320,192,64695,128,0,65111:0:0:0:0:
448,192,64695,128,0,64903:0:0:0:0:
64,192,64799,128,0,64903:0:0:0:0:
192,192,64903,128,0,65007:0:0:0:0:
448,192,65007,128,0,65111:0:0:0:0:
64,192,65111,128,0,65528:0:0:0:0:
192,192,65111,128,0,65320:0:0:0:0:
320,192,65215,128,0,65320:0:0:0:0:
448,192,65320,128,0,65424:0:0:0:0:
192,192,65424,128,0,65528:0:0:0:0:
320,192,65528,128,0,65945:0:0:0:0:
448,192,65528,128,0,65736:0:0:0:0:
192,192,65632,128,0,65736:0:0:0:0:
64,192,65736,128,0,65840:0:0:0:0:
448,192,65840,128,0,65945:0:0:0:0:
192,192,65945,128,0,66361:0:0:0:0:
64,192,65945,128,0,66153:0:0:0:0:
320,192,66049,128,0,66153:0:0:0:0:
448,192,66153,128,0,66257:0:0:0:0:
64,192,66257,128,0,66361:0:0:0:0:
448,192,66361,128,0,66778:0:0:0:0:
320,192,66361,128,0,66570:0:0:0:0:
64,192,66465,128,0,66570:0:0:0:0:
192,192,66570,128,0,66674:0:0:0:0:
320,192,66674,128,0,66778:0:0:0:0:
192,192,66778,128,0,66986:0:0:0:0:
64,192,66778,128,0,67195:0:0:0:0:
320,192,66882,128,0,66986:0:0:0:0:
448,192,66986,128,0,67090:0:0:0:0:
192,192,67090,128,0,67195:0:0:0:0:
320,192,67195,128,0,67403:0:0:0:0:
448,192,67195,128,0,67611:0:0:0:0:
64,192,67299,128,0,67403:0:0:0:0:
192,192,67403,128,0,67507:0:0:0:0:
320,192,67507,128,0,67611:0:0:0:0:
192,192,67611,128,0,68028:0:0:0:0:
64,192,67611,128,0,67820:0:0:0:0:
448,192,67715,128,0,67820:0:0:0:0:
320,192,67820,128,0,67924:0:0:0:0:
64,192,67924,128,0,68028:0:0:0:0:
320,192,68028,128,0,68445:0:0:0:0:
448,192,68028,128,0,68236:0:0:0:0:
192,192,68132,128,0,68236:0:0:0:0:
64,192,68236,128,0,68340:0:0:0:0:
448,192,68340,128,0,68445:0:0:0:0:
192,192,68445,128,0,68653:0:0:0:0:
64,192,68445,128,0,68861:0:0:0:0:
320,192,68549,128,0,68653:0:0:0:0:
448,192,68653,128,0,68757:0:0:0:0:
192,192,68757,128,0,68861:0:0:0:0:
448,192,68861,128,0,69278:0:0:0:0:
320,192,68861,128,0,69070:0:0:0:0:
64,192,68965,128,0,69070:0:0:0:0:
192,192,69070,128,0,69174:0:0:0:0:
320,192,69174,128,0,69278:0:0:0:0:
64,192,69278,1,0,0:0:0:0:
192,192,69278,1,0,0:0:0:0:
320,192,69382,1,0,0:0:0:0:
448,192,69486,1,0,0:0:0:0:
192,192,69486,1,0,0:0:0:0:
64,192,69486,1,0,0:0:0:0:
448,192,69695,1,0,0:0:0:0:
320,192,69695,1,0,0:0:0:0:
64,192,69695,1,0,0:0:0:0:
192,192,69799,1,0,0:0:0:0:
320,192,69903,1,0,0:0:0:0:
448,192,69903,1,0,0:0:0:0:
64,192,70007,1,0,0:0:0:0:
448,192,70111,1,0,0:0:0:0:
192,192,70111,1,0,0:0:0:0:
320,192,70215,1,0,0:0:0:0:
320,192,70320,1,0,0:0:0:0:
448,192,70320,1,0,0:0:0:0:
64,192,70424,1,0,0:0:0:0:
192,192,70424,1,0,0:0:0:0:
320,192,70528,1,0,0:0:0:0:
448,192,70528,1,0,0:0:0:0:
192,192,70632,1,0,0:0:0:0:
64,192,70632,1,0,0:0:0:0:
320,192,70736,1,0,0:0:0:0:
448,192,70736,1,0,0:0:0:0:
64,192,70840,1,0,0:0:0:0:
192,192,70840,1,0,0:0:0:0:
448,192,70945,128,0,71361:0:0:0:0:
320,192,70945,128,0,71153:0:0:0:0:
192,192,71049,128,0,71153:0:0:0:0:
64,192,71153,128,0,71257:0:0:0:0:
320,192,71257,128,0,71361:0:0:0:0:
64,192,71361,128,0,71778:0:0:0:0:
192,192,71361,128,0,71570:0:0:0:0:
448,192,71465,128,0,71570:0:0:0:0:
320,192,71570,128,0,71674:0:0:0:0:
192,192,71674,128,0,71778:0:0:0:0:
320,192,71778,128,0,72195:0:0:0:0:
448,192,71778,128,0,71986:0:0:0:0:
64,192,71882,128,0,71986:0:0:0:0:
192,192,71986,128,0,72090:0:0:0:0:
448,192,72090,128,0,72195:0:0:0:0:
64,192,72195,128,0,72611:0:0:0:0:
192,192,72195,128,0,72403:0:0:0:0:
320,192,72299,128,0,72403:0:0:0:0:
448,192,72403,128,0,72507:0:0:0:0:
192,192,72507,128,0,72611:0:0:0:0:
320,192,72611,128,0,73028:0:0:0:0:
448,192,72611,128,0,72820:0:0:0:0:
192,192,72715,128,0,72820:0:0:0:0:
64,192,72820,128,0,72924:0:0:0:0:
448,192,72924,128,0,73028:0:0:0:0:
192,192,73028,128,0,73445:0:0:0:0:
64,192,73028,128,0,73236:0:0:0:0:
320,192,73132,128,0,73236:0:0:0:0:
448,192,73236,128,0,73340:0:0:0:0:
64,192,73340,128,0,73445:0:0:0:0:
448,192,73445,128,0,73861:0:0:0:0:
320,192,73445,128,0,73653:0:0:0:0:
64,192,73549,128,0,73653:0:0:0:0:
192,192,73653,128,0,73757:0:0:0:0:
320,192,73757,128,0,73861:0:0:0:0:
192,192,73861,128,0,74070:0:0:0:0:
64,192,73861,128,0,74278:0:0:0:0:
320,192,73965,128,0,74070:0:0:0:0:
448,192,74070,128,0,74174:0:0:0:0:
192,192,74174,128,0,74278:0:0:0:0:
320,192,74278,128,0,74486:0:0:0:0:
448,192,74278,128,0,74695:0:0:0:0:
64,192,74382,128,0,74486:0:0:0:0:
192,192,74486,128,0,74590:0:0:0:0:
320,192,74590,128,0,74695:0:0:0:0:
192,192,74695,128,0,75111:0:0:0:0:
64,192,74695,128,0,74903:0:0:0:0:
448,192,74799,128,0,74903:0:0:0:0:
320,192,74903,128,0,75007:0:0:0:0:
64,192,75007,128,0,75111:0:0:0:0:
320,192,75111,128,0,75528:0:0:0:0:
448,192,75111,128,0,75320:0:0:0:0:
192,192,75215,128,0,75320:0:0:0:0:
64,192,75320,128,0,75424:0:0:0:0:
448,192,75424,128,0,75528:0:0:0:0:
192,192,75528,128,0,75736:0:0:0:0:
64,192,75528,128,0,75945:0:0:0:0:
320,192,75632,128,0,75736:0:0:0:0:
448,192,75736,128,0,75840:0:0:0:0:
192,192,75840,128,0,75945:0:0:0:0:
448,192,75945,128,0,76361:0:0:0:0:
320,192,75945,128,0,76153:0:0:0:0:
64,192,76049,128,0,76153:0:0:0:0:
192,192,76153,128,0,76257:0:0:0:0:
320,192,76257,128,0,76361:0:0:0:0:
192,192,76361,128,0,76778:0:0:0:0:
64,192,76361,128,0,76570:0:0:0:0:
320,192,76465,128,0,76570:0:0:0:0:
448,192,76570,128,0,76674:0:0:0:0:
64,192,76674,128,0,76778:0:0:0:0:
320,192,76778,128,0,77195:0:0:0:0:
448,192,76778,128,0,76986:0:0:0:0:
192,192,76882,128,0,76986:0:0:0:0:
64,192,76986,128,0,77090:0:0:0:0:
448,192,77090,128,0,77195:0:0:0:0:
64,192,77195,128,0,77611:0:0:0:0:
192,192,77195,128,0,77403:0:0:0:0:
320,192,77299,128,0,77403:0:0:0:0:
448,192,77403,128,0,77507:0:0:0:0:
192,192,77507,128,0,77611:0:0:0:0:
448,192,77611,128,0,78028:0:0:0:0:
320,192,77611,128,0,77820:0:0:0:0:
64,192,77715,128,0,77820:0:0:0:0:
192,192,77820,128,0,77924:0:0:0:0:
320,192,77924,128,0,78028:0:0:0:0:
192,192,78028,128,0,78445:0:0:0:0:
64,192,78028,128,0,78236:0:0:0:0:
448,192,78132,128,0,78236:0:0:0:0:
320,192,78236,128,0,78340:0:0:0:0:
64,192,78340,128,0,78445:0:0:0:0:
448,192,78445,128,0,78861:0:0:0:0:
320,192,78445,128,0,78653:0:0:0:0:
192,192,78549,128,0,78653:0:0:0:0:
64,192,78653,128,0,78757:0:0:0:0:
320,192,78757,128,0,78861:0:0:0:0:
192,192,78861,128,0,79278:0:0:0:0:
64,192,78861,128,0,79070:0:0:0:0:
320,192,78965,128,0,79070:0:0:0:0:
448,192,79070,128,0,79174:0:0:0:0:
64,192,79174,128,0,79278:0:0:0:0:
320,192,79278,128,0,79695:0:0:0:0:
448,192,79278,128,0,79486:0:0:0:0:
192,192,79382,128,0,79486:0:0:0:0:
64,192,79486,128,0,79590:0:0:0:0:
448,192,79590,128,0,79695:0:0:0:0:
64,192,79695,128,0,80111:0:0:0:0:
192,192,79695,128,0,79903:0:0:0:0:
448,192,79799,128,0,79903:0:0:0:0:
320,192,79903,128,0,80007:0:0:0:0:
192,192,80007,128,0,80111:0:0:0:0:
448,192,80111,128,0,80528:0:0:0:0:
320,192,80111,128,0,80320:0:0:0:0:
192,192,80215,128,0,80320:0:0:0:0:
64,192,80320,128,0,80424:0:0:0:0:
320,192,80424,128,0,80528:0:0:0:0:
192,192,80528,1,0,0:0:0:0:
64,192,80528,1,0,0:0:0:0:
320,192,80632,1,0,0:0:0:0:
448,192,80632,1,0,0:0:0:0:
192,192,80736,1,0,0:0:0:0:
64,192,80736,1,0,0:0:0:0:
320,192,80840,1,0,0:0:0:0:
448,192,80840,1,0,0:0:0:0:
192,192,80945,1,0,0:0:0:0:
64,192,80945,1,0,0:0:0:0:
320,192,80945,1,0,0:0:0:0:
192,192,81153,1,0,0:0:0:0:
64,192,81153,1,0,0:0:0:0:
192,192,81361,1,0,0:0:0:0:
320,192,81361,1,0,0:0:0:0:
448,192,81361,1,0,0:0:0:0:
448,192,81570,1,0,0:0:0:0:
320,192,81570,1,0,0:0:0:0:
192,192,81674,1,0,0:0:0:0:
64,192,81674,1,0,0:0:0:0:
64,192,81778,1,0,0:0:0:0:
448,192,81778,1,0,0:0:0:0:
320,192,81778,1,0,0:0:0:0:
192,192,81882,1,0,0:0:0:0:
64,192,81986,1,0,0:0:0:0:
320,192,81986,1,0,0:0:0:0:
448,192,82090,1,0,0:0:0:0:
192,192,82195,1,0,0:0:0:0:
64,192,82195,1,0,0:0:0:0:
320,192,82299,1,0,0:0:0:0:
448,192,82403,1,0,0:0:0:0:
64,192,82507,1,0,0:0:0:0:
320,192,82611,1,0,0:0:0:0:
448,192,82611,1,0,0:0:0:0:
192,192,82611,1,0,0:0:0:0:
64,192,82611,1,0,0:0:0:0:
64,192,83861,1,0,0:0:0:0:
192,192,83861,1,0,0:0:0:0:
448,192,84278,1,0,0:0:0:0:
320,192,84278,1,0,0:0:0:0:
192,192,84278,128,0,85111:0:0:0:0:
64,192,84278,1,0,0:0:0:0:
448,192,85111,128,0,85945:0:0:0:0:
64,192,85111,1,0,0:0:0:0:
320,192,85111,1,0,0:0:0:0:
192,192,85945,128,0,86778:0:0:0:0:
320,192,85945,1,0,0:0:0:0:
64,192,85945,1,0,0:0:0:0:
320,192,86257,1,0,0:0:0:0:
448,192,86570,1,0,0:0:0:0:
64,192,86778,1,0,0:0:0:0:
448,192,86778,1,0,0:0:0:0:
320,192,86778,128,0,87090:0:0:0:0:
192,192,87090,1,0,0:0:0:0:
64,192,87090,1,0,0:0:0:0:
448,192,87090,128,0,87403:0:0:0:0:
192,192,87403,1,0,0:0:0:0:
64,192,87403,128,0,89278:0:0:0:0:
320,192,87403,1,0,0:0:0:0:
