osu file format v14

[General]
AudioFilename: audio.mp3
AudioLeadIn: 0
PreviewTime: 46832
Countdown: 0
SampleSet: Soft
StackLeniency: 0.4
Mode: 0
LetterboxInBreaks: 0
WidescreenStoryboard: 0

[Editor]
DistanceSpacing: 0.6
BeatDivisor: 4
GridSize: 32
TimelineZoom: 3.099999

[Metadata]
Title:Hakoniwa no Koufuku (TV Size)
TitleUnicode:箱庭の幸福 (TV Size)
Artist:Tadokoro Azusa
ArtistUnicode:田所あずさ
Creator:- Solar -
Version:Heaven
Source:リアデイルの大地にて
Tags:koyorin koyorin-sama twil_furano vinxis heto leomine leominexd bossandy leadale no daichi nite kōfuku anime tvsize jpop j-pop japan japanese kanda john 神田 ジョン ouki kousuki 大木 貢祐 silver ring witch gin kan no majo high elf
BeatmapID:3459694
BeatmapSetID:1678603

[Difficulty]
HPDrainRate:5.2
CircleSize:4
OverallDifficulty:7.5
ApproachRate:8.7
SliderMultiplier:1.9
SliderTickRate:1

[Events]
//Background and Video events
0,0,"bg.jpg",0,0
Video,-700,"video.mp4"
//Break Periods
//Storyboard Layer 0 (Background)
//Storyboard Layer 1 (Fail)
//Storyboard Layer 2 (Pass)
//Storyboard Layer 3 (Foreground)
//Storyboard Layer 4 (Overlay)
//Storyboard Sound Samples

[TimingPoints]
990,384.615384615385,4,2,1,45,1,0
990,-222.222222222222,4,2,1,45,0,0
1374,-222.222222222222,4,2,1,45,0,0
1759,-222.222222222222,4,2,1,45,0,0
2143,-222.222222222222,4,2,1,45,0,0
2528,-222.222222222222,4,2,1,45,0,0
2913,-222.222222222222,4,2,1,45,0,0
4066,-222.222222222222,4,2,1,45,0,0
4451,-222.222222222222,4,2,1,5,0,0
4836,-222.222222222222,4,2,1,45,0,0
5220,-222.222222222222,4,2,1,45,0,0
5605,-222.222222222222,4,2,1,45,0,0
5990,-222.222222222222,4,2,1,5,0,0
7143,-222.222222222222,4,2,1,45,0,0
7528,-222.222222222222,4,2,1,45,0,0
7913,-222.222222222222,4,2,1,45,0,0
8297,-222.222222222222,4,2,1,45,0,0
8682,-222.222222222222,4,2,1,45,0,0
9066,-222.222222222222,4,2,1,45,0,0
9451,-222.222222222222,4,2,1,45,0,0
9836,-222.222222222222,4,2,1,5,0,0
10220,-222.222222222222,4,2,1,45,0,0
10413,-222.222222222222,4,2,1,5,0,0
10797,-222.222222222222,4,2,1,45,0,0
10990,-222.222222222222,4,2,1,5,0,0
11566,-222.222222222222,4,2,1,45,0,0
11759,-222.222222222222,4,2,1,5,0,0
13297,-285.714285714286,4,2,1,50,0,0
18297,-666.666666666667,4,2,1,50,0,0
19259,-666.666666666667,4,2,1,5,0,0
19451,-285.714285714286,4,2,1,50,0,0
21951,-285.714285714286,4,2,2,50,0,0
22528,-285.714285714286,4,2,1,50,0,0
24836,-285.714285714286,4,2,1,50,0,0
24884,-285.714285714286,4,2,1,5,0,0
25605,-153.846153846154,4,2,1,60,0,0
37913,-250,4,2,2,70,0,0
39451,-142.857142857143,4,2,2,70,0,0
39547,-142.857142857143,4,2,2,5,0,0
39643,-250.000000000001,4,2,2,70,0,0
41566,-142.857142857143,4,2,2,70,0,0
41663,-142.857142857143,4,2,2,5,0,0
41759,-250.000000000001,4,2,2,70,0,0
43297,-166.666666666667,4,2,2,70,0,0
44066,-250.000000000001,4,2,2,70,0,0
45605,-142.857142857143,4,2,2,70,0,0
45701,-142.857142857143,4,2,2,5,0,0
45797,-250.000000000001,4,2,2,70,0,0
47143,-83.3333333333333,4,2,1,80,0,0
47432,-83.3333333333333,4,2,1,5,0,0
47528,-83.3333333333333,4,2,1,80,0,0
47816,-83.3333333333333,4,2,1,5,0,0
47913,-83.3333333333333,4,2,1,80,0,0
48201,-83.3333333333333,4,2,1,5,0,0
48297,-83.3333333333333,4,2,1,80,0,0
48586,-83.3333333333333,4,2,1,5,0,0
48682,-83.3333333333333,4,2,1,80,0,0
48970,-83.3333333333333,4,2,1,5,0,0
49066,-83.3333333333333,4,2,1,80,0,0
49355,-83.3333333333333,4,2,1,5,0,0
49451,-222.222222222222,4,2,2,70,0,0
49499,-222.222222222222,4,2,2,5,0,0
50220,-117.647058823529,4,2,2,85,0,1
53778,-117.647058823529,4,2,2,5,0,1
53874,-117.647058823529,4,2,2,85,0,1
57816,-117.647058823529,4,2,2,5,0,1
57913,-117.647058823529,4,2,2,85,0,1
59355,-117.647058823529,4,2,2,5,0,1
59451,-117.647058823529,4,2,2,85,0,1
60316,-117.647058823529,4,2,2,5,0,1
60413,-117.647058823529,4,2,2,85,0,1
61566,-117.647058823529,4,2,2,85,0,0
62143,-117.647058823529,4,2,1,85,0,0
62528,-117.647058823529,4,2,2,85,0,1
71278,-117.647058823529,4,2,2,5,0,1
71374,-117.647058823529,4,2,2,85,0,1
71470,-117.647058823529,4,2,2,5,0,1
71566,-117.647058823529,4,2,2,85,0,1
71663,-117.647058823529,4,2,2,5,0,1
71759,-117.647058823529,4,2,2,85,0,1
74836,-117.647058823529,4,2,2,70,0,0
74932,-117.647058823529,4,2,2,5,0,0
75028,-95.2380952380952,4,2,2,70,0,0
75605,-117.647058823529,4,2,2,70,0,0
76374,-95.238095238095,4,2,2,70,0,0
77143,-117.647058823529,4,2,2,70,0,0
77432,-117.647058823529,4,2,2,5,0,0
77528,-117.647058823529,4,2,2,70,0,0
77913,-95.238095238095,4,2,2,70,0,0
78682,-117.647058823529,4,2,2,70,0,0
79451,-95.238095238095,4,2,2,70,0,0
80990,-117.647058823529,4,2,2,73,0,0
81086,-117.647058823529,4,2,2,5,0,0
81182,-117.647058823529,4,2,2,73,0,0
81855,-117.647058823529,4,2,2,5,0,0
81951,-117.647058823529,4,2,2,73,0,0
82720,-117.647058823529,4,2,2,73,0,0
82784,-117.647058823529,4,2,2,73,0,0
82977,-117.647058823529,4,2,2,5,0,0
83041,-117.647058823529,4,2,2,73,0,0
83297,-117.647058823529,4,2,2,73,0,0
83490,-117.647058823529,4,2,2,73,0,0
83554,-117.647058823529,4,2,2,73,0,0
83746,-117.647058823529,4,2,2,5,0,0
83810,-117.647058823529,4,2,2,73,0,0
84002,-117.647058823529,4,2,2,5,0,0
84066,-117.647058823529,4,2,2,73,0,0
85028,-117.647058823529,4,2,2,5,0,0
85124,-117.647058823529,4,2,2,73,0,0
85316,-117.647058823529,4,2,2,5,0,0
85413,-117.647058823529,4,2,2,73,0,0
85509,-117.647058823529,4,2,2,5,0,0
85605,-117.647058823529,4,2,2,67,0,0
87015,-153.846153846153,4,2,2,67,0,0
87143,-153.846153846153,4,2,2,62,0,0
88682,-153.846153846153,4,2,2,20,0,0

[Colours]
Combo1 : 250,160,179
Combo2 : 177,249,153
Combo3 : 149,234,232
Combo4 : 251,239,159

[HitObjects]
436,324,990,6,0,B|443:299|466:296|466:296|461:316|431:324,1,85.4999973907472,2|0,2:2|2:2,0:0:0:0:
368,248,1759,6,0,B|361:222|379:208|379:208|385:228|364:251,1,85.4999973907472,2|0,2:2|2:2,0:0:0:0:
268,272,2528,38,0,B|249:253|258:232|258:232|273:246|266:276,1,85.4999973907472,2|0,2:2|2:2,0:0:0:0:
64,108,4066,6,0,B|46:127|24:119|24:119|38:103|68:109,1,85.4999973907472,2|0,2:2|0:0,0:0:0:0:
147,60,4836,38,0,B|165:41|157:20|157:20|142:34|148:59,1,85.4999973907472,2|0,2:2|2:2,0:0:0:0:
144,157,5605,6,0,B|151:181|174:183|174:183|168:163|138:155,1,85.4999973907472
80,304,7143,38,0,B|92:281|115:282|115:282|106:301|74:303,1,85.4999973907472,2|0,2:2|2:2,0:0:0:0:
176,352,7913,6,0,B|188:374|211:373|211:373|202:354|170:352,1,85.4999973907472,2|0,2:2|2:2,0:0:0:0:
272,255,8682,38,0,B|249:267|250:290|250:290|269:281|271:249,1,85.4999973907472,2|0,2:2|2:2,0:0:0:0:
320,351,9451,6,0,B|342:363|341:386|341:386|322:377|320:345,1,85.4999973907472
344,216,10220,38,0,P|356:196|384:184,1,42.7499986953736,2|0,2:2|0:0,0:0:0:0:
420,108,10797,6,0,P|443:108|467:126,1,42.7499986953736,2|0,2:2|0:0,0:0:0:0:
256,60,11566,38,0,P|244:39|248:9,1,42.7499986953736,2|0,2:2|0:0,0:0:0:0:
256,40,13297,6,0,L|232:176,1,132.999995941162,0|2,1:1|2:2,0:0:0:0:
132,96,14643,5,0,1:1:0:0:
232,188,14836,38,0,L|239:230,1,33.2499989852906,10|2,2:2|1:2,0:0:0:0:
280,288,15220,2,0,L|272:330,1,33.2499989852906,2|2,2:2|2:2,0:0:0:0:
92,288,15990,6,0,L|80:284,4,8.31249974632264,2|0|0|0|2,1:2|1:1|1:1|1:1|1:2,0:0:0:0:
155,350,16374,38,0,P|207:318|283:338,1,132.999995941162,0|2,1:1|2:2,0:0:0:0:
69,378,17720,5,0,1:1:0:0:
160,252,17913,38,0,P|175:243|181:222,1,33.2499989852906,8|2,2:2|1:2,0:0:0:0:
187,104,18297,6,0,P|176:83|181:108,1,71.2499978256226,2|0,2:2|0:0,0:0:0:0:
312,48,19451,38,0,L|444:72,1,132.999995941162,0|2,1:1|2:2,0:0:0:0:
274,205,20797,5,2,1:2:0:0:
424,184,20990,38,0,L|432:136,1,33.2499989852906,10|2,2:2|1:2,0:0:0:0:
352,132,21374,2,0,L|343:179,1,33.2499989852906,2|2,2:2|2:2,0:0:0:0:
404,296,21759,5,0,1:1:0:0:
404,296,21951,1,8,2:2:0:0:
332,364,22143,2,0,L|288:376,1,33.2499989852906,8|2,2:2|2:2,0:0:0:0:
176,336,22528,37,0,1:1:0:0:
160,348,23105,5,2,1:2:0:0:
124,332,23874,37,2,1:2:0:0:
56,372,24066,1,8,2:2:0:0:
112,248,24259,6,0,L|156:260,1,33.2499989852906,0|0,1:1|0:0,0:0:0:0:
256,82,24836,6,0,L|256:90,1,8.31249974632264,8|0,2:2|0:0,0:0:0:0:
256,90,25605,6,0,B|200:87|167:124|200:142|162:184|108:177,1,185.249991519928,4|2,1:2|1:2,0:0:0:0:
284,184,26374,22,0,P|364:204|420:224,1,123.499994346619,10|0,2:2|0:0,0:0:0:0:
488,164,26951,1,2,1:2:0:0:
408,300,27143,2,0,L|428:368,1,61.7499971733095,2|2,2:2|1:2,0:0:0:0:
228,384,27528,22,0,L|266:254,1,123.499994346619,0|8,1:1|2:2,0:0:0:0:
320,352,28105,1,2,3:2:0:0:
172,308,28297,2,0,P|140:316|104:340,1,61.7499971733095,2|2,3:2|3:2,0:0:0:0:
8,264,28682,22,0,P|64:224|96:152,1,123.499994346619,0|2,1:1|2:2,0:0:0:0:
192,208,29259,2,0,P|185:139|139:75,1,123.499994346619,2|2,1:2|1:2,0:0:0:0:
65,43,29836,2,0,P|68:77|91:109,1,61.7499971733095,2|2,2:2|1:2,0:0:0:0:
228,48,30220,21,0,0:0:0:0:
312,88,30413,1,0,1:1:0:0:
432,144,30605,21,0,1:1:0:0:
348,184,30798,1,2,1:2:0:0:
241,294,30990,22,0,L|221:210,1,61.7499971733095,8|2,2:2|3:2,0:0:0:0:
320,320,31374,1,2,3:2:0:0:
156,384,31663,21,0,0:0:0:0:
164,380,31759,2,0,L|216:188,1,185.249991519928,4|2,1:2|1:2,0:0:0:0:
368,92,32528,22,0,P|320:124|248:92,1,123.499994346619,10|0,2:2|0:0,0:0:0:0:
196,32,33105,1,2,1:2:0:0:
100,124,33297,1,2,2:2:0:0:
100,124,33490,1,2,1:2:0:0:
216,216,33682,2,0,L|292:192,1,61.7499971733095,0|0,1:1|0:0,0:0:0:0:
376,232,34066,21,8,2:2:0:0:
352,308,34259,1,0,3:3:0:0:
332,384,34451,1,2,3:2:0:0:
180,328,34643,22,0,L|192:368,1,30.8749985866547,2|0,3:2|0:0,0:0:0:0:
112,280,34836,22,0,P|80:248|-4:252,1,123.499994346619,0|2,1:1|2:2,0:0:0:0:
160,144,35605,22,0,P|181:138|201:100,1,61.7499971733095,10|0,2:2|1:1,0:0:0:0:
292,65,35989,2,0,P|297:43|275:7,1,61.7499971733095,2|2,2:2|1:2,0:0:0:0:
272,144,36374,21,2,2:2:0:0:
296,220,36566,1,0,1:1:0:0:
416,276,36759,21,2,1:2:0:0:
491,189,36951,1,2,1:2:0:0:
407,25,37143,22,0,P|383:85|367:141,1,123.499994346619,8|2,2:2|3:2,0:0:0:0:
472,384,37913,38,0,L|392:364,1,76,4|2,1:2|2:2,0:0:0:0:
324,304,38490,1,2,1:2:0:0:
324,304,38682,2,0,L|240:332,1,76,10|0,2:2|1:1,0:0:0:0:
88,372,39451,38,0,P|76:356|80:332,1,33.2499989852906,2|0,2:2|0:0,0:0:0:0:
128,248,39643,6,0,P|150:278|143:323,1,76,0|2,1:1|2:2,0:0:0:0:
48,276,40220,1,10,2:2:0:0:
80,184,40413,1,0,1:1:0:0:
176,172,40605,1,2,3:2:0:0:
368,288,40893,37,0,0:0:0:0:
376,280,40990,2,0,L|384:196,1,76,0|2,1:1|2:2,0:0:0:0:
480,100,41566,6,0,L|524:112,1,33.2499989852906,2|0,1:2|0:0,0:0:0:0:
368,48,41759,38,0,L|443:27,1,76,10|2,2:2|1:2,0:0:0:0:
256,192,42528,5,0,0:0:0:0:
164,176,42720,1,2,1:2:0:0:
72,156,42913,1,2,1:2:0:0:
256,24,43105,37,2,1:2:0:0:
256,24,43201,1,0,0:0:0:0:
256,24,43297,2,0,L|244:104,1,56.9999982604981,8|2,2:2|1:2,0:0:0:0:
164,40,43682,1,2,3:2:0:0:
316,244,44066,6,0,P|340:264|392:264,1,76,0|2,1:1|2:2,0:0:0:0:
416,180,44643,1,2,1:2:0:0:
416,180,44836,2,0,P|392:160|340:160,1,76,10|2,2:2|2:2,0:0:0:0:
208,88,45605,38,0,L|200:52,1,33.2499989852906,2|0,2:2|0:0,0:0:0:0:
304,16,45797,6,0,L|287:91,1,76,0|2,1:1|2:2,0:0:0:0:
232,168,46374,37,8,2:2:0:0:
288,244,46566,1,2,1:2:0:0:
348,316,46759,1,2,3:2:0:0:
100,304,47047,5,0,0:0:0:0:
112,292,47143,22,0,B|206:258|257:350|180:365|173:329,1,170.999994781494,2|0,1:2|0:0,0:0:0:0:
400,224,47528,38,0,B|306:258|255:166|332:151|339:187,1,170.999994781494,2|0,1:2|0:0,0:0:0:0:
180,8,47913,6,0,B|189:89|189:89|193:91|193:91|203:175,1,170.999994781494,2|0,1:2|0:0,0:0:0:0:
332,376,48297,38,0,B|322:294|322:294|318:292|318:292|308:208,1,170.999994781494,2|0,1:2|0:0,0:0:0:0:
136,240,48682,6,0,B|41:211|100:167|-12:140,1,170.999994781494,2|0,1:2|0:0,0:0:0:0:
376,144,49066,38,0,B|470:172|411:216|524:243,1,170.999994781494,2|0,1:2|0:0,0:0:0:0:
256,372,49451,6,0,L|256:360,1,10.6874996738434,4|0,0:1|0:0,0:0:0:0:
256,361,50220,6,0,P|240:297|192:189,1,161.500003080368,4|2,1:2|2:2,0:0:0:0:
104,124,50797,1,2,1:2:0:0:
268,172,50990,2,0,P|312:176|368:136,1,80.750001540184,10|0,2:2|1:1,0:0:0:0:
204,24,51374,6,0,P|192:64|192:128,1,80.750001540184,2|0,2:2|1:1,0:0:0:0:
200,124,51663,1,0,0:0:0:0:
200,124,51759,1,2,1:2:0:0:
104,224,51951,1,0,3:3:0:0:
8,124,52143,1,2,1:2:0:0:
120,308,52336,5,0,0:0:0:0:
140,316,52432,1,0,0:0:0:0:
160,324,52528,1,10,2:2:0:0:
264,272,52720,1,2,1:2:0:0:
360,340,52913,1,2,3:2:0:0:
224,384,53105,1,0,3:3:0:0:
352,252,53297,6,0,L|328:116,1,121.125002310276,0|0,1:1|0:0,0:0:0:0:
328,112,53682,2,0,P|360:152|384:156,1,40.375000770092,2|0,2:2|0:0,0:0:0:0:
416,184,53874,1,2,1:2:0:0:
314,22,54066,2,0,P|263:48|246:148,1,161.500003080368,8|2,2:2|1:2,0:0:0:0:
404,80,54643,1,2,2:2:0:0:
281,237,54836,2,0,P|241:229|173:225,1,80.750001540184,2|0,1:2|3:3,0:0:0:0:
72,292,55220,5,2,1:2:0:0:
148,152,55413,1,0,1:1:0:0:
128,144,55509,1,0,1:1:0:0:
112,136,55605,1,10,2:2:0:0:
136,340,55797,1,2,1:2:0:0:
281,237,55990,2,0,L|257:133,1,80.750001540184,2|0,3:2|3:3,0:0:0:0:
300,316,56374,5,0,1:1:0:0:
506,209,56566,2,0,P|466:221|326:269,1,161.500003080368,2|2,0:0|1:2,0:0:0:0:
248,373,57143,2,0,P|228:367|158:343,1,80.750001540184,8|2,2:2|1:2,0:0:0:0:
150,337,57432,1,0,0:0:0:0:
150,337,57528,1,2,2:2:0:0:
84,144,57720,6,0,P|104:144|132:156,1,40.375000770092,2|0,1:2|0:0,0:0:0:0:
152,224,57913,2,0,P|64:232|8:180,1,161.500003080368,2|2,1:2|1:2,0:0:0:0:
216,44,58586,1,0,0:0:0:0:
228,60,58682,6,0,L|256:164,1,80.750001540184,10|2,2:2|1:2,0:0:0:0:
140,16,59066,1,0,3:3:0:0:
280,208,59259,6,0,L|328:220,1,40.375000770092,2|0,3:2|0:0,0:0:0:0:
388,176,59451,2,0,L|483:152,1,80.750001540184,2|0,1:2|0:0,0:0:0:0:
336,64,59836,1,2,2:2:0:0:
416,12,60028,1,0,1:1:0:0:
480,176,60220,6,0,L|457:241,1,40.375000770092,10|0,2:2|0:0,0:0:0:0:
436,296,60413,1,2,1:2:0:0:
280,208,60605,1,2,1:2:0:0:
32,176,60797,5,0,0:0:0:0:
32,176,60893,1,0,0:0:0:0:
32,176,60990,2,0,L|59:252,1,80.750001540184,2|0,1:2|3:3,0:0:0:0:
104,376,61375,1,0,1:2:0:0:
232,345,61567,5,2,1:2:0:0:
248,333,61663,1,0,0:0:0:0:
260,317,61759,1,10,2:2:0:0:
277,224,61951,1,2,1:2:0:0:
219,80,62143,1,2,3:2:0:0:
21,2,62336,1,2,3:2:0:0:
176,200,62528,6,0,P|232:160|332:116,1,161.500003080368,4|2,1:2|2:2,0:0:0:0:
412,8,63105,1,2,1:2:0:0:
412,8,63297,2,0,L|388:100,1,80.750001540184,10|0,2:2|1:1,0:0:0:0:
356,212,63682,5,2,2:2:0:0:
472,168,63874,1,0,1:1:0:0:
328,292,64066,2,0,P|292:280|216:272,1,80.750001540184,2|0,1:2|3:3,0:0:0:0:
120,304,64451,1,2,1:2:0:0:
148,56,64740,5,0,0:0:0:0:
164,68,64836,2,0,P|203:61|242:48,1,80.750001540184,10|2,2:2|1:2,0:0:0:0:
112,148,65220,1,2,3:2:0:0:
112,148,65605,5,0,1:1:0:0:
36,84,65797,1,0,0:0:0:0:
188,212,65990,2,0,L|164:300,1,80.750001540184,2|2,2:2|1:2,0:0:0:0:
332,384,66374,2,0,L|308:296,1,80.750001540184,8|2,2:2|2:2,0:0:0:0:
144,384,66759,1,2,1:2:0:0:
144,384,66951,5,2,1:2:0:0:
320,226,67143,2,0,P|278:234|245:254,1,80.750001540184,2|0,1:2|3:3,0:0:0:0:
166,289,67528,1,2,1:2:0:0:
64,224,67720,1,0,1:1:0:0:
64,224,67816,1,0,0:0:0:0:
64,224,67913,5,10,2:2:0:0:
216,29,68105,1,2,1:2:0:0:
408,185,68297,1,2,3:2:0:0:
255,378,68490,1,2,3:2:0:0:
88,64,68682,6,0,P|132:124|188:220,1,161.500003080368,0|2,1:1|2:2,0:0:0:0:
252,136,69259,1,2,1:2:0:0:
134,287,69451,2,0,P|98:275|54:239,1,80.750001540184,10|0,2:2|1:1,0:0:0:0:
2,339,69836,2,0,P|38:351|82:387,1,80.750001540184,0|2,0:0|1:2,0:0:0:0:
248,272,70220,6,0,L|344:248,1,80.750001540184,2|0,1:2|3:3,0:0:0:0:
416,168,70605,2,0,L|512:192,1,80.750001540184,0|0,1:1|0:0,0:0:0:0:
512,196,70893,1,0,0:0:0:0:
512,196,70990,1,10,2:2:0:0:
336,176,71182,2,0,P|316:168|300:156,1,40.375000770092,0|0,1:1|0:0,0:0:0:0:
220,152,71374,2,0,P|216:130|219:110,1,40.375000770092,2|0,3:2|0:0,0:0:0:0:
192,36,71566,2,0,P|208:22|227:14,1,40.375000770092,2|0,3:2|0:0,0:0:0:0:
351,190,71759,6,0,B|314:362,1,161.500003080368,0|2,1:1|2:2,0:0:0:0:
176,223,72336,1,2,1:2:0:0:
396,379,72528,2,0,B|412:300,1,80.750001540184,10|2,2:2|2:2,0:0:0:0:
248,266,72913,2,0,B|231:344,1,80.750001540184,0|2,1:1|1:2,0:0:0:0:
14,258,73297,5,2,1:2:0:0:
152,180,73490,1,0,3:2:0:0:
290,102,73682,1,2,1:2:0:0:
452,287,73874,5,2,1:2:0:0:
431,292,73970,1,0,1:0:0:0:
411,296,74066,1,8,2:2:0:0:
286,320,74259,1,0,1:1:0:0:
196,246,74451,1,2,3:2:0:0:
274,178,74643,1,2,3:2:0:0:
288,190,74836,22,0,L|300:238,1,40.375000770092,4|0,1:2|0:0,0:0:0:0:
184,384,75028,38,0,L|272:93,1,299.249990867615,2|10,2:2|2:2,0:0:0:0:
271,97,75990,6,0,P|239:129|199:137,1,80.750001540184,0|0,1:1|3:3,0:0:0:0:
16,132,76374,38,0,B|103:145|144:216|86:233|132:313|220:320,1,299.249990867615,2|0,2:2|0:0,0:0:0:0:
292,296,77047,1,0,0:0:0:0:
292,296,77143,1,10,2:2:0:0:
194,175,77336,22,0,L|210:119,1,40.375000770092,2|0,1:2|0:0,0:0:0:0:
228,64,77528,1,0,3:3:0:0:
447,297,77913,22,0,B|522:251|490:163|408:123|331:200|297:277|340:365,1,398.999987823487,2|10,1:2|2:2,0:0:0:0:
339,364,79066,5,0,1:1:0:0:
254,339,79259,1,0,3:3:0:0:
428,182,79451,38,0,P|456:141|444:81,1,99.7499969558717,2|2,2:2|3:2,0:0:0:0:
304,148,79836,2,0,P|299:98|339:53,1,99.7499969558717,0|0,1:1|1:1,0:0:0:0:
406,14,80124,5,0,0:0:0:0:
406,14,80220,1,10,2:2:0:0:
349,227,80413,1,2,1:2:0:0:
378,121,80605,1,0,3:3:0:0:
64,0,80990,22,0,P|80:24|88:56,1,40.375000770092,4|0,1:2|0:0,0:0:0:0:
104,184,81182,2,0,P|92:116|164:56,1,161.500003080368,2|0,2:2|1:1,0:0:0:0:
396,180,81759,38,0,L|456:164,1,40.375000770092,10|0,2:2|0:0,0:0:0:0:
512,296,81951,2,0,L|334:248,1,161.500003080368,2|2,2:2|3:2,0:0:0:0:
76,276,82528,38,0,P|115:274|143:301,1,80.750001540184,2|0,2:2|3:2,0:0:0:0:
154,316,82784,38,0,P|182:343|221:341,1,80.750001540184
236,333,83041,5,0,0:0:0:0:
310,130,83297,6,0,P|316:90|310:50,1,80.750001540184,10|2,2:2|1:2,0:0:0:0:
295,35,83554,6,0,P|255:29|215:35,1,80.750001540184
204,47,83810,6,0,P|198:87|204:127,1,80.750001540184
256,192,84066,5,0,1:1:0:0:
256,212,84451,1,0,1:1:0:0:
352,312,84836,6,0,P|396:320|456:332,1,80.750001540184,10|0,1:2|0:0,0:0:0:0:
160,384,85124,6,0,P|116:376|56:364,1,80.750001540184,2|0,1:2|0:0,0:0:0:0:
336,216,85413,6,0,L|316:156,1,40.375000770092,2|0,1:2|0:0,0:0:0:0:
176,99,85605,5,8,2:2:0:0:
492,36,87015,22,0,L|500:8,2,20.5833323911032,0|0|2,0:0|0:0|2:2,0:0:0:0:
