osu file format v14

[General]
AudioFilename: audio.mp3
AudioLeadIn: 0
PreviewTime: 46832
Countdown: 0
SampleSet: Soft
StackLeniency: 0.2
Mode: 0
LetterboxInBreaks: 0
WidescreenStoryboard: 1

[Editor]
Bookmarks: 990,13297,25605,37913,50220,62528
DistanceSpacing: 0.6
BeatDivisor: 4
GridSize: 32
TimelineZoom: 1.9

[Metadata]
Title:Hakoniwa no Koufuku (TV Size)
TitleUnicode:箱庭の幸福 (TV Size)
Artist:Tadokoro Azusa
ArtistUnicode:田所あずさ
Creator:- Solar -
Version:Boss' Insane
Source:リアデイルの大地にて
Tags:koyorin koyorin-sama twil_furano vinxis heto leomine leominexd bossandy leadale no daichi nite kōfuku anime tvsize jpop j-pop japan japanese kanda john 神田 ジョン ouki kousuki 大木 貢祐 silver ring witch gin kan no majo high elf
BeatmapID:3491887
BeatmapSetID:1678603

[Difficulty]
HPDrainRate:4.5
CircleSize:3.8
OverallDifficulty:6
ApproachRate:8.3
SliderMultiplier:1.7
SliderTickRate:1

[Events]
//Background and Video events
0,0,"bg.jpg",0,0
Video,-700,"video.mp4"
//Break Periods
//Storyboard Layer 0 (Background)
//Storyboard Layer 1 (Fail)
//Storyboard Layer 2 (Pass)
//Storyboard Layer 3 (Foreground)
//Storyboard Layer 4 (Overlay)
//Storyboard Sound Samples

[TimingPoints]
990,384.615384615385,4,2,1,45,1,0
990,-166.666666666667,4,2,1,45,0,0
10316,-166.666666666667,4,2,1,5,0,0
10797,-166.666666666667,4,2,1,45,0,0
10893,-166.666666666667,4,2,1,5,0,0
11566,-166.666666666667,4,2,1,45,0,0
11663,-166.666666666667,4,2,1,5,0,0
12913,-166.666666666667,4,2,1,45,0,0
13297,-166.666666666667,4,2,1,50,0,0
18297,-250.000000000001,4,2,1,50,0,0
18682,-250.000000000001,4,2,1,50,0,0
19066,-250.000000000001,4,2,1,50,0,0
19451,-166.666666666667,4,2,1,50,0,0
21951,-166.666666666667,4,2,2,50,0,0
22528,-166.666666666667,4,2,1,50,0,0
22624,-166.666666666667,4,2,1,5,0,0
23105,-166.666666666667,4,2,1,50,0,0
23201,-166.666666666667,4,2,1,5,0,0
23874,-166.666666666667,4,2,1,50,0,0
24932,-166.666666666667,4,2,1,5,0,0
25605,-125,4,2,1,60,0,0
33874,-125,4,2,1,60,0,0
34066,-125,4,2,1,60,0,0
37913,-125,4,2,2,70,0,0
38201,-125,4,2,2,70,0,0
38297,-125,4,2,2,70,0,0
38970,-125,4,2,2,5,0,0
39066,-125,4,2,2,70,0,0
39354,-125,4,2,2,5,0,0
39451,-125,4,2,2,70,0,0
39547,-125,4,2,2,70,0,0
39643,-125,4,2,2,70,0,0
40989,-125,4,2,2,70,0,0
44355,-125,4,2,2,70,0,0
44451,-125,4,2,2,70,0,0
47047,-125,4,2,2,5,0,0
47143,-100,4,2,1,80,0,0
47432,-100,4,2,1,5,0,0
47528,-100,4,2,1,80,0,0
47816,-100,4,2,1,5,0,0
47913,-100,4,2,1,80,0,0
48201,-100,4,2,1,5,0,0
48297,-100,4,2,1,80,0,0
48586,-100,4,2,1,5,0,0
48682,-100,4,2,1,80,0,0
48970,-100,4,2,1,5,0,0
49066,-100,4,2,1,80,0,0
49355,-100,4,2,1,5,0,0
49451,-250,4,2,2,70,0,0
49836,-250,4,2,2,70,0,0
50124,-250,4,2,2,5,0,0
50220,-100,4,2,2,85,0,1
51278,-100,4,2,2,5,0,1
51374,-100,4,2,2,85,0,1
51662,-100,4,2,2,5,0,1
51759,-100,4,2,2,85,0,1
62143,-100,4,2,1,85,0,1
62528,-100,4,2,2,85,0,1
63970,-100,4,2,2,5,0,1
64066,-100,4,2,2,85,0,1
64355,-100,4,2,2,5,0,1
64451,-100,4,2,2,85,0,1
74836,-100,4,2,2,70,0,0
80990,-100,4,2,2,73,0,0
85028,-100,4,2,2,5,0,0
85124,-100,4,2,2,73,0,0
85316,-100,4,2,2,5,0,0
85413,-100,4,2,2,73,0,0
85509,-100,4,2,2,5,0,0
85605,-100,4,2,2,67,0,0
87143,-100,4,2,2,62,0,0
88682,-100,4,2,2,20,0,0

[Colours]
Combo1 : 250,160,179
Combo2 : 177,249,153
Combo3 : 149,234,232
Combo4 : 251,239,159

[HitObjects]
44,332,990,6,0,L|54:210,1,101.999996887207,2|2,2:2|2:2,0:0:0:0:
146,304,1759,2,0,L|156:182,1,101.999996887207,2|2,2:2|2:2,0:0:0:0:
248,276,2528,2,0,L|258:154,1,101.999996887207,2|2,2:2|2:2,0:0:0:0:
468,332,4066,6,0,L|458:210,1,101.999996887207,2|0,2:2|0:0,0:0:0:0:
366,304,4835,2,0,L|356:182,1,101.999996887207,2|2,2:2|2:2,0:0:0:0:
264,276,5604,2,0,L|254:154,1,101.999996887207
148,56,7143,6,0,P|152:96|200:152,1,101.999996887207,2|2,2:2|2:2,0:0:0:0:
120,300,7913,2,0,P|160:296|216:248,1,101.999996887207,2|2,2:2|2:2,0:0:0:0:
364,328,8682,2,0,P|360:288|312:232,1,101.999996887207,2|2,2:2|2:2,0:0:0:0:
392,84,9452,2,0,P|352:88|296:136,1,101.999996887207
208,260,10220,6,0,L|182:254,1,25.4999992218018,2|0,2:2|0:0,0:0:0:0:
76,168,10797,6,0,L|102:162,1,25.4999992218018,2|0,2:2|0:0,0:0:0:0:
232,48,11566,6,0,L|206:42,1,25.4999992218018,2|0,2:2|0:0,0:0:0:0:
207,42,12913,5,2,2:2:0:0:
272,120,13297,2,0,L|256:236,1,101.999996887207,0|2,1:1|2:2,0:0:0:0:
80,356,14066,2,0,L|66:254,1,101.999996887207,2|2,2:2|2:2,0:0:0:0:
163,240,14643,1,0,1:1:0:0:
258,221,14836,6,0,L|266:277,1,50.9999984436036,10|2,2:2|1:2,0:0:0:0:
163,240,15220,2,0,L|170:189,1,50.9999984436036,2|2,2:2|2:2,0:0:0:0:
169,189,15797,1,2,2:2:0:0:
112,116,15990,2,0,L|116:92,4,12.7499996109009,2|0|0|0|2,1:2|1:1|1:1|1:1|1:2,0:0:0:0:
148,328,16374,38,0,P|200:308|256:320,1,101.999996887207,0|0,1:1|0:0,0:0:0:0:
380,232,17143,2,0,P|432:252|488:240,1,101.999996887207,2|2,2:2|2:2,0:0:0:0:
440,156,17720,1,0,1:1:0:0:
328,312,17913,2,0,L|340:380,1,50.9999984436036,8|2,2:2|1:2,0:0:0:0:
256,236,18297,6,0,L|288:96,1,136,2|2,2:2|2:2,0:0:0:0:
304,16,19451,38,0,L|180:32,1,101.999996887207,0|2,1:1|2:2,0:0:0:0:
368,88,20220,2,0,L|492:104,1,101.999996887207,2|2,2:2|2:2,0:0:0:0:
432,12,20797,1,2,1:2:0:0:
504,192,20990,6,0,L|453:185,1,50.9999984436036,10|2,2:2|1:2,0:0:0:0:
320,168,21374,2,0,L|370:174,1,50.9999984436036,2|2,2:2|2:2,0:0:0:0:
468,272,21759,1,0,1:1:0:0:
336,252,21951,1,8,2:2:0:0:
432,352,22143,2,0,L|482:358,1,50.9999984436036,8|2,2:2|2:2,0:0:0:0:
348,340,22528,6,0,L|322:336,1,25.4999992218018,0|0,1:1|0:0,0:0:0:0:
244,348,23105,6,0,L|218:344,1,25.4999992218018,2|0,1:2|0:0,0:0:0:0:
140,356,23874,6,0,L|114:352,2,25.4999992218018,2|0|8,1:2|0:0|2:2,0:0:0:0:
36,364,24259,38,0,P|36:336|84:280,1,101.999996887207,0|0,1:1|0:0,0:0:0:0:
140,356,24836,2,0,L|104:352,1,25.4999992218018,8|0,2:2|0:0,0:0:0:0:
48,208,25605,6,0,B|64:144|64:144|12:116|8:56|24:24,1,204,4|2,1:2|1:2,0:0:0:0:
228,80,26374,2,0,P|168:96|92:48,1,136,10|0,2:2|0:0,0:0:0:0:
176,8,26951,1,2,1:2:0:0:
272,152,27143,5,2,2:2:0:0:
364,112,27336,2,0,P|372:160|360:200,1,68,2|0,1:2|1:1,0:0:0:0:
272,152,27720,1,0,0:0:0:0:
184,248,27913,2,0,P|180:214|188:181,1,68,8|2,2:2|3:2,0:0:0:0:
272,256,28297,2,0,P|302:269|327:293,1,68,2|2,3:2|3:2,0:0:0:0:
220,328,28682,6,0,P|154:345|87:341,1,136,0|2,1:1|2:2,0:0:0:0:
54,168,29259,2,0,P|121:163|186:181,1,136,2|2,1:2|1:2,0:0:0:0:
272,256,29836,1,2,2:2:0:0:
392,144,30028,1,2,1:2:0:0:
372,240,30220,21,0,0:0:0:0:
292,168,30413,1,0,1:1:0:0:
392,144,30605,1,0,1:1:0:0:
324,0,30798,1,2,1:2:0:0:
324,0,30893,1,2,2:2:0:0:
324,0,30990,2,0,L|309:82,1,68,8|2,2:2|3:2,0:0:0:0:
403,210,31374,2,0,L|391:143,1,68,2|2,3:2|3:2,0:0:0:0:
500,224,31759,6,0,B|484:136|484:136|468:68|408:52,1,204,4|2,1:2|1:2,0:0:0:0:
292,168,32528,2,0,P|236:188|156:168,1,136,10|0,2:2|0:0,0:0:0:0:
72,100,33105,1,2,1:2:0:0:
16,192,33297,5,2,2:2:0:0:
72,100,33490,1,2,1:2:0:0:
104,256,33682,2,0,L|92:336,1,68,0|0,1:1|0:0,0:0:0:0:
250,236,34066,1,8,2:2:0:0:
194,328,34259,1,0,3:3:0:0:
162,172,34451,2,0,L|174:92,1,68,2|2,3:2|3:2,0:0:0:0:
372,68,34836,22,0,P|332:40|224:52,1,136,0|2,1:1|2:2,0:0:0:0:
304,200,35605,2,0,L|293:132,1,68,10|0,2:2|1:1,0:0:0:0:
476,40,35990,2,0,L|465:107,1,68,2|2,2:2|1:2,0:0:0:0:
293,132,36374,21,2,2:2:0:0:
465,107,36566,1,0,1:1:0:0:
372,68,36759,1,2,1:2:0:0:
388,172,36951,1,2,1:2:0:0:
208,116,37143,2,0,L|228:250,1,136,8|2,2:2|3:2,0:0:0:0:
56,8,37913,6,0,L|36:124,1,102,4|2,1:2|2:2,0:0:0:0:
24,184,38297,1,2,2:2:0:0:
124,116,38490,1,2,1:2:0:0:
143,295,38682,2,0,P|203:279|235:227,1,102,10|0,2:2|0:0,0:0:0:0:
228,172,39066,2,0,L|349:187,1,102,0|0,1:1|0:0,0:0:0:0:
400,148,39451,5,2,2:2:0:0:
432,240,39643,1,0,1:1:0:0:
472,112,39836,2,0,L|462:44,1,68,2|2,1:2|2:2,0:0:0:0:
300,76,40220,1,10,2:2:0:0:
384,4,40413,1,0,1:1:0:0:
300,76,40605,2,0,B|256:80|256:80|240:76|240:76|196:80,1,102,2|0,3:2|0:0,0:0:0:0:
128,48,40990,5,0,1:1:0:0:
56,148,41182,2,0,B|47:181|56:214|56:214|64:248|56:281,1,136,0|2,0:0|1:2,0:0:0:0:
212,184,41759,2,0,P|176:176|128:184,1,68,10|0,2:2|0:0,0:0:0:0:
172,264,42143,1,2,1:2:0:0:
172,264,42528,5,0,0:0:0:0:
256,320,42720,1,2,1:2:0:0:
340,264,42913,1,2,1:2:0:0:
415,376,43105,1,2,1:2:0:0:
415,376,43201,1,0,0:0:0:0:
415,376,43297,2,0,L|428:288,1,68,8|2,2:2|1:2,0:0:0:0:
352,180,43682,1,2,3:2:0:0:
172,264,44066,6,0,P|132:236|60:240,1,102,0|2,1:1|2:2,0:0:0:0:
8,260,44451,1,2,2:2:0:0:
104,312,44643,1,2,1:2:0:0:
144,160,44836,2,0,L|136:88,1,68,10|0,2:2|1:1,0:0:0:0:
15,192,45220,2,0,L|7:259,1,68,2|2,2:2|1:2,0:0:0:0:
144,160,45605,5,2,2:2:0:0:
224,192,45797,1,0,1:1:0:0:
372,168,45990,2,0,L|304:161,1,68,2|2,1:2|2:2,0:0:0:0:
424,244,46374,1,8,2:2:0:0:
440,104,46566,1,2,1:2:0:0:
424,244,46759,2,0,L|410:356,1,102,2|0,3:2|0:0,0:0:0:0:
332,324,47143,6,0,P|296:368|200:376,1,127.5,2|0,1:2|0:0,0:0:0:0:
179,323,47528,6,0,P|123:314|68:235,1,127.5,2|0,1:2|0:0,0:0:0:0:
103,191,47913,6,0,P|83:138|124:51,1,127.5,2|0,1:2|0:0,0:0:0:0:
180,59,48298,6,0,P|216:16|311:8,1,127.5,2|0,1:2|0:0,0:0:0:0:
332,60,48682,6,0,P|388:69|443:148,1,127.5,2|0,1:2|0:0,0:0:0:0:
408,192,49067,6,0,P|428:245|387:332,1,127.5,2|0,1:2|0:0,0:0:0:0:
332,324,49451,6,0,B|288:316|288:316|260:324|260:324|208:316,1,119,4|0,0:1|0:0,0:0:0:0:
136,304,50220,6,0,P|94:269|92:144,1,170,4|2,1:2|2:2,0:0:0:0:
191,202,50797,1,2,1:2:0:0:
242,89,50990,2,0,P|302:108|365:102,1,127.5,10|0,2:2|0:0,0:0:0:0:
428,56,51374,2,0,P|396:102|397:172,1,127.5,2|0,2:2|0:0,0:0:0:0:
436,240,51759,5,2,1:2:0:0:
488,132,51951,1,0,3:3:0:0:
472,316,52143,2,0,P|432:324|380:304,1,85,2|0,1:2|0:0,0:0:0:0:
332,264,52432,1,0,0:0:0:0:
332,264,52528,1,10,2:2:0:0:
240,296,52720,1,2,1:2:0:0:
148,328,52913,2,0,L|156:224,1,85,2|0,3:2|3:3,0:0:0:0:
56,360,53297,6,0,L|69:190,1,170,0|2,1:1|2:2,0:0:0:0:
80,92,53874,1,2,1:2:0:0:
160,152,54066,2,0,B|236:176|236:176|288:192|348:152,1,170,8|2,2:2|1:2,0:0:0:0:
268,88,54643,1,2,2:2:0:0:
280,272,54836,6,0,P|324:268|368:248,1,85,2|0,1:2|3:3,0:0:0:0:
456,128,55220,2,0,P|416:111|374:108,1,85,2|0,1:2|1:1,0:0:0:0:
323,166,55509,1,0,1:1:0:0:
323,166,55605,1,10,2:2:0:0:
228,144,55797,1,2,1:2:0:0:
133,122,55990,2,0,L|144:220,1,85,2|0,3:2|3:3,0:0:0:0:
228,144,56374,5,0,1:1:0:0:
38,100,56566,2,0,L|60:296,1,170,2|2,0:0|1:2,0:0:0:0:
204,380,57143,2,0,L|213:295,1,85,8|2,2:2|1:2,0:0:0:0:
220,220,57432,1,0,0:0:0:0:
220,220,57528,1,2,2:2:0:0:
316,276,57720,1,2,1:2:0:0:
452,352,57913,6,0,L|433:183,1,170,2|2,1:2|1:2,0:0:0:0:
460,359,58682,1,10,2:2:0:0:
460,359,58778,1,2,2:2:0:0:
460,359,58874,1,2,1:2:0:0:
316,276,59066,1,0,3:3:0:0:
220,324,59259,1,2,3:2:0:0:
88,240,59451,6,0,P|76:196|96:132,1,85,2|0,1:2|0:0,0:0:0:0:
240,148,59836,2,0,P|207:180|142:195,1,85,2|0,2:2|1:1,0:0:0:0:
224,60,60220,1,10,2:2:0:0:
314,94,60412,1,2,1:2:0:0:
405,128,60605,2,0,L|424:216,1,85,2|0,1:2|0:0,0:0:0:0:
499,196,60893,1,0,0:0:0:0:
499,196,60990,5,2,1:2:0:0:
348,240,61182,1,0,3:3:0:0:
499,196,61374,2,0,L|480:284,1,85,0|2,1:2|1:2,0:0:0:0:
330,323,61759,5,10,2:2:0:0:
184,212,61951,1,2,1:2:0:0:
332,168,62143,1,2,3:2:0:0:
478,279,62336,1,2,3:2:0:0:
330,323,62528,6,0,L|160:312,1,170,4|2,1:2|2:2,0:0:0:0:
136,216,63105,1,2,1:2:0:0:
24,272,63297,2,0,P|10:231|14:189,1,85,10|0,2:2|1:1,0:0:0:0:
164,128,63682,2,0,P|96:132|36:80,1,127.5,2|0,2:2|0:0,0:0:0:0:
72,24,64066,6,0,P|140:20|200:72,1,127.5,2|0,1:2|0:0,0:0:0:0:
240,112,64451,2,0,P|280:120|332:100,1,85,2|0,1:2|0:0,0:0:0:0:
364,44,64740,1,0,0:0:0:0:
364,44,64836,1,10,2:2:0:0:
392,140,65028,1,2,1:2:0:0:
420,236,65220,2,0,L|504:220,1,85,2|0,3:2|3:3,0:0:0:0:
392,336,65605,6,0,L|225:304,1,170,0|2,1:1|2:2,0:0:0:0:
120,352,66182,2,0,L|36:336,1,85,2|8,1:2|2:2,0:0:0:0:
225,304,66566,1,2,2:2:0:0:
120,352,66759,1,2,1:2:0:0:
225,304,66951,1,2,1:2:0:0:
90,182,67143,6,0,P|79:223|92:264,1,85,2|0,1:2|3:3,0:0:0:0:
208,139,67528,2,0,P|219:99|207:59,1,85,2|0,1:2|1:1,0:0:0:0:
170,221,67913,2,0,P|211:232|252:219,1,85,10|2,2:2|1:2,0:0:0:0:
127,101,68297,2,0,P|86:91|47:104,1,85,2|2,3:2|3:2,0:0:0:0:
296,16,68682,6,0,P|320:96|299:178,1,170,0|2,1:1|2:2,0:0:0:0:
208,139,69259,1,2,1:2:0:0:
292,272,69451,2,0,P|252:264|212:224,1,85,10|0,2:2|1:1,0:0:0:0:
208,139,69836,1,0,0:0:0:0:
144,280,70028,1,2,1:2:0:0:
120,124,70220,6,0,L|136:28,1,85,2|0,1:2|3:3,0:0:0:0:
208,139,70605,2,0,L|291:152,1,85,0|0,1:1|0:0,0:0:0:0:
368,168,70893,1,0,0:0:0:0:
368,168,70990,1,10,2:2:0:0:
504,92,71182,2,0,L|420:105,1,85,0|2,1:1|3:2,0:0:0:0:
320,236,71566,1,2,3:2:0:0:
176,292,71759,6,0,L|343:319,1,170,0|2,1:1|2:2,0:0:0:0:
320,236,72336,1,2,1:2:0:0:
412,380,72528,2,0,P|428:344|428:296,1,85,10|2,2:2|2:2,0:0:0:0:
320,236,72913,1,0,1:1:0:0:
216,380,73105,1,2,1:2:0:0:
164,212,73297,5,2,1:2:0:0:
96,312,73489,1,0,3:2:0:0:
216,380,73682,1,2,1:2:0:0:
320,236,73874,1,2,1:2:0:0:
212,136,74066,2,0,P|168:124|120:136,1,85,8|0,2:2|1:1,0:0:0:0:
36,188,74451,1,2,3:2:0:0:
72,44,74643,1,2,3:2:0:0:
164,212,74836,5,4,1:2:0:0:
208,296,75028,2,0,L|392:272,1,170,2|0,2:2|1:1,0:0:0:0:
488,184,75605,1,10,2:2:0:0:
488,184,75797,2,0,P|424:200|436:116,1,170,2|0,2:2|3:3,0:0:0:0:
348,40,76374,6,0,B|285:22|223:40|223:40|158:55|96:40,1,255,2|0,2:2|0:0,0:0:0:0:
24,8,77047,1,0,0:0:0:0:
24,8,77143,1,10,2:2:0:0:
40,128,77336,2,0,L|64:324,1,170,2|0,1:2|3:3,0:0:0:0:
176,252,77913,5,2,1:2:0:0:
192,340,78105,2,0,P|252:300|236:188,1,170,2|0,2:2|1:1,0:0:0:0:
184,120,78682,1,10,2:2:0:0:
184,120,78874,2,0,L|280:104,1,85,2|0,2:2|1:1,0:0:0:0:
352,196,79259,1,0,3:3:0:0:
408,92,79451,5,2,2:2:0:0:
484,188,79643,2,0,L|468:284,1,85,2|0,3:2|1:1,0:0:0:0:
408,92,80028,1,0,1:1:0:0:
408,92,80124,1,0,0:0:0:0:
408,92,80220,1,10,2:2:0:0:
352,196,80413,2,0,L|324:363,1,170,2|0,1:2|3:3,0:0:0:0:
470,271,80990,5,4,1:2:0:0:
352,196,81182,2,0,P|264:188|204:252,1,170,2|0,2:2|1:1,0:0:0:0:
308,292,81759,1,10,2:2:0:0:
136,344,81951,2,0,L|88:160,1,170,2|2,2:2|3:2,0:0:0:0:
64,52,82528,5,2,2:2:0:0:
180,92,82720,1,2,3:2:0:0:
180,92,82816,1,2,2:2:0:0:
180,92,82913,2,0,L|284:84,1,85,0|2,1:1|2:2,0:0:0:0:
364,28,83297,1,10,2:2:0:0:
368,136,83490,1,2,1:2:0:0:
368,136,83586,1,2,2:2:0:0:
368,136,83682,1,0,3:3:0:0:
460,80,83874,1,2,3:2:0:0:
420,232,84066,6,0,P|332:236|264:172,1,170,0|0,1:1|1:1,0:0:0:0:
277,1,84836,6,0,L|261:105,1,85,10|0,1:2|0:0,0:0:0:0:
271,186,85124,6,0,L|255:290,1,85,2|0,1:2|0:0,0:0:0:0:
168,296,85413,6,0,L|159:352,1,42.5,2|0,1:2|0:0,0:0:0:0:
72,360,85605,5,8,2:2:0:0:
352,244,87143,5,2,2:2:0:0:
