osu file format v14

[General]
AudioFilename: audio.mp3
AudioLeadIn: 0
PreviewTime: 61180
Countdown: 0
SampleSet: Normal
StackLeniency: 0.7
Mode: 1
LetterboxInBreaks: 0
WidescreenStoryboard: 0

[Editor]
Bookmarks: 7029,13604,20180,26755,33330,39906,46481,53056,61275,67851,74426,81001
DistanceSpacing: 1.2
BeatDivisor: 4
GridSize: 32
TimelineZoom: 1

[Metadata]
Title:DEAREST DROP (TV Size)
TitleUnicode:DEAREST DROP (TV Size)
Artist:Tadokoro Azusa
ArtistUnicode:田所あずさ
Creator:Ryxliee
Version:Kantan
Source:終末なにしてますか? 忙しいですか? 救ってもらっていいですか?
Tags:sukasuka Shuumatsu Nani Shitemasu ka? Isogashii Desu ka? Sukutte Moratte Ii Desu ka? What do you do at the end of the world? Are you busy? Will you save us? WorldEnd female vocal japanese jrock j-rock rock pop j-pop jpop opening op anime ost original soundtrack Q-MHz 増田武史 Takeshi Masuda naotoshi nao tomori tachibana_
BeatmapID:3862962
BeatmapSetID:1876865

[Difficulty]
HPDrainRate:8
CircleSize:2
OverallDifficulty:2.5
ApproachRate:9
SliderMultiplier:1.4
SliderTickRate:1

[Events]
//Background and Video events
0,0,"bg.jpg",0,40
Video,-150,"sukasuka_NCOP_taiko.mp4"
//Break Periods
//Storyboard Layer 0 (Background)
//Storyboard Layer 1 (Fail)
//Storyboard Layer 2 (Pass)
//Storyboard Layer 3 (Foreground)
//Storyboard Layer 4 (Overlay)
//Storyboard Sound Samples

[TimingPoints]
461,410.958904109589,4,1,0,60,1,0
7036,-100,4,1,0,80,0,0
13611,-100,4,1,0,90,0,0
20187,-100,4,1,0,60,0,0
33337,-100,4,1,0,70,0,0
39913,-100,4,1,0,80,0,0
53063,-100,4,1,0,90,0,0
61282,410.958904109589,4,1,0,60,1,0
61282,-100,4,1,0,100,0,1
85931,410.958904109589,4,1,0,100,1,0
87574,-100,4,1,0,100,0,0

[HitObjects]
256,192,461,5,8,0:0:0:0:
256,192,2104,1,0,0:0:0:0:
256,192,2926,1,8,0:0:0:0:
256,192,3748,1,0,0:0:0:0:
256,192,5392,1,0,0:0:0:0:
256,192,5803,1,8,0:0:0:0:
256,192,7036,1,12,0:0:0:0:
256,192,7652,1,0,0:0:0:0:
256,192,8269,1,0,0:0:0:0:
256,192,8680,1,8,0:0:0:0:
256,192,9913,1,8,0:0:0:0:
256,192,10324,1,4,0:0:0:0:
256,192,10940,1,0,0:0:0:0:
256,192,11556,1,8,0:0:0:0:
256,192,11967,1,0,0:0:0:0:
256,192,12584,1,0,0:0:0:0:
256,192,13200,1,8,0:0:0:0:
256,192,13611,1,12,0:0:0:0:
256,192,14433,1,0,0:0:0:0:
256,192,15255,1,8,0:0:0:0:
256,192,15666,1,0,0:0:0:0:
256,192,16077,1,8,0:0:0:0:
256,192,16899,1,0,0:0:0:0:
256,192,18543,1,12,0:0:0:0:
256,192,19365,1,12,0:0:0:0:
256,192,20187,1,0,0:0:0:0:
256,192,21830,1,8,0:0:0:0:
256,192,23474,1,8,0:0:0:0:
256,192,24296,1,8,0:0:0:0:
256,192,25118,1,0,0:0:0:0:
256,192,26762,1,0,0:0:0:0:
256,192,27584,1,0,0:0:0:0:
256,192,28406,1,8,0:0:0:0:
256,192,28817,1,0,0:0:0:0:
256,192,29228,1,8,0:0:0:0:
256,192,30050,1,0,0:0:0:0:
256,192,30871,1,0,0:0:0:0:
256,192,32515,1,8,0:0:0:0:
256,192,32926,1,8,0:0:0:0:
256,192,33337,1,4,0:0:0:0:
256,192,34159,1,0,0:0:0:0:
256,192,34981,1,8,0:0:0:0:
256,192,35803,1,0,0:0:0:0:
256,192,36214,1,8,0:0:0:0:
256,192,36625,1,0,0:0:0:0:
256,192,37447,1,0,0:0:0:0:
256,192,38269,1,8,0:0:0:0:
256,192,39913,1,4,0:0:0:0:
256,192,40529,1,12,0:0:0:0:
256,192,41556,1,12,0:0:0:0:
256,192,42173,1,4,0:0:0:0:
256,192,43200,1,12,0:0:0:0:
256,192,44022,1,12,0:0:0:0:
256,192,44844,1,4,0:0:0:0:
256,192,45461,1,4,0:0:0:0:
256,192,46488,1,12,0:0:0:0:
256,192,47310,1,8,0:0:0:0:
256,192,47721,1,4,0:0:0:0:
256,192,48543,1,8,0:0:0:0:
256,192,48954,1,0,0:0:0:0:
256,192,49365,1,0,0:0:0:0:
256,192,49776,1,12,0:0:0:0:
256,192,50597,1,8,0:0:0:0:
256,192,51008,1,4,0:0:0:0:
256,192,51830,1,8,0:0:0:0:
256,192,53063,1,4,0:0:0:0:
256,192,53680,1,8,0:0:0:0:
256,192,54296,1,0,0:0:0:0:
256,192,54707,1,12,0:0:0:0:
256,192,55324,1,8,0:0:0:0:
256,192,55940,1,0,0:0:0:0:
256,192,56351,1,12,0:0:0:0:
256,192,57173,1,8,0:0:0:0:
256,192,57584,1,8,0:0:0:0:
256,192,57995,1,0,0:0:0:0:
256,192,58817,1,0,0:0:0:0:
256,192,59639,1,8,0:0:0:0:
256,192,61282,1,4,0:0:0:0:
256,192,62103,1,8,0:0:0:0:
256,192,62925,1,8,0:0:0:0:
256,192,63747,1,0,0:0:0:0:
256,192,64158,1,0,0:0:0:0:
256,192,64569,1,8,0:0:0:0:
256,192,65391,1,0,0:0:0:0:
256,192,66213,1,0,0:0:0:0:
256,192,66624,1,12,0:0:0:0:
256,192,67857,1,4,0:0:0:0:
256,192,68679,1,8,0:0:0:0:
256,192,69501,1,8,0:0:0:0:
256,192,69912,1,8,0:0:0:0:
256,192,70323,1,0,0:0:0:0:
256,192,71145,1,12,0:0:0:0:
256,192,71761,1,4,0:0:0:0:
256,192,72377,1,8,0:0:0:0:
256,192,72788,1,4,0:0:0:0:
256,192,73405,1,12,0:0:0:0:
256,192,74432,1,4,0:0:0:0:
256,192,75254,1,8,0:0:0:0:
256,192,76076,1,0,0:0:0:0:
256,192,76898,1,0,0:0:0:0:
256,192,77309,1,0,0:0:0:0:
256,192,77720,1,12,0:0:0:0:
256,192,78953,1,0,0:0:0:0:
256,192,79364,1,12,0:0:0:0:
256,192,80186,1,12,0:0:0:0:
256,192,81008,1,4,0:0:0:0:
256,192,81624,1,12,0:0:0:0:
256,192,82651,1,12,0:0:0:0:
256,192,83268,1,4,0:0:0:0:
256,192,84295,1,12,0:0:0:0:
256,192,85117,1,0,0:0:0:0:
256,192,85528,1,0,0:0:0:0:
256,192,85931,1,8,0:0:0:0:
256,192,86752,1,0,0:0:0:0:
256,192,87574,1,4,0:0:0:0:
