osu file format v14

[General]
AudioFilename: audio.mp3
AudioLeadIn: 0
PreviewTime: 61173
Countdown: 0
SampleSet: Soft
StackLeniency: 0.3
Mode: 0
LetterboxInBreaks: 0
WidescreenStoryboard: 1

[Editor]
DistanceSpacing: 0.9
BeatDivisor: 4
GridSize: 32
TimelineZoom: 3.699999

[Metadata]
Title:DEAREST DROP (TV Size)
TitleUnicode:DEAREST DROP (TV Size)
Artist:Tadokoro Azusa
ArtistUnicode:田所あずさ
Creator:Kuon-
Version:NORMAL
Source:終末なにしてますか? 忙しいですか? 救ってもらっていいですか?
Tags:sukasuka Shuumatsu Nani Shitemasu ka? Isogashii Desu ka? Sukutte Moratte Ii Desu ka? What do you do at the end of the world? Are you busy? Will you save us? WorldEnd female vocal japanese jrock j-rock rock pop j-pop jpop opening op anime ost original soundtrack xahlt Q-MHz 増田武史 Takeshi Masuda
BeatmapID:3092841
BeatmapSetID:1509775

[Difficulty]
HPDrainRate:3
CircleSize:3.5
OverallDifficulty:4
ApproachRate:5.5
SliderMultiplier:1.3
SliderTickRate:1

[Events]
//Background and Video events
0,0,"bg.jpg",0,0
Video,-20,"op.mp4"
//Break Periods
2,20380,31383
//Storyboard Layer 0 (Background)
//Storyboard Layer 1 (Fail)
//Storyboard Layer 2 (Pass)
//Storyboard Layer 3 (Foreground)
//Storyboard Layer 4 (Overlay)
//Storyboard Sound Samples

[TimingPoints]
454,410.958904109589,4,2,1,50,1,0
454,-111.111111111111,4,2,1,50,0,0
7029,-111.111111111111,4,2,1,60,0,0
7440,-111.111111111111,4,2,1,50,0,0
7645,-111.111111111111,4,2,1,60,0,0
8056,-111.111111111111,4,2,1,50,0,0
8262,-111.111111111111,4,2,1,60,0,0
8673,-111.111111111111,4,2,1,65,0,0
9289,-111.111111111111,4,2,1,70,0,0
9906,-111.111111111111,4,2,1,75,0,0
10317,-111.111111111111,4,2,1,60,0,0
10727,-111.111111111111,4,2,1,50,0,0
10933,-111.111111111111,4,2,1,60,0,0
11344,-111.111111111111,4,2,1,50,0,0
11549,-111.111111111111,4,2,1,60,0,0
11960,-111.111111111111,4,2,1,65,0,0
12577,-111.111111111111,4,2,1,70,0,0
13193,-111.111111111111,4,2,1,75,0,0
13604,-100,4,2,1,70,0,0
20180,-100,4,2,1,50,0,0
32508,-111.111111111111,4,2,1,55,0,0
33330,-111.111111111111,4,2,1,60,0,0
39906,-111.111111111111,4,2,1,65,0,0
53056,-111.111111111111,4,2,1,70,0,0
56344,-111.111111111111,4,2,1,75,0,0
61275,-100,4,2,1,90,0,1
81001,-100,4,2,1,80,0,1
84289,-100,4,2,1,90,0,1
85933,-100,4,2,1,80,0,0
86755,-100,4,2,1,90,0,1
87577,-100,4,2,1,90,0,1
88399,-100,4,2,1,5,0,0

[Colours]
Combo1 : 225,125,255
Combo2 : 82,218,237

[HitObjects]
0,64,454,6,0,P|50:35|108:36,1,116.999996429443,2|0,0:2|0:0,0:0:0:0:
210,14,1275,2,0,P|198:71|187:128,1,116.999996429443,2|0,0:2|0:0,0:0:0:0:
82,144,2097,2,0,P|93:201|104:258,1,116.999996429443,2|0,0:2|0:0,0:0:0:0:
93,363,2919,2,0,P|121:356|150:351,1,58.4999982147217,2|2,0:2|0:2,0:0:0:0:
202,353,3330,1,2,0:2:0:0:
303,382,3741,6,0,B|296:251|400:311|383:166,1,233.999992858887,2|2,0:2|0:2,0:0:0:0:
297,113,4974,1,0,0:0:0:0:
362,30,5385,2,0,P|304:18|248:3,2,116.999996429443,2|2|2,0:2|0:2|0:2,0:0:0:0:
484,229,7029,6,0,P|426:241|369:255,1,116.999996429443,14|8,3:2|0:2,0:0:0:0:
318,264,7645,2,0,P|279:222|222:225,1,116.999996429443,10|8,3:2|0:2,0:0:0:0:
172,205,8262,1,10,3:2:0:0:
72,169,8673,2,0,P|87:232|98:288,1,116.999996429443,10|8,3:2|0:2,0:0:0:0:
96,336,9289,2,0,P|127:367|208:360,1,116.999996429443,10|8,3:2|0:2,0:0:0:0:
223,320,9906,1,10,3:2:0:0:
322,354,10317,6,0,P|387:366|453:379,1,116.999996429443,14|8,0:0|0:2,0:0:0:0:
478,343,10933,2,0,P|508:301|474:223,1,116.999996429443,10|8,3:2|0:2,0:0:0:0:
458,201,11549,1,10,3:2:0:0:
484,99,11960,2,0,P|427:107|369:115,1,116.999996429443,10|8,3:2|0:2,0:0:0:0:
332,76,12577,2,0,P|282:38|211:44,1,116.999996429443,10|8,3:2|0:2,0:0:0:0:
178,48,13193,1,10,3:2:0:0:
67,10,13604,6,0,B|47:35|40:57|40:57|61:95|78:150,1,130,6|8,3:2|0:0,0:0:0:0:
55,183,14221,1,2,0:0:0:0:
55,183,14426,2,0,P|88:165|183:184,1,130,2|8,3:2|0:0,0:0:0:0:
267,251,15248,2,0,P|301:246|337:230,1,65,2|0,3:2|0:0,0:0:0:0:
358,183,15659,1,8,0:0:0:0:
471,153,16070,2,0,P|455:106|438:61,2,97.5,2|10|2,3:2|0:0|3:2,0:0:0:0:
488,208,16892,6,0,B|428:242|428:242|388:351|388:351|291:387,1,260,2|8,3:2|3:0,0:0:0:0:
221,309,18125,2,0,P|186:301|146:293,1,65,10|10,0:0|0:0,0:0:0:0:
99,288,18536,2,0,P|123:328|107:372,2,97.5,4|4|4,3:2|3:2|3:2,0:0:0:0:
45,264,19358,1,14,0:0:0:0:
169,65,20180,5,2,0:0:0:0:
18,23,32508,6,0,P|47:28|75:38,1,58.4999982147217,8|8,0:0|0:0,0:0:0:0:
114,73,32919,1,8,0:0:0:0:
209,28,33330,6,0,P|265:16|329:57,1,116.999996429443,6|8,3:2|0:0,0:0:0:0:
355,77,33947,2,0,P|349:105|344:134,2,58.4999982147217,2|0|2,0:0|3:2|0:0,0:0:0:0:
404,57,34563,1,8,0:0:0:0:
482,127,34974,2,0,B|499:190|510:247,1,116.999996429443,2|8,3:2|0:0,0:0:0:0:
489,292,35590,1,2,0:0:0:0:
489,292,35796,2,0,P|455:286|407:280,1,58.4999982147217,2|2,3:2|0:0,0:0:0:0:
385,255,36207,1,8,0:0:0:0:
291,303,36618,6,0,P|315:342|297:393,2,87.7499973220826,2|10|2,3:2|0:0|3:2,0:0:0:0:
238,297,37440,2,0,P|199:321|148:302,2,87.7499973220826,2|10|2,3:2|0:0|3:2,0:0:0:0:
224,246,38262,2,0,P|200:207|218:156,2,87.7499973220826,2|10|2,3:2|0:0|3:2,0:0:0:0:
272,224,39084,2,0,P|317:194|388:209,1,116.999996429443,10|8,0:0|0:2,0:0:0:0:
450,125,39906,6,0,P|414:87|339:54,1,116.999996429443,6|8,3:2|0:0,0:0:0:0:
314,26,40522,2,0,P|255:34|171:45,1,116.999996429443,6|2,3:2|3:2,0:0:0:0:
150,19,41138,1,8,0:0:0:0:
64,81,41549,2,0,P|35:132|66:189,1,116.999996429443,6|8,3:2|0:0,0:0:0:0:
102,208,42166,2,0,P|160:216|245:227,1,116.999996429443,6|2,3:2|3:2,0:0:0:0:
261,193,42782,1,8,0:0:0:0:
346,254,43193,6,0,P|356:211|375:147,2,87.7499973220826,6|10|2,3:2|0:0|3:2,0:0:0:0:
312,294,44015,2,0,P|323:336|334:378,2,87.7499973220826,14|10|2,0:0|0:0|3:2,0:0:0:0:
260,282,44837,2,0,P|216:285|181:310,1,87.7499973220826,6|2,3:2|3:2,0:0:0:0:
117,357,45453,2,0,P|66:335|65:269,1,116.999996429443,6|8,3:2|3:0,0:0:0:0:
86,233,46070,1,8,3:0:0:0:
95,128,46481,6,0,P|52:138|10:151,2,87.7499973220826,6|2|2,3:2|3:2|3:2,0:0:0:0:
131,90,47303,1,10,0:0:0:0:
225,135,47714,2,0,P|236:92|246:50,2,87.7499973220826,6|2|2,3:2|3:2|3:2,0:0:0:0:
240,185,48536,1,10,0:0:0:0:
141,224,48947,2,0,P|160:247|181:268,1,58.4999982147217,10|10,0:0|3:0,0:0:0:0:
192,319,49358,2,0,P|218:310|268:300,1,58.4999982147217,10|6,3:0|3:0,0:0:0:0:
298,286,49769,6,0,P|291:330|286:373,2,87.7499973220826,6|2|2,3:2|3:2|3:2,0:0:0:0:
332,247,50590,1,10,0:0:0:0:
429,287,51001,2,0,P|438:329|449:372,2,87.7499973220826,6|2|2,3:2|3:2|3:2,0:0:0:0:
446,237,51822,1,10,0:0:0:0:
398,142,52234,2,0,P|366:146|333:168,1,58.4999982147217,10|10,0:0|3:0,0:0:0:0:
300,189,52645,2,0,P|268:185|235:163,1,58.4999982147217,10|6,0:0|3:0,0:0:0:0:
201,142,53056,6,0,P|187:90|227:33,1,116.999996429443,6|8,3:2|0:0,0:0:0:0:
264,13,53673,2,0,P|320:26|378:38,1,116.999996429443,2|0,3:2|3:2,0:0:0:0:
429,24,54289,1,8,0:0:0:0:
497,105,54700,2,0,P|524:151|487:220,1,116.999996429443,6|8,3:2|0:0,0:0:0:0:
460,240,55317,2,0,P|403:250|347:267,1,116.999996429443,2|0,3:2|3:2,0:0:0:0:
298,286,55933,1,8,0:0:0:0:
215,351,56344,6,0,P|170:311|105:313,1,116.999996429443,14|8,0:0|0:0,0:0:0:0:
64,321,56960,1,2,3:2:0:0:
64,321,57166,2,0,P|54:292|42:257,1,58.4999982147217,10|2,0:0|3:2,0:0:0:0:
6,229,57577,1,10,0:0:0:0:
76,150,57988,2,0,P|35:129|-9:98,2,87.7499973220826,14|10|6,0:0|3:0|3:0,0:0:0:0:
119,119,58810,2,0,P|116:72|121:19,2,87.7499973220826,10|10|6,3:0|3:0|3:0,0:0:0:0:
165,144,59632,5,6,0:0:0:0:
498,17,61275,6,0,P|442:44|429:106,1,130,6|8,3:2|0:0,0:0:0:0:
465,158,61892,1,0,0:0:0:0:
465,158,62097,2,0,P|401:169|338:187,1,130,2|8,3:2|0:0,0:0:0:0:
247,113,62919,2,0,P|216:100|185:95,1,65,2|0,3:2|0:0,0:0:0:0:
127,84,63330,1,8,0:0:0:0:
36,158,63741,2,0,P|15:188|21:241,1,65,2|2,3:2|3:2,0:0:0:0:
48,261,64152,2,0,P|69:291|63:344,1,65,10|2,0:0|0:0,0:0:0:0:
43,370,64563,6,0,P|94:331|165:337,1,130,2|10,3:2|0:0,0:0:0:0:
216,363,65180,1,2,0:0:0:0:
216,363,65385,2,0,P|278:348|373:336,1,130,2|10,3:2|0:0,0:0:0:0:
402,237,66207,1,6,3:2:0:0:
319,153,66618,1,14,0:0:0:0:
404,71,67029,2,0,B|415:49|431:30|431:30|396:-14,2,97.5,10|10|0,0:0|0:0|3:2,0:0:0:0:
419,127,67851,6,0,P|472:129|506:209,1,130,6|8,3:2|0:0,0:0:0:0:
425,272,68673,2,0,P|469:293|516:317,2,97.5,2|10|2,3:2|0:0|3:2,0:0:0:0:
366,281,69495,2,0,P|374:328|334:361,2,97.5,0|10|2,3:2|0:0|3:2,0:0:0:0:
320,245,70317,1,2,3:2:0:0:
213,293,70727,2,0,P|179:299|141:311,1,65,10|2,0:0|0:0,0:0:0:0:
92,318,71138,6,0,P|37:288|37:226,1,130,6|10,3:2|0:0,0:0:0:0:
44,168,71755,2,0,P|107:183|171:194,1,130,4|0,3:2|3:2,0:0:0:0:
228,206,72371,1,8,0:0:0:0:
324,140,72782,2,0,P|346:89|295:31,1,130,6|10,3:2|0:0,0:0:0:0:
248,19,73399,1,6,3:2:0:0:
149,79,73810,1,10,0:0:0:0:
149,79,74015,2,0,P|111:86|68:99,1,65,10|6,3:0|3:0,0:0:0:0:
28,109,74426,6,0,P|-4:161|23:217,1,130,6|8,3:2|0:0,0:0:0:0:
39,279,75043,1,0,0:0:0:0:
39,279,75248,2,0,P|100:254|162:238,1,130,2|8,3:2|0:0,0:0:0:0:
226,140,76070,2,0,P|286:164|348:180,1,130,2|8,3:2|0:0,0:0:0:0:
463,152,76892,2,0,P|489:184|495:208,1,65,2|2,3:2|3:2,0:0:0:0:
454,248,77303,2,0,P|433:283|431:308,1,65,10|10,0:0|0:0,0:0:0:0:
431,365,77714,6,0,P|388:332|301:342,1,130,6|10,3:2|0:0,0:0:0:0:
265,366,78330,2,0,P|204:353|127:339,1,130,2|0,0:0|3:2,0:0:0:0:
82,361,78947,1,10,0:0:0:0:
89,244,79358,2,0,P|51:269|-19:271,2,97.5,6|10|6,3:2|3:0|3:0,0:0:0:0:
121,195,80180,2,0,P|169:200|209:226,2,97.5,6|10|6,3:2|3:0|3:0,0:0:0:0:
77,156,81001,6,0,P|53:100|91:45,1,130,6|8,3:2|0:0,0:0:0:0:
139,17,81618,1,4,3:2:0:0:
239,87,82029,1,10,3:0:0:0:
239,87,82234,2,0,P|270:79|302:72,1,65,10|6,3:0|3:0,0:0:0:0:
344,30,82645,1,6,3:2:0:0:
449,80,83056,2,0,P|466:107|476:144,1,65,10|0,0:0|3:2,0:0:0:0:
473,196,83467,2,0,P|442:205|412:215,1,65,2|0,3:2|3:2,0:0:0:0:
354,231,83878,1,10,0:0:0:0:
256,162,84289,6,0,P|192:174|128:187,1,130,6|8,3:2|0:0,0:0:0:0:
54,277,85111,2,0,P|102:288|166:301,2,97.5,6|10|6,3:2|3:0|3:0,0:0:0:0:
11,236,85933,1,6,3:2:0:0:
209,359,86755,6,0,P|257:347|321:334,1,97.5,6|10,3:2|3:0,0:0:0:0:
387,377,87371,1,6,3:0:0:0:
387,377,87577,2,0,B|385:233|509:308|493:141,1,260,6|0,3:2|0:0,0:0:0:0:
