osu file format v14

[General]
AudioFilename: 1hope.mp3
AudioLeadIn: 0
PreviewTime: 59537
Countdown: 0
SampleSet: Soft
StackLeniency: 1
Mode: 0
LetterboxInBreaks: 0
WidescreenStoryboard: 0

[Editor]
Bookmarks: 29087
DistanceSpacing: 1.2
BeatDivisor: 4
GridSize: 8
TimelineZoom: 2.300003

[Metadata]
Title:1HOPE SNIPER (TV Size)
TitleUnicode:1HOPE SNIPER (TV Size)
Artist:Tadokoro Azusa
ArtistUnicode:田所あずさ
Creator:-Zeraora
Version:Hitsounds
Source:TRICKSTER -江戸川乱歩「少年探偵団」より-
Tags:1 hope -Edogawa Ranpo "Shounen Tanteidan" Yori -From Edogawa Ranpo's "The Boy Detectives Club" ending ed japanese anime female vocals vocalist KittyAdventure gokugohan12468
BeatmapID:2068204
BeatmapSetID:975065

[Difficulty]
HPDrainRate:10
CircleSize:2
OverallDifficulty:10
ApproachRate:10
SliderMultiplier:3.59999990463257
SliderTickRate:1

[Events]
//Background and Video events
0,0,"BG.jpg",0,0
//Break Periods
//Storyboard Layer 0 (Background)
//Storyboard Layer 1 (Fail)
//Storyboard Layer 2 (Pass)
//Storyboard Layer 3 (Foreground)
//Storyboard Sound Samples

[TimingPoints]
-244,218.978102189781,4,2,10,5,1,0
412,-133.333333333333,4,2,10,70,0,0
5668,-133.333333333333,4,2,10,40,0,0
5723,-133.333333333333,4,2,10,5,0,0
5777,-133.333333333333,4,2,10,40,0,0
5832,-133.333333333333,4,2,10,5,0,0
5876,218.978102189781,4,2,10,80,1,0
6970,-125,4,2,10,70,0,0
7189,-125,4,2,10,55,0,0
7408,-125,4,2,10,40,0,0
7627,-100,4,2,10,75,0,0
12664,-100,4,2,10,50,0,0
12883,-100,4,2,10,90,0,0
14416,-100,4,2,10,40,0,0
14635,-142.857142857143,4,2,10,70,0,0
19671,-125,4,2,10,70,0,0
19890,-100,4,2,10,90,0,0
21642,-142.857142857143,4,2,10,90,0,0
21697,-142.857142857143,4,2,10,70,0,0
26678,-125,4,2,10,50,0,0
26897,-83.3333333333333,4,2,10,90,0,0
27773,-83.3333333333333,4,2,10,90,0,0
27992,-200,4,2,10,40,0,0
28649,-90.9090909090909,4,2,10,90,0,1
38284,-125,4,2,10,50,0,0
38503,-100,4,2,10,65,0,0
38722,-76.9230769230769,4,2,10,80,0,0
38941,-90.9090909090909,4,2,10,100,0,1
38996,-90.9090909090909,4,2,10,90,0,1
40912,-90.9090909090909,4,2,10,75,0,1
41788,-100,4,2,10,75,0,0
42007,222.634508348794,4,2,10,75,1,0
42229,-200,4,2,10,60,0,0
42662,218.978102189781,4,2,10,90,1,0
42662,-90.9090909090909,4,2,10,90,0,0
42880,-90.9090909090909,4,2,10,90,0,0
44413,-100,4,2,10,70,0,0
45070,-100,4,2,10,50,0,0
45508,-200,4,2,10,40,0,0
46180,218.978102189781,4,2,10,75,1,0
49683,-100,4,2,10,60,0,0
50121,-100,4,2,10,85,0,0
50450,-100,4,2,10,45,0,0
50559,-100,4,2,10,60,0,0
50997,-100,4,2,10,85,0,0
51216,-100,4,2,10,50,0,0
51435,-90.9090909090909,4,2,10,90,0,0
52749,-90.9090909090909,4,2,10,50,0,0
53187,-90.9090909090909,4,2,10,85,0,0
56690,-125,4,2,10,80,0,0
57566,-125,4,2,10,85,0,0
58223,-166.666666666667,4,2,10,50,0,0
58278,-166.666666666667,4,2,10,5,0,0
58333,-166.666666666667,4,2,10,50,0,0
58388,-166.666666666667,4,2,10,5,0,0
58442,-83.3333333333333,4,2,10,90,0,0
58661,-83.3333333333333,4,2,10,50,0,0
58771,-83.3333333333333,4,2,10,90,0,0
58990,-83.3333333333333,4,2,10,50,0,0
59099,-83.3333333333333,4,2,10,80,0,0
59318,-83.3333333333333,4,2,10,90,0,0
59537,-111.111111111111,4,2,10,40,0,0
60194,-90.9090909090909,4,2,10,90,0,1
69829,-125,4,2,10,50,0,0
70048,-100,4,2,10,65,0,0
70267,-76.9230769230769,4,2,10,80,0,0
70487,218.978102189781,4,2,10,100,1,1
70487,-90.9090909090909,4,2,10,100,0,1
70541,-90.9090909090909,4,2,10,90,0,1
70705,218.978102189781,4,2,10,90,1,1
70705,-90.9090909090909,4,2,10,90,0,1
73770,-100,4,2,10,75,0,0
74208,-90.9090909090909,4,2,10,90,0,0
75960,-125,4,2,10,75,0,0
77274,-111.111111111111,4,2,10,50,0,0
77493,-100,4,2,10,75,0,0
77712,-90.9090909090909,4,2,10,90,0,0
79464,-125,4,2,10,75,0,0
80340,-90.9090909090909,4,2,10,90,0,0
81215,-100,4,2,10,70,0,0

[Colours]
Combo1 : 255,255,128
Combo2 : 151,198,255
Combo3 : 191,191,191
Combo4 : 0,128,255

[HitObjects]
147,193,412,5,10,1:2:0:0:
309,291,631,1,10,1:2:0:0:
309,291,2164,1,10,1:2:0:0:
309,291,2383,1,10,1:2:0:0:
309,291,3916,1,10,1:2:0:0:
309,291,4135,1,10,1:2:0:0:
309,291,5668,1,0,1:2:0:0:
309,291,5777,1,0,1:2:0:0:
309,291,5876,1,6,1:2:0:0:
89,87,6094,1,10,0:0:0:0:
309,291,6204,1,4,1:2:0:0:
86,102,6423,1,8,0:0:0:0:
309,291,6532,1,6,1:2:0:0:
274,145,6751,1,6,0:0:0:0:
309,291,6970,1,10,1:2:0:0:
309,291,7080,1,10,1:2:0:0:
309,291,7189,1,10,1:2:0:0:
309,291,7299,1,8,1:2:0:0:
309,291,7408,1,10,1:2:0:0:
309,291,7518,1,10,1:2:0:0:
309,291,7627,5,6,1:2:0:0:
216,100,7846,1,10,0:0:0:0:
309,291,8065,1,2,1:2:0:0:
145,179,8284,1,8,0:0:0:0:
309,291,8394,1,2,1:2:0:0:
309,291,8613,1,0,1:2:0:0:
145,179,8722,1,10,0:0:0:0:
309,291,8941,1,2,1:2:0:0:
309,291,9051,1,0,1:2:0:0:
384,84,9160,1,10,0:0:0:0:
309,291,9379,1,2,1:2:0:0:
114,304,9598,1,8,0:0:0:0:
309,291,9817,1,2,1:2:0:0:
152,104,10036,1,8,0:0:0:0:
309,291,10146,1,2,1:2:0:0:
309,291,10365,1,0,1:2:0:0:
291,266,10474,1,10,0:0:0:0:
309,291,10693,1,2,1:2:0:0:
309,291,10803,1,0,1:2:0:0:
186,89,10912,1,10,0:0:0:0:
309,291,11131,1,2,1:2:0:0:
182,171,11350,1,8,0:0:0:0:
309,291,11569,1,2,1:2:0:0:
149,124,11788,1,8,0:0:0:0:
309,291,11897,1,2,1:2:0:0:
309,291,12116,1,0,1:2:0:0:
149,124,12226,1,10,0:0:0:0:
309,291,12445,1,2,1:2:0:0:
309,291,12554,1,0,1:2:0:0:
126,284,12664,1,10,0:0:0:0:
309,291,12773,1,2,1:2:0:0:
143,220,12883,5,14,0:0:0:0:
309,291,13102,1,2,1:2:0:0:
149,192,13211,1,10,0:0:0:0:
309,291,13430,1,0,1:2:0:0:
149,192,13540,1,14,0:0:0:0:
309,291,13868,1,0,1:2:0:0:
309,291,13978,1,2,1:2:0:0:
309,291,14087,1,2,1:2:0:0:
145,193,14197,1,10,0:0:0:0:
145,193,14306,1,8,0:0:0:0:
309,291,14416,1,2,1:2:0:0:
309,291,14525,1,0,1:2:0:0:
309,291,14635,5,6,1:2:0:0:
309,291,14854,1,0,1:2:0:0:
348,124,14963,1,2,0:0:0:0:
309,291,15073,1,2,1:2:0:0:
309,291,15292,1,2,1:2:0:0:
309,291,15511,1,2,1:2:0:0:
309,291,15730,1,2,1:2:0:0:
146,154,15839,1,2,0:0:0:0:
309,291,15948,1,0,1:2:0:0:
268,126,16058,1,2,0:0:0:0:
309,291,16167,1,2,1:2:0:0:
309,291,16277,1,0,1:2:0:0:
309,291,16386,1,6,1:2:0:0:
309,291,16605,1,0,1:2:0:0:
184,102,16715,1,2,0:0:0:0:
309,291,16824,1,2,1:2:0:0:
309,291,17043,1,2,1:2:0:0:
309,291,17262,1,2,1:2:0:0:
309,291,17481,1,2,1:2:0:0:
88,194,17591,1,2,0:0:0:0:
309,291,17700,1,0,1:2:0:0:
150,95,17810,1,2,0:0:0:0:
309,291,17919,1,2,1:2:0:0:
309,291,18029,1,0,1:2:0:0:
309,291,18138,1,6,1:2:0:0:
309,291,18357,1,0,1:2:0:0:
165,111,18467,1,2,0:0:0:0:
309,291,18576,1,2,1:2:0:0:
309,291,18795,1,2,1:2:0:0:
309,291,19014,1,2,1:2:0:0:
309,291,19233,1,2,1:2:0:0:
274,145,19343,1,2,0:0:0:0:
309,291,19452,1,0,1:2:0:0:
274,145,19562,1,2,0:0:0:0:
309,291,19671,1,2,1:2:0:0:
309,291,19781,1,0,1:2:0:0:
309,291,19890,1,14,1:2:0:0:
309,291,20109,1,2,1:2:0:0:
150,160,20219,1,10,0:0:0:0:
309,291,20438,1,2,1:2:0:0:
418,72,20547,1,14,0:0:0:0:
137,137,20766,1,2,0:0:0:0:
309,291,20876,1,0,1:2:0:0:
309,291,20985,1,2,1:2:0:0:
309,291,21094,1,0,1:2:0:0:
294,97,21204,1,10,0:0:0:0:
294,97,21313,1,10,0:0:0:0:
309,291,21423,1,0,1:2:0:0:
309,291,21532,1,0,1:2:0:0:
309,291,21642,5,6,1:2:0:0:
309,291,21861,1,0,1:2:0:0:
172,113,21970,1,2,0:0:0:0:
309,291,22080,1,2,1:2:0:0:
255,122,22189,1,2,0:0:0:0:
309,291,22299,1,2,1:2:0:0:
309,291,22518,1,2,1:2:0:0:
309,291,22737,1,2,1:2:0:0:
274,118,22846,1,2,0:0:0:0:
309,291,22956,1,0,1:2:0:0:
175,128,23065,1,2,0:0:0:0:
309,291,23175,1,2,1:2:0:0:
309,291,23284,1,2,1:2:0:0:
309,291,23394,1,6,1:2:0:0:
309,291,23613,1,0,1:2:0:0:
287,192,23722,1,2,0:0:0:0:
309,291,23832,1,2,1:2:0:0:
309,291,24051,1,2,1:2:0:0:
166,117,24160,1,2,0:0:0:0:
309,291,24270,1,2,1:2:0:0:
309,291,24489,1,2,1:2:0:0:
222,142,24598,1,2,0:0:0:0:
309,291,24708,1,0,1:2:0:0:
317,122,24817,1,2,0:0:0:0:
309,291,24927,1,2,1:2:0:0:
309,291,25036,1,0,1:2:0:0:
309,291,25146,1,6,1:2:0:0:
151,133,25255,1,2,0:0:0:0:
309,291,25365,1,0,1:2:0:0:
133,104,25474,1,2,0:0:0:0:
309,291,25584,1,2,1:2:0:0:
309,291,25803,1,2,1:2:0:0:
331,135,25912,1,2,0:0:0:0:
309,291,26021,1,0,1:2:0:0:
157,145,26131,1,2,0:0:0:0:
309,291,26240,1,2,1:2:0:0:
309,291,26459,1,2,1:2:0:0:
128,156,26569,1,2,0:0:0:0:
309,291,26678,1,0,1:2:0:0:
309,291,26788,1,2,1:2:0:0:
309,291,26897,1,14,1:2:0:0:
186,304,27116,1,8,0:0:0:0:
309,291,27226,1,6,1:2:0:0:
233,102,27445,1,0,1:0:0:0:
309,291,27554,1,14,1:2:0:0:
309,291,27773,1,14,1:2:0:0:
293,191,27992,1,0,0:0:0:0:
293,191,28102,1,2,0:0:0:0:
293,191,28211,1,2,0:0:0:0:
337,205,28430,1,2,0:0:0:0:
309,291,28649,5,6,1:2:0:0:
95,197,28868,1,8,0:0:0:0:
309,291,29087,1,2,1:2:0:0:
309,291,29197,1,0,1:2:0:0:
287,107,29306,1,8,0:0:0:0:
309,291,29525,1,2,1:2:0:0:
309,291,29635,1,0,1:2:0:0:
201,124,29744,1,10,0:0:0:0:
309,291,29854,1,2,1:2:0:0:
309,291,30073,1,2,1:2:0:0:
201,117,30182,1,10,0:0:0:0:
309,291,30401,1,6,1:2:0:0:
89,351,30620,1,8,0:0:0:0:
309,291,30839,1,2,1:2:0:0:
309,291,30948,1,0,1:2:0:0:
408,119,31058,1,8,0:0:0:0:
309,291,31277,1,2,1:2:0:0:
309,291,31386,1,2,1:2:0:0:
142,163,31496,1,8,0:0:0:0:
309,291,31605,1,2,1:2:0:0:
309,291,31824,1,2,1:2:0:0:
195,304,31934,1,10,0:0:0:0:
309,291,32153,1,4,1:2:0:0:
485,362,32372,1,8,0:0:0:0:
309,291,32591,1,2,1:2:0:0:
309,291,32700,1,0,1:2:0:0:
144,139,32810,1,10,0:0:0:0:
309,291,32919,1,0,1:2:0:0:
309,291,33029,1,2,1:2:0:0:
144,324,33248,1,10,0:0:0:0:
309,291,33357,1,0,1:2:0:0:
309,291,33467,1,2,1:2:0:0:
309,291,33576,1,0,1:2:0:0:
406,159,33686,1,10,0:0:0:0:
309,291,33905,1,6,1:2:0:0:
108,130,34124,1,8,0:0:0:0:
309,291,34233,1,2,1:2:0:0:
309,291,34343,1,2,1:2:0:0:
309,291,34452,1,0,1:2:0:0:
296,299,34562,1,10,0:0:0:0:
309,291,34781,1,0,1:2:0:0:
309,291,34890,1,0,1:2:0:0:
397,360,35000,1,10,0:0:0:0:
309,291,35109,1,0,1:2:0:0:
309,291,35219,1,2,1:2:0:0:
309,291,35328,1,0,1:2:0:0:
175,123,35438,1,10,0:0:0:0:
309,291,35657,5,6,1:2:0:0:
122,332,35876,1,10,0:0:0:0:
309,291,35985,1,0,1:2:0:0:
309,291,36204,1,0,1:2:0:0:
412,220,36313,1,10,0:0:0:0:
309,291,36532,1,2,1:2:0:0:
309,291,36642,1,0,1:2:0:0:
143,136,36751,1,10,0:0:0:0:
309,291,36970,1,2,1:2:0:0:
309,291,37080,1,2,1:2:0:0:
415,337,37189,1,8,0:0:0:0:
309,291,37299,1,2,1:2:0:0:
309,291,37408,1,6,1:2:0:0:
177,335,37627,1,10,0:0:0:0:
309,291,37737,1,0,1:2:0:0:
309,291,37956,1,0,1:2:0:0:
399,166,38065,1,10,0:0:0:0:
309,291,38175,1,0,1:2:0:0:
340,315,38284,1,10,1:2:0:0:
340,315,38503,1,10,1:2:0:0:
350,320,38722,1,10,1:2:0:0:
309,291,38941,1,6,1:2:0:0:
309,291,39270,1,0,1:2:0:0:
218,322,39379,1,10,0:0:0:0:
309,291,39598,1,2,1:2:0:0:
111,212,39817,1,10,0:0:0:0:
309,291,39927,1,0,1:2:0:0:
309,291,40036,1,2,1:2:0:0:
335,296,40255,1,8,0:0:0:0:
309,291,40365,1,0,1:2:0:0:
309,291,40474,1,2,1:2:0:0:
309,291,40584,1,0,1:2:0:0:
169,280,40693,1,10,0:0:0:0:
309,291,40912,1,2,1:2:0:0:
309,291,41021,1,0,1:2:0:0:
169,280,41131,1,14,0:0:0:0:
309,291,41350,1,0,1:2:0:0:
309,291,41459,1,0,1:2:0:0:
159,280,41569,1,14,0:0:0:0:
309,291,41788,1,6,1:2:0:0:
89,98,42007,1,0,1:2:0:0:
89,98,42118,1,0,1:2:0:0:
291,153,42229,1,2,1:2:0:0:
309,291,42674,1,0,1:2:0:0:
268,211,42771,1,12,0:0:0:0:
309,291,42990,1,0,1:2:0:0:
268,211,43099,1,12,0:0:0:0:
309,291,43318,1,0,1:2:0:0:
268,211,43428,1,12,0:0:0:0:
309,291,43647,1,0,1:2:0:0:
268,211,43756,1,12,0:0:0:0:
309,291,43866,1,0,1:2:0:0:
309,291,43975,1,14,1:2:0:0:
309,291,44194,1,14,1:2:0:0:
309,291,44413,1,14,1:2:0:0:
51,188,45508,1,0,1:2:0:0:
51,188,45727,1,2,1:2:0:0:
51,188,46180,5,6,1:2:0:0:
107,289,46398,1,8,0:0:0:0:
234,157,46508,1,2,0:0:0:0:
51,188,46617,1,2,1:2:0:0:
51,188,46727,1,0,1:2:0:0:
107,289,46836,1,10,0:0:0:0:
51,188,47055,1,2,1:2:0:0:
51,188,47165,1,0,1:2:0:0:
107,289,47274,1,10,0:0:0:0:
51,188,47384,1,2,1:2:0:0:
51,188,47603,1,2,1:2:0:0:
107,289,47712,1,10,0:0:0:0:
51,188,47822,1,0,1:2:0:0:
51,188,47931,1,2,1:2:0:0:
107,289,48150,1,8,0:0:0:0:
230,138,48260,1,2,0:0:0:0:
51,188,48369,1,2,1:2:0:0:
51,188,48479,1,0,1:2:0:0:
107,289,48588,1,10,0:0:0:0:
51,188,48807,1,2,1:2:0:0:
51,188,48917,1,0,1:2:0:0:
107,289,49026,1,10,0:0:0:0:
51,188,49136,1,2,1:2:0:0:
51,188,49355,1,2,1:2:0:0:
107,289,49464,1,10,0:0:0:0:
51,188,49574,1,0,1:2:0:0:
51,188,49683,1,2,1:2:0:0:
51,188,49793,1,0,1:2:0:0:
107,289,49902,1,10,0:0:0:0:
51,188,50012,1,0,1:2:0:0:
51,188,50121,1,6,1:2:0:0:
107,289,50340,1,8,0:0:0:0:
51,188,50450,1,2,1:2:0:0:
51,188,50559,1,2,1:2:0:0:
51,188,50669,1,0,1:2:0:0:
107,289,50778,1,10,0:0:0:0:
51,188,50888,1,0,1:2:0:0:
51,188,50997,1,6,1:2:0:0:
107,289,51216,1,14,0:0:0:0:
107,289,51435,1,14,0:0:0:0:
51,188,51654,1,0,1:2:0:0:
107,289,51763,1,14,0:0:0:0:
51,188,51982,1,0,1:2:0:0:
107,289,52092,1,14,0:0:0:0:
51,188,52311,1,2,1:2:0:0:
107,289,52420,1,8,0:0:0:0:
51,188,52530,1,2,1:2:0:0:
51,188,52639,1,0,1:2:0:0:
107,289,52749,1,10,0:0:0:0:
107,289,52858,1,10,0:0:0:0:
51,188,52968,1,2,1:2:0:0:
51,188,53077,1,0,1:2:0:0:
51,188,53187,5,6,1:2:0:0:
107,289,53406,1,10,0:0:0:0:
51,188,53625,1,6,1:2:0:0:
107,289,53844,1,8,0:0:0:0:
51,188,53953,1,2,1:2:0:0:
217,85,54063,1,2,0:0:0:0:
51,188,54172,1,0,1:2:0:0:
107,289,54282,1,10,0:0:0:0:
51,188,54501,1,6,1:2:0:0:
107,289,54720,1,8,0:0:0:0:
230,92,54829,1,2,0:0:0:0:
51,188,54939,1,2,1:2:0:0:
107,289,55158,1,10,0:0:0:0:
51,188,55377,1,2,1:2:0:0:
107,289,55596,1,10,0:0:0:0:
51,188,55705,1,2,1:2:0:0:
51,188,55924,1,0,1:2:0:0:
107,289,56034,1,10,0:0:0:0:
51,188,56252,1,2,1:2:0:0:
107,289,56471,1,10,0:0:0:0:
107,289,56690,1,14,0:0:0:0:
107,289,57347,1,10,0:0:0:0:
107,289,57566,1,14,0:0:0:0:
290,228,58223,1,0,1:2:0:0:
290,228,58333,1,0,1:2:0:0:
309,291,58442,1,14,1:2:0:0:
186,304,58661,1,8,0:0:0:0:
309,291,58771,1,6,1:2:0:0:
233,102,58990,1,0,1:0:0:0:
309,291,59099,1,14,1:2:0:0:
309,291,59318,1,14,1:2:0:0:
293,191,59537,1,8,0:0:0:0:
293,191,59647,1,10,0:0:0:0:
293,191,59756,1,10,0:0:0:0:
337,205,59975,1,10,0:0:0:0:
309,291,60194,5,6,1:2:0:0:
95,197,60413,1,8,0:0:0:0:
309,291,60632,1,2,1:2:0:0:
309,291,60742,1,0,1:2:0:0:
287,107,60851,1,8,0:0:0:0:
309,291,61070,1,2,1:2:0:0:
309,291,61180,1,0,1:2:0:0:
201,124,61289,1,10,0:0:0:0:
309,291,61398,1,2,1:2:0:0:
309,291,61617,1,2,1:2:0:0:
201,117,61727,1,10,0:0:0:0:
309,291,61946,1,6,1:2:0:0:
89,351,62165,1,8,0:0:0:0:
309,291,62384,1,2,1:2:0:0:
309,291,62493,1,0,1:2:0:0:
408,119,62603,1,8,0:0:0:0:
309,291,62822,1,2,1:2:0:0:
309,291,62931,1,2,1:2:0:0:
142,163,63041,1,8,0:0:0:0:
309,291,63150,1,2,1:2:0:0:
309,291,63369,1,2,1:2:0:0:
195,304,63479,1,10,0:0:0:0:
309,291,63698,1,4,1:2:0:0:
485,362,63917,1,8,0:0:0:0:
309,291,64136,1,2,1:2:0:0:
309,291,64245,1,0,1:2:0:0:
144,139,64355,1,10,0:0:0:0:
309,291,64464,1,0,1:2:0:0:
309,291,64574,1,2,1:2:0:0:
144,324,64793,1,10,0:0:0:0:
309,291,64902,1,0,1:2:0:0:
309,291,65012,1,2,1:2:0:0:
309,291,65121,1,0,1:2:0:0:
406,159,65231,1,10,0:0:0:0:
309,291,65450,1,6,1:2:0:0:
108,130,65669,1,8,0:0:0:0:
309,291,65778,1,2,1:2:0:0:
309,291,65888,1,2,1:2:0:0:
309,291,65997,1,0,1:2:0:0:
296,299,66107,1,10,0:0:0:0:
309,291,66325,1,0,1:2:0:0:
309,291,66435,1,0,1:2:0:0:
397,360,66544,1,10,0:0:0:0:
309,291,66654,1,0,1:2:0:0:
309,291,66763,1,2,1:2:0:0:
309,291,66873,1,0,1:2:0:0:
175,123,66982,1,10,0:0:0:0:
309,291,67201,5,6,1:2:0:0:
122,332,67420,1,10,0:0:0:0:
309,291,67530,1,0,1:2:0:0:
309,291,67749,1,0,1:2:0:0:
412,220,67858,1,10,0:0:0:0:
309,291,68077,1,2,1:2:0:0:
309,291,68187,1,0,1:2:0:0:
143,136,68296,1,10,0:0:0:0:
309,291,68515,1,2,1:2:0:0:
309,291,68625,1,2,1:2:0:0:
415,337,68734,1,8,0:0:0:0:
309,291,68844,1,2,1:2:0:0:
309,291,68953,1,6,1:2:0:0:
177,335,69172,1,10,0:0:0:0:
309,291,69282,1,0,1:2:0:0:
309,291,69501,1,0,1:2:0:0:
399,166,69610,1,10,0:0:0:0:
309,291,69720,1,0,1:2:0:0:
340,315,69829,1,10,1:2:0:0:
340,315,70048,1,10,1:2:0:0:
350,320,70267,1,10,1:2:0:0:
309,291,70486,1,6,1:2:0:0:
309,291,70814,1,0,1:2:0:0:
218,322,70923,1,10,0:0:0:0:
309,291,71142,1,2,1:2:0:0:
111,212,71361,1,10,0:0:0:0:
309,291,71471,1,0,1:2:0:0:
309,291,71580,1,2,1:2:0:0:
335,296,71799,1,8,0:0:0:0:
309,291,71909,1,0,1:2:0:0:
309,291,72018,1,2,1:2:0:0:
309,291,72128,1,0,1:2:0:0:
169,280,72237,1,10,0:0:0:0:
309,291,72456,1,2,1:2:0:0:
309,291,72566,1,0,1:2:0:0:
169,280,72675,1,14,0:0:0:0:
309,291,72894,1,0,1:2:0:0:
309,291,73004,1,0,1:2:0:0:
159,280,73113,1,14,0:0:0:0:
257,160,73332,5,6,1:2:0:0:
111,146,73551,1,10,0:0:0:0:
111,146,73661,1,8,0:0:0:0:
309,291,73770,1,2,1:2:0:0:
309,291,73880,1,0,1:2:0:0:
309,291,73989,1,2,1:2:0:0:
309,291,74099,1,0,1:2:0:0:
309,291,74208,5,6,1:2:0:0:
309,291,74318,1,2,1:2:0:0:
255,147,74427,1,8,0:0:0:0:
309,291,74537,1,6,1:2:0:0:
309,291,74756,1,2,1:2:0:0:
251,146,74865,1,10,0:0:0:0:
309,291,75084,1,6,1:2:0:0:
309,291,75194,1,2,1:2:0:0:
251,146,75303,1,8,0:0:0:0:
309,291,75413,1,6,1:2:0:0:
309,291,75632,1,2,1:2:0:0:
251,146,75741,1,8,0:0:0:0:
309,291,75960,1,2,1:2:0:0:
309,291,76179,1,2,1:2:0:0:
309,291,76398,1,2,1:2:0:0:
309,291,76617,1,2,1:2:0:0:
309,291,76836,1,2,1:2:0:0:
309,291,77055,1,2,1:2:0:0:
264,7,77274,5,2,1:2:0:0:
0,28,77329,1,2,1:2:0:0:
512,384,77383,1,2,1:2:0:0:
414,206,77438,1,2,1:2:0:0:
0,384,77493,1,10,0:0:0:0:
0,22,77548,1,10,0:0:0:0:
297,384,77602,1,10,0:0:0:0:
502,24,77657,1,10,0:0:0:0:
309,291,77712,5,6,1:2:0:0:
309,291,77821,1,2,1:2:0:0:
251,146,77931,1,8,0:0:0:0:
309,291,78040,1,6,1:2:0:0:
309,291,78259,1,0,1:2:0:0:
251,146,78369,1,8,0:0:0:0:
309,291,78588,1,4,1:2:0:0:
309,291,78697,1,0,1:2:0:0:
251,146,78807,1,8,0:0:0:0:
309,291,78916,1,4,1:2:0:0:
309,291,79135,1,2,1:2:0:0:
251,146,79245,1,8,0:0:0:0:
309,291,79464,1,2,1:2:0:0:
309,291,79683,1,2,1:2:0:0:
309,291,79902,1,2,1:2:0:0:
309,291,80121,1,2,1:2:0:0:
309,291,80340,1,6,1:2:0:0:
251,146,80559,1,10,0:0:0:0:
309,291,80668,1,4,1:2:0:0:
262,118,80887,1,0,1:2:0:0:
309,291,80996,1,14,1:2:0:0:
309,291,81215,1,14,1:2:0:0:
147,193,82748,5,10,1:2:0:0:
309,291,82967,1,10,1:2:0:0:
147,193,84500,5,10,1:2:0:0:
309,291,84719,1,10,1:2:0:0:
147,193,86252,5,10,1:2:0:0:
309,291,86471,1,10,1:2:0:0:
195,304,86799,1,2,0:0:0:0:
216,183,87237,1,2,0:0:0:0:
