osu file format v14

[General]
AudioFilename: audio.mp3
AudioLeadIn: 0
PreviewTime: -1
Countdown: 1
SampleSet: Soft
StackLeniency: 0.7
Mode: 0
LetterboxInBreaks: 0
WidescreenStoryboard: 0

[Editor]
DistanceSpacing: 0.8
BeatDivisor: 4
GridSize: 8
TimelineZoom: 1

[Metadata]
Title:SSBM Menu 2
TitleUnicode:SSBM Menu 2
Artist:Tadashi Ikegami, Shogo Sakai, Takuto Kitsuta
ArtistUnicode:Tadashi Ikegami, Shogo Sakai, Takuto Kitsuta
Creator:Rucker
Version:1
Source:
Tags:
BeatmapID:1010039
BeatmapSetID:472728

[Difficulty]
HPDrainRate:8
CircleSize:4
OverallDifficulty:9
ApproachRate:9.2
SliderMultiplier:2
SliderTickRate:1

[Events]
//Background and Video events
0,0,"ninten00.jpg",0,0
//Break Periods
//Storyboard Layer 0 (Background)
//Storyboard Layer 1 (Fail)
//Storyboard Layer 2 (Pass)
//Storyboard Layer 3 (Foreground)
//Storyboard Sound Samples

[TimingPoints]
808,288.156757275958,4,2,0,99,1,0
27318,-66.6666666666667,4,2,0,99,0,0
29623,-100,4,2,0,99,0,0
82644,-66.6666666666667,4,2,0,99,0,0
84949,-100,4,2,0,99,0,0

[HitObjects]
40,88,808,5,0,0:0:0:0:
488,224,1096,1,0,0:0:0:0:
104,304,1384,2,0,L|136:160,1,100
328,48,1672,1,0,0:0:0:0:
240,352,1816,1,0,0:0:0:0:
480,216,1960,6,0,P|440:144|384:120,1,100
96,80,2248,1,0,0:0:0:0:
376,168,2392,1,0,0:0:0:0:
112,240,2536,2,0,B|192:240|192:240|240:272,1,100
432,320,2825,1,0,0:0:0:0:
368,72,2969,1,0,0:0:0:0:
480,152,3113,5,0,0:0:0:0:
256,32,3257,1,0,0:0:0:0:
400,240,3401,1,0,0:0:0:0:
176,112,3545,1,0,0:0:0:0:
320,336,3689,1,0,0:0:0:0:
104,192,3833,1,0,0:0:0:0:
48,352,3977,1,0,0:0:0:0:
280,64,4121,1,0,0:0:0:0:
232,352,4265,6,0,L|168:240,1,100
400,160,4554,1,0,0:0:0:0:
160,64,4698,1,0,0:0:0:0:
368,360,4842,2,0,B|416:312|416:312|384:240,1,100
344,56,5130,1,0,0:0:0:0:
72,208,5274,1,0,0:0:0:0:
64,88,5418,5,0,0:0:0:0:
136,248,5562,1,0,0:0:0:0:
168,64,5706,1,0,0:0:0:0:
248,224,5850,1,0,0:0:0:0:
272,40,5994,1,0,0:0:0:0:
360,208,6138,1,0,0:0:0:0:
368,16,6282,1,0,0:0:0:0:
480,208,6427,1,0,0:0:0:0:
104,336,6571,6,0,P|192:328|200:288,1,100
176,56,6859,1,0,0:0:0:0:
352,336,7003,2,0,P|376:272|336:216,1,100
48,160,7291,1,0,0:0:0:0:
56,352,7435,6,0,L|392:304,1,300
304,40,8011,1,0,0:0:0:0:
272,296,8155,1,0,0:0:0:0:
480,96,8300,1,0,0:0:0:0:
152,128,8444,1,0,0:0:0:0:
448,288,8588,1,0,0:0:0:0:
368,32,8732,1,0,0:0:0:0:
256,288,8876,2,0,B|136:312|136:312|88:240,1,200
104,88,9308,5,0,0:0:0:0:
328,144,9452,1,0,0:0:0:0:
120,224,9596,1,0,0:0:0:0:
264,40,9740,1,0,0:0:0:0:
240,256,9884,1,0,0:0:0:0:
168,64,10029,1,0,0:0:0:0:
360,248,10173,1,0,0:0:0:0:
400,40,10317,1,0,0:0:0:0:
224,224,10461,1,0,0:0:0:0:
464,216,10605,1,0,0:0:0:0:
256,328,10749,5,0,0:0:0:0:
312,120,10893,1,0,0:0:0:0:
152,320,11037,1,0,0:0:0:0:
408,184,11181,1,0,0:0:0:0:
128,152,11325,1,0,0:0:0:0:
368,96,11469,1,0,0:0:0:0:
192,296,11613,1,0,0:0:0:0:
96,96,11757,1,0,0:0:0:0:
264,272,11902,1,0,0:0:0:0:
184,56,12046,1,0,0:0:0:0:
360,128,12190,1,0,0:0:0:0:
144,256,12334,5,0,0:0:0:0:
64,64,12478,1,0,0:0:0:0:
40,264,12622,1,0,0:0:0:0:
144,64,12766,1,0,0:0:0:0:
152,320,12910,1,0,0:0:0:0:
80,120,13054,1,0,0:0:0:0:
328,200,13198,1,0,0:0:0:0:
88,200,13342,1,0,0:0:0:0:
288,64,13486,6,0,B|296:128|296:128|376:112,1,100
192,312,13775,1,0,0:0:0:0:
424,240,13919,1,0,0:0:0:0:
136,144,14063,1,0,0:0:0:0:
376,320,14207,1,0,0:0:0:0:
296,80,14351,1,0,0:0:0:0:
240,304,14495,1,0,0:0:0:0:
440,104,14639,6,0,B|368:144|368:144|312:128,1,100
96,48,14927,1,0,0:0:0:0:
160,248,15071,1,0,0:0:0:0:
232,64,15215,1,0,0:0:0:0:
32,184,15359,1,0,0:0:0:0:
272,200,15503,1,0,0:0:0:0:
56,104,15648,1,0,0:0:0:0:
120,304,15792,6,0,B|176:240|176:240|224:272,1,100
336,328,16080,1,0,0:0:0:0:
416,144,16224,1,0,0:0:0:0:
248,160,16368,1,0,0:0:0:0:
424,296,16512,1,0,0:0:0:0:
344,96,16656,1,0,0:0:0:0:
248,280,16800,1,0,0:0:0:0:
456,192,16944,6,0,B|384:152|384:152|408:112,1,100
272,40,17232,1,0,0:0:0:0:
64,40,17377,1,0,0:0:0:0:
184,144,17521,1,0,0:0:0:0:
400,112,17665,1,0,0:0:0:0:
224,240,17809,1,0,0:0:0:0:
336,80,17953,1,0,0:0:0:0:
416,272,18097,2,0,B|336:288|336:288|336:328,1,100
120,328,18385,5,0,0:0:0:0:
120,328,18457,1,0,0:0:0:0:
120,328,18529,1,0,0:0:0:0:
48,128,18673,1,0,0:0:0:0:
168,232,18817,1,0,0:0:0:0:
232,40,18961,1,0,0:0:0:0:
248,256,19105,1,0,0:0:0:0:
352,32,19250,6,0,B|408:64|408:64|384:104,1,100
320,320,19538,1,0,0:0:0:0:
472,256,19682,1,0,0:0:0:0:
200,176,19826,1,0,0:0:0:0:
392,296,19970,1,0,0:0:0:0:
104,272,20114,1,0,0:0:0:0:
288,344,20258,1,0,0:0:0:0:
8,88,20402,5,0,0:0:0:0:
16,256,20546,1,0,0:0:0:0:
88,32,20690,1,0,0:0:0:0:
96,192,20834,1,0,0:0:0:0:
144,72,20978,1,0,0:0:0:0:
144,280,21123,1,0,0:0:0:0:
224,48,21267,1,0,0:0:0:0:
224,256,21411,1,0,0:0:0:0:
304,88,21555,1,0,0:0:0:0:
304,328,21699,1,0,0:0:0:0:
360,16,21843,1,0,0:0:0:0:
360,296,21987,1,0,0:0:0:0:
416,64,22131,1,0,0:0:0:0:
424,328,22275,1,0,0:0:0:0:
464,96,22419,1,0,0:0:0:0:
464,264,22563,1,0,0:0:0:0:
256,48,22707,6,0,B|272:128|272:128|320:160,1,100
360,328,22996,1,0,0:0:0:0:
232,168,23140,1,0,0:0:0:0:
432,240,23284,1,0,0:0:0:0:
232,296,23428,1,0,0:0:0:0:
360,104,23572,1,0,0:0:0:0:
424,336,23716,1,0,0:0:0:0:
80,56,23860,6,0,P|120:104|192:96,1,100
368,200,24148,1,0,0:0:0:0:
40,296,24292,2,0,P|104:288|128:240,1,100
416,96,24580,1,0,0:0:0:0:
280,344,24725,2,0,P|272:272|216:232,1,100
168,48,25013,5,0,0:0:0:0:
88,224,25157,1,0,0:0:0:0:
296,192,25301,1,0,0:0:0:0:
168,320,25445,1,0,0:0:0:0:
288,120,25589,1,0,0:0:0:0:
304,320,25733,1,0,0:0:0:0:
168,128,25877,1,0,0:0:0:0:
424,232,26021,1,0,0:0:0:0:
56,200,26165,6,0,P|128:184|176:224,1,100
344,344,26453,1,0,0:0:0:0:
208,24,26598,2,0,P|240:88|208:152,1,100
216,312,26886,1,0,0:0:0:0:
472,72,27030,2,0,P|432:152|392:160,1,100
0,0,27318,6,0,L|304:0,1,300.000011444092
104,192,27750,6,0,L|408:192,1,300.000011444092
208,376,28182,6,0,L|512:376,1,300.000011444092
344,32,28615,1,0,0:0:0:0:
240,272,28759,1,0,0:0:0:0:
448,192,28903,1,0,0:0:0:0:
96,56,29047,1,0,0:0:0:0:
416,328,29191,1,0,0:0:0:0:
48,336,29335,1,0,0:0:0:0:
232,32,29479,1,0,0:0:0:0:
488,312,29623,2,0,B|440:256|440:256|480:216,1,100
424,104,29911,5,0,0:0:0:0:
320,216,30055,1,0,0:0:0:0:
288,96,30199,1,0,0:0:0:0:
392,192,30344,1,0,0:0:0:0:
280,160,30488,1,0,0:0:0:0:
352,72,30632,1,0,0:0:0:0:
48,328,30920,5,0,0:0:0:0:
96,232,31064,1,0,0:0:0:0:
200,208,31208,1,0,0:0:0:0:
200,208,31496,1,0,0:0:0:0:
200,208,31784,1,0,0:0:0:0:
304,104,31928,5,0,0:0:0:0:
296,264,32073,1,0,0:0:0:0:
232,112,32217,1,0,0:0:0:0:
368,200,32361,1,0,0:0:0:0:
352,64,32505,1,0,0:0:0:0:
256,200,32649,1,0,0:0:0:0:
432,144,32793,1,0,0:0:0:0:
392,304,32937,1,0,0:0:0:0:
240,352,33081,1,0,0:0:0:0:
200,208,33225,1,0,0:0:0:0:
320,312,33369,1,0,0:0:0:0:
160,312,33513,1,0,0:0:0:0:
160,312,33801,1,0,0:0:0:0:
72,136,34234,5,0,0:0:0:0:
184,56,34378,1,0,0:0:0:0:
160,192,34522,1,0,0:0:0:0:
288,104,34666,1,0,0:0:0:0:
272,232,34810,1,0,0:0:0:0:
208,88,34954,1,0,0:0:0:0:
352,176,35098,1,0,0:0:0:0:
240,280,35242,1,0,0:0:0:0:
392,256,35386,5,0,0:0:0:0:
288,352,35530,1,0,0:0:0:0:
256,224,35674,1,0,0:0:0:0:
400,192,35819,1,0,0:0:0:0:
312,104,35963,1,0,0:0:0:0:
464,160,36107,1,0,0:0:0:0:
360,264,36251,1,0,0:0:0:0:
424,48,36395,1,0,0:0:0:0:
280,136,36539,1,0,0:0:0:0:
88,72,36683,5,0,0:0:0:0:
88,72,36971,1,0,0:0:0:0:
88,72,37259,1,0,0:0:0:0:
64,184,37403,5,0,0:0:0:0:
160,112,37547,1,0,0:0:0:0:
128,256,37692,1,0,0:0:0:0:
72,136,37836,1,0,0:0:0:0:
80,296,37980,1,0,0:0:0:0:
168,160,38124,1,0,0:0:0:0:
128,320,38268,1,0,0:0:0:0:
216,200,38412,1,0,0:0:0:0:
216,344,38556,1,0,0:0:0:0:
144,208,38700,1,0,0:0:0:0:
136,352,38844,1,0,0:0:0:0:
56,192,38988,5,0,0:0:0:0:
104,128,39132,1,0,0:0:0:0:
152,64,39276,1,0,0:0:0:0:
448,88,39709,1,0,0:0:0:0:
448,88,39853,1,0,0:0:0:0:
408,160,39997,1,0,0:0:0:0:
376,232,40141,1,0,0:0:0:0:
160,344,40429,5,0,0:0:0:0:
160,344,40717,1,0,0:0:0:0:
160,344,40861,1,0,0:0:0:0:
112,280,41005,1,0,0:0:0:0:
64,216,41149,1,0,0:0:0:0:
128,168,41294,1,0,0:0:0:0:
200,128,41438,1,0,0:0:0:0:
200,128,41582,1,0,0:0:0:0:
384,328,42014,5,0,0:0:0:0:
384,328,42158,1,0,0:0:0:0:
448,272,42302,1,0,0:0:0:0:
448,272,42446,1,0,0:0:0:0:
440,112,42734,5,0,0:0:0:0:
440,112,43022,1,0,0:0:0:0:
368,80,43167,1,0,0:0:0:0:
296,112,43311,1,0,0:0:0:0:
224,80,43455,1,0,0:0:0:0:
224,80,43599,1,0,0:0:0:0:
168,136,43743,1,0,0:0:0:0:
112,192,43887,1,0,0:0:0:0:
256,352,44319,5,0,0:0:0:0:
288,280,44463,1,0,0:0:0:0:
256,352,44607,1,0,0:0:0:0:
288,280,44751,1,0,0:0:0:0:
440,192,45040,1,0,0:0:0:0:
472,264,45184,5,0,0:0:0:0:
440,192,45328,1,0,0:0:0:0:
400,120,45472,1,0,0:0:0:0:
328,80,45616,1,0,0:0:0:0:
256,48,45760,1,0,0:0:0:0:
216,120,45904,1,0,0:0:0:0:
256,48,46048,1,0,0:0:0:0:
216,120,46192,1,0,0:0:0:0:
32,240,46624,5,0,0:0:0:0:
72,312,46769,1,0,0:0:0:0:
144,280,46913,1,0,0:0:0:0:
192,344,47057,1,0,0:0:0:0:
192,344,47345,1,0,0:0:0:0:
192,344,47633,1,0,0:0:0:0:
256,296,47777,1,0,0:0:0:0:
256,296,47849,1,0,0:0:0:0:
256,296,47921,1,0,0:0:0:0:
320,344,48065,5,0,0:0:0:0:
368,280,48209,1,0,0:0:0:0:
440,312,48353,1,0,0:0:0:0:
480,240,48498,1,0,0:0:0:0:
368,48,48930,5,0,0:0:0:0:
368,48,49074,1,0,0:0:0:0:
288,72,49218,1,0,0:0:0:0:
288,72,49362,1,0,0:0:0:0:
48,152,49650,1,0,0:0:0:0:
48,152,49794,5,0,0:0:0:0:
80,224,49938,1,0,0:0:0:0:
152,192,50082,1,0,0:0:0:0:
224,160,50226,1,0,0:0:0:0:
272,224,50370,1,0,0:0:0:0:
352,240,50515,1,0,0:0:0:0:
272,264,50659,1,0,0:0:0:0:
352,280,50803,1,0,0:0:0:0:
40,336,51235,5,0,0:0:0:0:
72,264,51379,1,0,0:0:0:0:
40,336,51523,1,0,0:0:0:0:
72,264,51667,1,0,0:0:0:0:
72,104,51955,1,0,0:0:0:0:
328,120,52388,5,0,0:0:0:0:
408,112,52532,1,0,0:0:0:0:
456,48,52676,1,0,0:0:0:0:
456,48,52820,1,0,0:0:0:0:
376,48,52964,1,0,0:0:0:0:
376,48,53108,1,0,0:0:0:0:
376,304,53540,5,0,0:0:0:0:
304,264,53684,1,0,0:0:0:0:
376,304,53828,1,0,0:0:0:0:
304,264,53973,1,0,0:0:0:0:
304,264,54261,1,0,0:0:0:0:
240,312,54405,1,0,0:0:0:0:
160,304,54549,1,0,0:0:0:0:
96,248,54693,1,0,0:0:0:0:
72,176,54837,1,0,0:0:0:0:
96,96,54981,5,0,0:0:0:0:
152,152,55125,1,0,0:0:0:0:
152,152,55269,1,0,0:0:0:0:
176,72,55413,1,0,0:0:0:0:
232,128,55557,1,0,0:0:0:0:
232,128,55701,1,0,0:0:0:0:
248,48,55845,1,0,0:0:0:0:
312,96,55990,1,0,0:0:0:0:
312,96,56134,5,0,0:0:0:0:
360,32,56278,1,0,0:0:0:0:
376,136,56422,1,0,0:0:0:0:
456,80,56566,1,0,0:0:0:0:
392,272,56710,1,0,0:0:0:0:
456,184,56854,1,0,0:0:0:0:
280,320,56998,1,0,0:0:0:0:
464,344,57142,1,0,0:0:0:0:
32,167,57286,6,0,P|71:239|128:264,1,100
416,304,57574,1,0,0:0:0:0:
136,216,57718,1,0,0:0:0:0:
400,144,57862,2,0,B|320:144|320:144|272:112,1,100
80,64,58151,1,0,0:0:0:0:
144,312,58295,1,0,0:0:0:0:
32,231,58439,5,0,0:0:0:0:
256,352,58583,1,0,0:0:0:0:
112,144,58727,1,0,0:0:0:0:
336,271,58871,1,0,0:0:0:0:
192,48,59015,1,0,0:0:0:0:
408,192,59159,1,0,0:0:0:0:
464,32,59303,1,0,0:0:0:0:
232,320,59447,1,0,0:0:0:0:
280,32,59591,6,0,L|344:144,1,100
112,224,59880,1,0,0:0:0:0:
352,320,60024,1,0,0:0:0:0:
144,24,60168,2,0,B|96:72|96:72|128:144,1,100
168,328,60456,1,0,0:0:0:0:
440,175,60600,1,0,0:0:0:0:
448,296,60744,5,0,0:0:0:0:
376,136,60888,1,0,0:0:0:0:
344,319,61032,1,0,0:0:0:0:
264,160,61176,1,0,0:0:0:0:
240,343,61320,1,0,0:0:0:0:
152,175,61464,1,0,0:0:0:0:
144,367,61608,1,0,0:0:0:0:
32,176,61753,1,0,0:0:0:0:
408,48,61897,6,0,P|320:56|312:96,1,100
336,328,62185,1,0,0:0:0:0:
160,48,62329,2,0,P|136:112|176:168,1,100
464,224,62617,1,0,0:0:0:0:
456,32,62761,6,0,L|120:80,1,300
208,344,63337,1,0,0:0:0:0:
240,88,63481,1,0,0:0:0:0:
32,288,63626,1,0,0:0:0:0:
360,256,63770,1,0,0:0:0:0:
64,96,63914,1,0,0:0:0:0:
143,351,64058,1,0,0:0:0:0:
256,96,64202,2,0,B|376:72|376:72|424:144,1,200
408,296,64634,5,0,0:0:0:0:
184,240,64778,1,0,0:0:0:0:
392,160,64922,1,0,0:0:0:0:
248,344,65066,1,0,0:0:0:0:
272,128,65210,1,0,0:0:0:0:
344,319,65355,1,0,0:0:0:0:
152,136,65499,1,0,0:0:0:0:
112,344,65643,1,0,0:0:0:0:
288,159,65787,1,0,0:0:0:0:
48,167,65931,1,0,0:0:0:0:
256,56,66075,5,0,0:0:0:0:
200,264,66219,1,0,0:0:0:0:
360,64,66363,1,0,0:0:0:0:
104,200,66507,1,0,0:0:0:0:
384,232,66651,1,0,0:0:0:0:
144,288,66795,1,0,0:0:0:0:
320,88,66939,1,0,0:0:0:0:
416,288,67083,1,0,0:0:0:0:
248,112,67228,1,0,0:0:0:0:
328,328,67372,1,0,0:0:0:0:
152,256,67516,1,0,0:0:0:0:
368,128,67660,5,0,0:0:0:0:
448,319,67804,1,0,0:0:0:0:
472,120,67948,1,0,0:0:0:0:
368,320,68092,1,0,0:0:0:0:
360,64,68236,1,0,0:0:0:0:
432,264,68380,1,0,0:0:0:0:
184,184,68524,1,0,0:0:0:0:
423,184,68668,1,0,0:0:0:0:
224,320,68812,6,0,B|216:256|216:256|136:272,1,100
319,72,69101,1,0,0:0:0:0:
88,144,69245,1,0,0:0:0:0:
376,240,69389,1,0,0:0:0:0:
136,64,69533,1,0,0:0:0:0:
216,303,69677,1,0,0:0:0:0:
272,80,69821,1,0,0:0:0:0:
72,280,69965,6,0,B|144:240|144:240|200:255,1,100
416,336,70253,1,0,0:0:0:0:
352,136,70397,1,0,0:0:0:0:
280,320,70541,1,0,0:0:0:0:
479,200,70685,1,0,0:0:0:0:
240,184,70829,1,0,0:0:0:0:
455,280,70974,1,0,0:0:0:0:
392,80,71118,6,0,B|336:144|336:144|288:112,1,100
176,56,71406,1,0,0:0:0:0:
96,239,71550,1,0,0:0:0:0:
264,224,71694,1,0,0:0:0:0:
88,88,71838,1,0,0:0:0:0:
168,288,71982,1,0,0:0:0:0:
264,104,72126,1,0,0:0:0:0:
56,192,72270,6,0,B|128:232|128:232|104:272,1,100
240,343,72558,1,0,0:0:0:0:
448,344,72703,1,0,0:0:0:0:
328,240,72847,1,0,0:0:0:0:
112,272,72991,1,0,0:0:0:0:
288,144,73135,1,0,0:0:0:0:
176,304,73279,1,0,0:0:0:0:
96,111,73423,2,0,B|176:96|176:96|176:56,1,100
392,56,73711,5,0,0:0:0:0:
392,56,73783,1,0,0:0:0:0:
392,56,73855,1,0,0:0:0:0:
464,255,73999,1,0,0:0:0:0:
344,152,74143,1,0,0:0:0:0:
280,344,74287,1,0,0:0:0:0:
264,128,74431,1,0,0:0:0:0:
160,352,74576,6,0,B|104:320|104:320|128:279,1,100
192,64,74864,1,0,0:0:0:0:
40,128,75008,1,0,0:0:0:0:
312,208,75152,1,0,0:0:0:0:
120,88,75296,1,0,0:0:0:0:
407,112,75440,1,0,0:0:0:0:
224,40,75584,1,0,0:0:0:0:
503,296,75728,5,0,0:0:0:0:
496,128,75872,1,0,0:0:0:0:
424,351,76016,1,0,0:0:0:0:
416,192,76160,1,0,0:0:0:0:
368,312,76304,1,0,0:0:0:0:
368,104,76449,1,0,0:0:0:0:
288,335,76593,1,0,0:0:0:0:
288,128,76737,1,0,0:0:0:0:
208,296,76881,1,0,0:0:0:0:
208,56,77025,1,0,0:0:0:0:
152,367,77169,1,0,0:0:0:0:
152,88,77313,1,0,0:0:0:0:
96,320,77457,1,0,0:0:0:0:
88,56,77601,1,0,0:0:0:0:
48,288,77745,1,0,0:0:0:0:
48,120,77889,1,0,0:0:0:0:
256,336,78033,6,0,B|240:256|240:256|192:224,1,100
152,56,78322,1,0,0:0:0:0:
280,216,78466,1,0,0:0:0:0:
80,144,78610,1,0,0:0:0:0:
280,88,78754,1,0,0:0:0:0:
152,279,78898,1,0,0:0:0:0:
88,47,79042,1,0,0:0:0:0:
432,327,79186,6,0,P|392:280|320:288,1,100
144,184,79474,1,0,0:0:0:0:
472,88,79618,2,0,P|408:96|384:144,1,100
96,288,79906,1,0,0:0:0:0:
232,40,80051,2,0,P|240:112|296:152,1,100
344,335,80339,5,0,0:0:0:0:
424,160,80483,1,0,0:0:0:0:
216,192,80627,1,0,0:0:0:0:
344,64,80771,1,0,0:0:0:0:
224,264,80915,1,0,0:0:0:0:
208,64,81059,1,0,0:0:0:0:
344,256,81203,1,0,0:0:0:0:
88,151,81347,1,0,0:0:0:0:
455,184,81491,6,0,P|384:199|336:160,1,100
168,40,81779,1,0,0:0:0:0:
303,360,81924,2,0,P|272:296|304:232,1,100
296,72,82212,1,0,0:0:0:0:
40,312,82356,2,0,P|80:231|120:224,1,100
512,384,82644,6,0,L|208:384,1,300.000011444092
408,192,83076,6,0,L|104:192,1,300.000011444092
303,8,83508,6,0,L|0:8,1,300.000011444092
168,352,83941,1,0,0:0:0:0:
272,112,84085,1,0,0:0:0:0:
64,192,84229,1,0,0:0:0:0:
416,328,84373,1,0,0:0:0:0:
96,56,84517,1,0,0:0:0:0:
464,48,84661,1,0,0:0:0:0:
279,352,84805,1,0,0:0:0:0:
24,72,84949,1,0,0:0:0:0:
