osu file format v14

[General]
AudioFilename: Charlotte.mp3
AudioLeadIn: 0
PreviewTime: 43974
Countdown: 0
SampleSet: Soft
StackLeniency: 0.7
Mode: 0
LetterboxInBreaks: 1
WidescreenStoryboard: 1

[Editor]
DistanceSpacing: 1.1
BeatDivisor: 4
GridSize: 4
TimelineZoom: 1

[Metadata]
Title:Yakeochinai Tsubasa (TV Size)
TitleUnicode:灼け落ちない翼 (TV Size)
Artist:Tada Aoi
ArtistUnicode:多田葵
Creator:FairyAccel
Version:Normal
Source:Charlotte
Tags:charlotte シャーロット ending strategas kyle y
BeatmapID:790549
BeatmapSetID:354153

[Difficulty]
HPDrainRate:4
CircleSize:3
OverallDifficulty:4
ApproachRate:4
SliderMultiplier:1
SliderTickRate:1

[Events]
//Background and Video events
Video,-60,"Video.avi"
0,0,"BG.jpg",0,0
//Break Periods
//Storyboard Layer 0 (Background)
//Storyboard Layer 1 (Fail)
//Storyboard Layer 2 (Pass)
//Storyboard Layer 3 (Foreground)
//Storyboard Sound Samples

[TimingPoints]
590,461.538461538462,4,2,1,70,1,0
15359,-100,4,2,2,70,0,0
41090,-100,4,2,1,60,0,0
41320,-100,4,2,2,70,0,0
44897,-100,4,2,2,70,0,1
87359,-100,4,2,2,70,0,0
89205,-100,4,2,2,5,0,0

[Colours]
Combo1 : 210,210,210
Combo2 : 148,40,255
Combo3 : 251,64,78
Combo4 : 0,198,99
Combo5 : 255,169,83

[HitObjects]
40,68,590,6,0,L|36:140,1,50,2|2,0:0|0:0,0:0:0:0:
48,172,1051,2,0,L|248:132,1,200,0|2,0:0|0:0,0:0:0:0:
332,68,2436,2,0,L|400:72,1,50,2|2,0:0|0:0,0:0:0:0:
436,84,2897,2,0,P|464:176|408:284,1,200,0|2,0:0|0:0,0:0:0:0:
316,252,4282,6,0,L|168:280,2,150,2|0|2,0:0|0:0|0:0,0:0:0:0:
396,176,6128,2,0,L|388:116,1,50,2|2,0:0|0:0,0:0:0:0:
360,80,6590,2,0,B|264:56|264:56|160:84,1,200,0|2,0:0|0:0,0:0:0:0:
108,176,7974,6,0,P|108:236|120:276,1,100,4|0,0:0|0:0,0:0:0:0:
228,284,8897,2,0,P|229:235|216:186,1,100,2|0,0:0|0:0,0:0:0:0:
140,104,9820,1,4,0:0:0:0:
248,76,10282,2,0,B|296:92|320:144|320:144|432:144,1,200,2|2,0:0|0:0,0:0:0:0:
448,248,11666,6,0,L|344:248,1,100,6|0,0:0|0:0,0:0:0:0:
264,176,12590,1,2,0:0:0:0:
180,244,13051,1,2,0:0:0:0:
120,336,13513,2,0,L|52:336,1,50,4|0,0:0|0:0,0:0:0:0:
28,300,13974,2,0,P|16:244|24:196,1,100,2|0,0:0|0:0,0:0:0:0:
64,164,14666,2,0,L|152:160,2,75,2|2|0,0:0|0:0|0:0,0:0:0:0:
28,60,15820,6,0,L|140:56,1,100,2|0,0:0|0:0,0:0:0:0:
236,32,16743,1,2,0:0:0:0:
284,60,16974,2,0,P|304:132|276:216,1,150,0|2,0:0|0:0,0:0:0:0:
200,272,18128,2,0,P|140:284|92:272,1,100,0|2,0:0|0:0,0:0:0:0:
60,240,18820,1,0,0:0:0:0:
32,192,19051,5,0,0:0:0:0:
88,96,19513,2,0,L|80:24,2,50,2|0|0,0:0|0:0|0:0,0:0:0:0:
156,184,20436,1,2,0:0:0:0:
196,220,20666,2,0,P|244:244|308:236,1,100
344,240,21359,1,2,0:0:0:0:
376,196,21590,2,0,P|392:124|380:80,1,100
352,56,22282,1,2,0:0:0:0:
256,108,22743,6,0,L|140:92,2,100,0|2|0,0:0|0:0|0:0,0:0:0:0:
352,56,24128,1,2,0:0:0:0:
392,100,24359,2,0,B|388:220,1,100
408,252,25051,1,2,0:0:0:0:
372,296,25282,2,0,P|312:308|252:300,1,100
224,280,25974,1,2,0:0:0:0:
128,332,26436,6,0,P|68:340|12:324,1,100,0|2,0:0|0:0,0:0:0:0:
0,284,27128,2,0,P|-8:220|8:168,1,100
28,140,27820,1,2,0:0:0:0:
88,48,28282,2,0,B|136:36|136:36|200:52,1,100,0|2,0:0|0:0,0:0:0:0:
236,72,28974,1,0,0:0:0:0:
276,108,29205,2,0,L|276:196,2,75
320,72,30128,5,2,0:0:0:0:
416,124,30590,2,0,P|424:180|412:228,1,100,0|2,0:0|0:0,0:0:0:0:
388,272,31282,2,0,L|352:328,1,50
312,340,31743,2,0,P|256:328|196:340,1,100
124,268,32666,2,0,P|74:273|26:261,2,100,2|0|0,0:0|0:0|0:0,0:0:0:0:
168,236,33820,5,2,0:0:0:0:
224,140,34282,1,0,0:0:0:0:
276,156,34512,1,2,0:0:0:0:
328,136,34743,1,2,0:0:0:0:
380,116,34974,2,0,L|448:112,1,50
480,136,35436,2,0,P|495:182|488:231,1,100
392,284,36359,2,0,P|436:328|488:340,2,100,2|0|0,0:0|0:0|0:0,0:0:0:0:
364,236,37513,5,2,0:0:0:0:
264,280,37974,2,0,L|152:292,1,100,0|2,0:0|0:0,0:0:0:0:
120,324,38666,1,0,0:0:0:0:
76,292,38897,1,0,0:0:0:0:
84,236,39128,2,0,P|96:184|88:120,1,100
200,160,40051,2,0,P|197:110|208:61,2,100,2|0|0,0:0|0:0|0:0,0:0:0:0:
224,208,41205,5,4,0:0:0:0:
256,192,41436,12,0,43051,0:0:0:0:
20,292,43974,5,2,0:0:0:0:
108,224,44436,1,8,0:0:0:0:
176,308,44897,6,0,P|236:324|284:316,1,100,4|8,0:0|0:0,0:0:0:0:
368,268,45820,2,0,L|440:280,2,50,2|0|8,0:0|0:0|0:0,0:0:0:0:
328,228,46513,2,0,P|324:172|352:112,1,100
376,88,47205,1,8,0:0:0:0:
284,32,47666,2,0,L|168:36,1,100,2|8,0:0|0:0,0:0:0:0:
84,84,48590,6,0,P|72:136|92:196,1,100,2|8,0:0|0:0,0:0:0:0:
116,224,49282,2,0,P|156:240|228:232,1,100
268,228,49974,1,8,0:0:0:0:
268,228,50205,2,0,P|316:220|384:232,1,100
412,256,50897,1,8,0:0:0:0:
484,172,51359,1,2,0:0:0:0:
420,84,51820,1,8,0:0:0:0:
316,48,52282,6,0,P|264:48|204:72,1,100,4|8,0:0|0:0,0:0:0:0:
148,148,53205,2,0,L|108:104,2,50,2|0|8,0:0|0:0|0:0,0:0:0:0:
196,176,53897,2,0,P|240:168|300:176,1,100
344,200,54590,1,8,0:0:0:0:
296,300,55051,2,0,P|252:308|192:300,1,100,2|8,0:0|0:0,0:0:0:0:
108,236,55974,6,0,L|92:124,1,100,2|8,0:0|0:0,0:0:0:0:
148,40,56897,2,0,L|84:20,2,50,2|0|8,0:0|0:0|0:0,0:0:0:0:
196,68,57590,2,0,P|252:80|300:68,1,100,0|8,0:0|0:0,0:0:0:0:
344,48,58282,1,8,0:0:0:0:
444,92,58743,2,0,B|444:144|444:144|412:192,1,100,2|8,0:0|0:0,0:0:0:0:
312,212,59666,6,0,B|264:224|264:224|208:212,1,100,4|8,0:0|0:0,0:0:0:0:
124,152,60590,2,0,L|124:80,2,50,2|0|8,0:0|0:0|0:0,0:0:0:0:
104,204,61282,2,0,P|96:264|112:312,1,100
148,340,61974,1,8,0:0:0:0:
252,300,62436,2,0,P|308:288|368:300,1,100,2|8,0:0|0:0,0:0:0:0:
444,352,63359,6,0,B|476:312|476:312|484:248,1,100,2|8,0:0|0:0,0:0:0:0:
484,208,64051,2,0,L|472:104,1,100
440,64,64743,1,8,0:0:0:0:
440,64,64974,2,0,P|384:72|324:60,1,100
288,48,65666,1,8,0:0:0:0:
200,112,66128,1,2,0:0:0:0:
104,60,66590,1,8,0:0:0:0:
48,156,67051,6,0,L|76:256,1,100,4|8,0:0|0:0,0:0:0:0:
184,264,67974,2,0,L|168:324,2,50,2|0|8,0:0|0:0|0:0,0:0:0:0:
200,212,68666,2,0,P|211:168|191:100,1,100
172,68,69359,1,8,0:0:0:0:
272,24,69820,2,0,L|372:28,1,100,2|8,0:0|0:0,0:0:0:0:
392,136,70743,6,0,L|292:132,1,100,4|8,0:0|0:0,0:0:0:0:
188,164,71666,2,0,L|132:160,2,50,2|0|8,0:0|0:0|0:0,0:0:0:0:
232,196,72359,2,0,P|240:252|220:304,1,100,0|8,0:0|0:0,0:0:0:0:
184,328,73051,1,8,0:0:0:0:
100,260,73513,2,0,P|92:204|112:152,1,100,0|8,0:0|0:0,0:0:0:0:
208,128,74436,6,0,P|272:132|320:112,1,100,4|8,0:0|0:0,0:0:0:0:
404,72,75359,2,0,L|408:4,2,50,2|0|8,0:0|0:0|0:0,0:0:0:0:
424,124,76051,2,0,L|416:240,1,100
436,276,76743,1,8,0:0:0:0:
344,340,77205,2,0,P|288:332|232:344,1,100,2|8,0:0|0:0,0:0:0:0:
156,276,78128,6,0,P|106:283|57:275,1,100,2|8,0:0|0:0,0:0:0:0:
16,240,78820,2,0,P|4:180|24:124,1,100
44,100,79513,1,8,0:0:0:0:
96,120,79743,1,0,0:0:0:0:
144,96,79974,2,0,L|248:92,1,100,2|8,0:0|0:0,0:0:0:0:
344,44,80897,1,2,0:0:0:0:
420,124,81359,1,8,0:0:0:0:
472,220,81820,6,0,P|424:232|364:216,1,100,4|8,0:0|0:0,0:0:0:0:
304,140,82743,2,0,L|336:76,2,50,2|0|8,0:0|0:0|0:0,0:0:0:0:
260,176,83436,2,0,P|204:192|140:184,1,100
116,160,84128,1,8,0:0:0:0:
48,248,84590,2,0,P|56:308|84:348,1,100,2|8,0:0|0:0,0:0:0:0:
176,296,85513,5,2,0:0:0:0:
280,328,85974,1,8,0:0:0:0:
368,260,86436,2,0,L|380:200,1,50,2|0,0:0|0:0,0:0:0:0:
336,176,86897,2,0,L|324:124,2,50,8|0|4,0:0|0:0|0:0,0:0:0:0:
256,192,87474,12,0,89205,0:0:0:0:
