osu file format v14

[General]
AudioFilename: Charlotte.mp3
AudioLeadIn: 0
PreviewTime: 43974
Countdown: 0
SampleSet: Soft
StackLeniency: 0.7
Mode: 0
LetterboxInBreaks: 1
WidescreenStoryboard: 1

[Editor]
Bookmarks: 22628,32205,32666,32897,51359,51820
DistanceSpacing: 1.8
BeatDivisor: 4
GridSize: 4
TimelineZoom: 1

[Metadata]
Title:Yakeochinai Tsubasa (TV Size)
TitleUnicode:灼け落ちない翼 (TV Size)
Artist:Tada Aoi
ArtistUnicode:多田葵
Creator:FairyAccel
Version:Insane
Source:Charlotte
Tags:charlotte シャーロット ending strategas kyle y
BeatmapID:820615
BeatmapSetID:354153

[Difficulty]
HPDrainRate:7
CircleSize:4
OverallDifficulty:7
ApproachRate:8
SliderMultiplier:1.6
SliderTickRate:1

[Events]
//Background and Video events
Video,-60,"Video.avi"
0,0,"BG.jpg",0,0
//Break Periods
//Storyboard Layer 0 (Background)
//Storyboard Layer 1 (Fail)
//Storyboard Layer 2 (Pass)
//Storyboard Layer 3 (Foreground)
//Storyboard Sound Samples

[TimingPoints]
590,461.538461538462,4,2,1,70,1,0
15359,-100,4,2,2,70,0,0
41090,-100,4,2,1,60,0,0
41320,-100,4,2,2,80,0,0
44897,-90.9090909090909,4,2,2,70,0,1
73743,-90.9090909090909,4,2,2,50,0,1
73974,-90.9090909090909,4,2,2,60,0,1
74205,-90.9090909090909,4,2,2,70,0,1
87359,-100,4,2,2,70,0,0
89205,-100,4,2,2,5,0,0

[Colours]
Combo1 : 210,210,210
Combo2 : 148,40,255
Combo3 : 251,64,78
Combo4 : 0,198,99
Combo5 : 255,169,83

[HitObjects]
384,64,590,6,0,L|396:144,1,80,2|2,0:0|0:0,0:0:0:0:
456,220,1051,1,8,0:0:0:0:
428,312,1282,1,0,0:0:0:0:
428,312,1397,2,0,P|356:332|288:308,1,120
232,268,1974,1,10,0:0:0:0:
136,352,2205,1,0,0:0:0:0:
52,216,2436,6,0,L|44:132,1,80,2|2,0:0|0:0,0:0:0:0:
88,52,2897,1,8,0:0:0:0:
176,96,3128,1,0,0:0:0:0:
175,95,3243,2,0,B|208:116|208:116|248:84|308:92,1,120
368,48,3820,2,0,P|375:96|362:143,1,80,10|0,0:0|0:0,0:0:0:0:
296,268,4282,6,0,P|288:228|295:189,1,80,2|2,0:0|0:0,0:0:0:0:
384,228,4743,1,8,0:0:0:0:
376,324,4975,1,0,0:0:0:0:
376,324,5090,2,0,P|311:363|247:347,1,120
188,308,5666,1,10,0:0:0:0:
248,196,5897,1,0,0:0:0:0:
104,268,6128,6,0,L|0:268,1,80,2|2,0:0|0:0,0:0:0:0:
56,144,6590,2,0,L|136:144,1,80,8|0,0:0|0:0,0:0:0:0:
180,164,6936,2,0,B|216:184|216:184|304:152,1,120
368,100,7513,2,0,L|371:20,1,80,10|0,0:0|0:0,0:0:0:0:
440,168,7974,5,4,0:0:0:0:
508,236,8205,2,0,L|505:316,1,80,2|0,0:0|0:0,0:0:0:0:
468,348,8551,2,0,P|420:352|360:332,1,80,2|0,0:0|0:0,0:0:0:0:
344,332,8897,2,0,P|305:325|266:329,1,80,2|0,0:0|0:0,0:0:0:0:
216,320,9243,2,0,L|204:268,1,40,2|2,0:0|0:0,0:0:0:0:
80,268,9590,2,0,L|92:216,1,40,2|2,0:0|0:0,0:0:0:0:
112,188,9820,6,0,P|148:112|96:32,1,160,4|10,0:0|0:0,0:0:0:0:
48,116,10513,1,0,0:0:0:0:
48,116,10628,2,0,P|15:171|31:243,1,120
80,300,11205,1,10,0:0:0:0:
180,220,11436,1,0,0:0:0:0:
316,304,11666,6,0,L|416:288,1,80,6|2,0:0|0:0,0:0:0:0:
484,332,12128,1,8,0:0:0:0:
512,240,12359,1,0,0:0:0:0:
512,240,12474,2,0,B|512:204|512:204|504:156|504:156|504:96,1,120
440,48,13051,1,10,0:0:0:0:
324,156,13282,1,2,0:0:0:0:
324,156,13397,1,2,0:0:0:0:
324,156,13513,6,0,L|308:256,1,80,4|0,0:0|0:0,0:0:0:0:
196,288,13974,2,0,L|183:209,1,80,10|2,0:0|0:0,0:0:0:0:
148,176,14320,1,2,0:0:0:0:
148,176,14436,2,0,L|88:200,2,40,0|2|2,0:0|0:0|0:0,0:0:0:0:
248,96,14897,2,0,L|308:120,2,40,8|2|0,0:0|0:0|0:0,0:0:0:0:
99,31,15359,6,0,L|111:207,1,160,0|2,0:0|0:0,0:0:0:0:
64,276,16051,1,0,0:0:0:0:
148,328,16282,2,0,B|192:336|192:336|268:320|268:320|308:328,1,160,0|2,0:0|0:0,0:0:0:0:
428,360,16974,1,0,0:0:0:0:
488,248,17205,6,0,P|492:204|476:144,1,80
420,96,17666,1,2,0:0:0:0:
336,192,17897,1,0,0:0:0:0:
220,136,18128,2,0,L|124:148,1,80
100,172,18474,1,0,0:0:0:0:
100,172,18590,2,0,P|96:224|116:260,1,80,2|0,0:0|0:0,0:0:0:0:
252,316,19051,5,0,0:0:0:0:
184,204,19282,1,0,0:0:0:0:
252,316,19513,2,0,P|300:312|348:288,1,80,2|0,0:0|0:0,0:0:0:0:
408,160,19974,2,0,P|333:196|244:178,1,160,0|2,0:0|0:0,0:0:0:0:
314,73,20666,6,0,L|336:236,1,160
263,338,21359,1,2,0:0:0:0:
89,273,21590,2,0,L|246:250,1,160
344,124,22282,1,2,0:0:0:0:
344,124,22743,6,0,L|364:212,1,80
456,180,23205,2,0,L|436:268,1,80,2|0,0:0|0:0,0:0:0:0:
384,336,23666,2,0,P|316:360|228:316,1,160,0|2,0:0|0:0,0:0:0:0:
164,240,24359,5,0,0:0:0:0:
108,161,24590,1,0,0:0:0:0:
251,114,24820,1,0,0:0:0:0:
251,206,25051,1,2,0:0:0:0:
161,85,25282,2,0,B|121:105|81:85|41:65|1:85,1,160
28,244,25974,2,0,L|38:164,1,80,2|0,0:0|0:0,0:0:0:0:
161,85,26436,6,0,L|171:164,1,80
224,244,26897,1,2,0:0:0:0:
332,172,27128,2,0,L|500:188,1,160
396,276,27820,1,2,0:0:0:0:
232,252,28051,1,0,0:0:0:0:
232,252,28166,1,0,0:0:0:0:
232,252,28282,6,0,L|140:240,1,80
84,136,28743,2,0,L|16:144,2,40,2|0|0,0:0|0:0|0:0,0:0:0:0:
188,60,29205,2,0,P|236:64|284:52,1,80
312,36,29551,1,0,0:0:0:0:
356,52,29666,2,0,P|372:88|378:127,1,80,2|0,0:0|0:0,0:0:0:0:
444,276,30128,6,0,B|416:320|416:320|380:272|296:268,1,160,2|0,0:0|0:0,0:0:0:0:
232,244,30820,1,2,0:0:0:0:
84,335,31051,1,2,0:0:0:0:
109,217,31282,1,0,0:0:0:0:
203,362,31513,1,0,0:0:0:0:
109,217,31743,6,0,L|80:48,1,160
200,12,32436,1,0,0:0:0:0:
312,72,32666,2,0,P|248:132|148:124,2,160,2|0|0,0:0|0:0|0:0,0:0:0:0:
460,8,33820,6,0,B|492:60|492:60|456:112|468:180,1,160,2|0,0:0|0:0,0:0:0:0:
444,280,34513,1,2,0:0:0:0:
324,320,34743,2,0,P|296:332|240:324,2,80,2|0|0,0:0|0:0|0:0,0:0:0:0:
268,168,35436,6,0,L|278:247,1,80,0|2,0:0|0:0,0:0:0:0:
476,272,35897,2,0,L|465:192,1,80
336,96,36359,2,0,L|346:175,1,80,2|2,0:0|0:0,0:0:0:0:
404,324,36820,2,0,L|393:244,1,80
336,96,37282,1,0,0:0:0:0:
256,152,37513,6,0,P|184:184|96:156,1,160,2|0,0:0|0:0,0:0:0:0:
40,96,38205,1,2,0:0:0:0:
28,224,38436,2,0,L|44:304,1,80,2|0,0:0|0:0,0:0:0:0:
156,364,38897,1,0,0:0:0:0:
276,320,39128,6,0,P|348:345|424:283,1,160
447,163,39820,1,0,0:0:0:0:
315,107,40051,2,0,L|340:265,2,160
164,164,41205,5,4,0:0:0:0:
256,192,41320,12,0,43051,0:0:0:0:
24,298,43974,5,8,0:0:0:0:
164,164,44205,1,8,0:0:0:0:
129,355,44436,1,8,0:0:0:0:
44,180,44666,1,8,0:0:0:0:
217,270,44897,6,0,P|286:290|355:263,1,132.00000402832,4|0,0:0|0:0,0:0:0:0:
371,236,45359,2,0,P|386:189|376:136,1,88.000002685547,8|0,0:0|0:0,0:0:0:0:
284,24,45820,1,2,0:0:0:0:
156,120,46051,1,0,0:0:0:0:
304,180,46282,1,8,0:0:0:0:
184,28,46513,1,2,0:3:0:0:
304,180,46743,6,0,L|288:280,1,88.000002685547,2|0,0:0|0:0,0:0:0:0:
148,340,47205,2,0,L|134:253,1,88.000002685547,8|0,0:0|0:0,0:0:0:0:
168,152,47666,1,2,0:0:0:0:
256,92,47897,1,0,0:0:0:0:
256,92,48013,1,0,0:0:0:0:
256,92,48128,2,0,L|352:84,1,88.000002685547,8|0,0:0|0:0,0:0:0:0:
432,268,48590,6,0,L|300:255,1,132.00000402832,2|0,0:0|0:0,0:0:0:0:
256,284,49051,1,8,0:0:0:0:
152,220,49282,2,0,P|139:176|146:112,1,88.000002685547,0|2,0:0|0:0,0:0:0:0:
280,60,49743,2,0,P|293:104|286:168,1,88.000002685547,0|8,0:0|0:0,0:0:0:0:
160,28,50205,6,0,L|360:16,1,176.000005371094
440,84,50897,2,0,B|436:192,1,88.000002685547,8|0,0:0|0:0,0:0:0:0:
480,268,51359,1,2,0:0:0:0:
424,356,51590,1,0,0:0:0:0:
424,356,51705,1,0,0:0:0:0:
424,356,51820,2,0,P|368:360|308:344,1,88.000002685547,8|0,0:0|0:0,0:0:0:0:
224,184,52282,6,0,L|88:196,1,132.00000402832,4|0,0:0|0:0,0:0:0:0:
48,164,52743,2,0,P|36:116|44:72,1,88.000002685547,8|0,0:0|0:0,0:0:0:0:
192,20,53205,1,2,0:0:0:0:
242,111,53436,1,0,0:0:0:0:
137,109,53666,1,8,0:0:0:0:
316,16,53897,1,2,0:3:0:0:
304,224,54128,6,0,L|316:340,1,88.000002685547,2|0,0:0|0:0,0:0:0:0:
400,176,54590,2,0,L|390:88,1,88.000002685547,8|0,0:0|0:0,0:0:0:0:
316,16,55051,1,2,0:0:0:0:
232,80,55282,1,0,0:0:0:0:
232,80,55397,1,0,0:0:0:0:
232,80,55513,2,0,P|180:88|132:80,1,88.000002685547,8|0,0:0|0:0,0:0:0:0:
100,280,55974,6,0,P|172:260|244:272,1,132.00000402832,2|0,0:0|0:0,0:0:0:0:
276,288,56436,2,0,P|332:296|384:276,1,88.000002685547,8|0,0:0|0:0,0:0:0:0:
476,180,56897,1,2,0:0:0:0:
320,212,57128,1,0,0:0:0:0:
432,100,57359,1,8,0:0:0:0:
361,288,57590,6,0,B|304:316|252:268|252:268|196:288,1,176.000005371094,0|8,0:0|0:0,0:0:0:0:
60,364,58282,1,8,0:0:0:0:
4,216,58513,1,2,0:0:0:0:
6,185,58628,1,2,0:0:0:0:
9,154,58743,1,2,0:0:0:0:
11,124,58859,1,2,0:0:0:0:
13,92,58974,1,2,0:0:0:0:
132,64,59205,2,0,L|127:164,1,88.000002685547,8|0,0:0|0:0,0:0:0:0:
240,320,59666,6,0,L|233:188,1,132.00000402832,4|0,0:0|0:0,0:0:0:0:
252,140,60128,2,0,P|296:112|356:120,1,88.000002685547,8|0,0:0|0:0,0:0:0:0:
476,176,60590,1,2,0:0:0:0:
319,208,60820,1,0,0:0:0:0:
424,90,61051,1,8,0:0:0:0:
407,248,61282,1,2,0:3:0:0:
252,140,61513,6,0,L|164:143,1,88.000002685547,2|0,0:0|0:0,0:0:0:0:
104,292,61974,2,0,L|191:288,1,88.000002685547,8|0,0:0|0:0,0:0:0:0:
288,332,62436,1,2,0:0:0:0:
372,268,62666,1,0,0:0:0:0:
372,268,62782,1,0,0:0:0:0:
372,268,62897,2,0,P|384:216|380:176,1,88.000002685547,8|0,0:0|0:0,0:0:0:0:
244,32,63359,6,0,P|180:64|116:56,1,132.00000402832,2|0,0:0|0:0,0:0:0:0:
76,36,63820,1,8,0:0:0:0:
116,152,64051,2,0,P|123:195|119:238,1,88.000002685547,0|2,0:0|0:0,0:0:0:0:
224,360,64513,2,0,P|216:312|228:248,1,88.000002685547,0|8,0:0|0:0,0:0:0:0:
184,72,64974,6,0,P|264:116|364:84,1,176.000005371094
456,48,65666,2,0,L|452:156,1,88.000002685547,8|0,0:0|0:0,0:0:0:0:
396,224,66128,1,2,0:0:0:0:
456,312,66359,1,0,0:0:0:0:
456,312,66474,1,0,0:0:0:0:
456,312,66590,2,0,P|403:327|351:311,1,88.000002685547,8|0,0:0|0:0,0:0:0:0:
220,184,67051,6,0,P|200:120|224:44,1,132.00000402832,4|0,0:0|0:0,0:0:0:0:
256,24,67513,2,0,L|344:16,1,88.000002685547,8|0,0:0|0:0,0:0:0:0:
448,136,67974,1,2,0:0:0:0:
356,264,68205,1,0,0:0:0:0:
292,120,68436,1,8,0:0:0:0:
456,240,68666,1,2,0:3:0:0:
268,320,68897,6,0,B|220:344|160:316,1,88.000002685547,2|0,0:0|0:0,0:0:0:0:
132,172,69359,2,0,B|180:148|240:176,1,88.000002685547,8|0,0:0|0:0,0:0:0:0:
308,220,69820,1,2,0:0:0:0:
400,172,70051,1,0,0:0:0:0:
400,172,70166,1,0,0:0:0:0:
400,172,70282,1,8,0:0:0:0:
336,68,70513,1,0,0:0:0:0:
336,68,70629,1,0,0:0:0:0:
336,68,70743,6,0,B|200:76,1,132.00000402832,4|0,0:0|0:0,0:0:0:0:
156,96,71205,2,0,L|44:92,1,88.000002685547,8|0,0:0|0:0,0:0:0:0:
4,220,71666,1,2,0:0:0:0:
88,332,71897,1,0,0:0:0:0:
208,256,72128,1,8,0:0:0:0:
328,332,72359,6,0,P|408:357|476:306,1,176.000005371094,0|8,0:0|0:0,0:0:0:0:
396,172,73051,2,0,L|392:259,1,88.000002685547,8|0,0:0|0:0,0:0:0:0:
248,324,73513,1,2,0:0:0:0:
104,256,73743,2,0,L|51:204,1,44.0000013427735,8|8,0:0|0:0,0:0:0:0:
144,172,73974,2,0,L|106:108,1,44.0000013427735,8|8,0:0|0:0,0:0:0:0:
208,108,74205,2,0,L|188:37,1,44.0000013427735,8|8,0:0|0:0,0:0:0:0:
292,72,74436,6,0,P|340:60|392:64,1,88.000002685547,4|0,0:0|0:0,0:0:0:0:
436,208,74897,2,0,P|388:220|328:216,1,88.000002685547,8|0,0:0|0:0,0:0:0:0:
208,108,75359,1,2,0:0:0:0:
155,275,75590,1,0,0:0:0:0:
33,150,75820,1,8,0:0:0:0:
243,214,76051,6,0,P|259:304|187:377,1,176.000005371094
88,340,76743,2,0,P|53:305|39:246,1,88.000002685547,8|0,0:0|0:0,0:0:0:0:
29,163,77205,1,2,0:0:0:0:
121,106,77436,1,0,0:0:0:0:
121,106,77551,1,0,0:0:0:0:
121,106,77666,2,0,P|161:89|191:57,1,88.000002685547,8|0,0:0|0:0,0:0:0:0:
352,180,78128,6,0,P|422:241|521:201,1,176.000005371094,2|8,0:0|0:0,0:0:0:0:
396,104,78820,2,0,P|333:93|295:111,1,88.000002685547,0|2,0:0|0:0,0:0:0:0:
173,175,79282,2,0,P|235:185|273:167,1,88.000002685547,0|8,0:0|0:0,0:0:0:0:
218,79,79743,1,0,0:0:0:0:
76,150,79974,6,0,P|74:194|103:246,1,88.000002685547,2|0,0:0|0:0,0:0:0:0:
176,300,80436,2,0,L|280:304,1,88.000002685547,8|0,0:0|0:0,0:0:0:0:
384,200,80897,1,2,0:0:0:0:
476,328,81128,1,0,0:0:0:0:
468,168,81359,1,8,0:0:0:0:
452,141,81474,1,8,0:0:0:0:
428,122,81589,1,8,0:0:0:0:
399,111,81705,1,8,0:0:0:0:
369,111,81820,6,0,P|296:132|240:120,1,132.00000402832,4|0,0:0|0:0,0:0:0:0:
196,96,82282,2,0,P|144:88|88:108,1,88.000002685547,8|0,0:0|0:0,0:0:0:0:
64,248,82743,1,2,0:0:0:0:
162,362,82974,1,0,0:0:0:0:
152,209,83205,1,8,0:0:0:0:
68,340,83436,1,0,0:0:0:0:
213,283,83666,6,0,L|321:275,1,88.000002685547,2|0,0:0|0:0,0:0:0:0:
409,159,84128,2,0,L|301:151,1,88.000002685547,8|0,0:0|0:0,0:0:0:0:
172,100,84590,2,0,L|176:204,1,88.000002685547,2|0,0:0|0:0,0:0:0:0:
161,215,84936,1,0,0:0:0:0:
150,245,85051,2,0,L|154:349,1,88.000002685547,8|0,0:0|0:0,0:0:0:0:
348,272,85513,6,0,P|440:296|496:272,1,132.00000402832,2|0,0:0|0:0,0:0:0:0:
504,244,85974,2,0,L|512:124,1,88.000002685547,8|0,0:0|0:0,0:0:0:0:
376,72,86436,1,2,0:0:0:0:
280,196,86666,1,0,0:0:0:0:
152,104,86897,1,8,0:0:0:0:
180,93,87012,1,8,0:0:0:0:
210,87,87127,1,8,0:0:0:0:
241,87,87243,1,8,0:0:0:0:
271,94,87358,1,4,0:0:0:0:
256,192,87474,12,0,89205,0:0:0:0:
