osu file format v14

[General]
AudioFilename: Charlotte.mp3
AudioLeadIn: 0
PreviewTime: 43974
Countdown: 0
SampleSet: Soft
StackLeniency: 0.7
Mode: 0
LetterboxInBreaks: 1
WidescreenStoryboard: 1

[Editor]
DistanceSpacing: 1.2
BeatDivisor: 4
GridSize: 4
TimelineZoom: 1

[Metadata]
Title:Yakeochinai Tsubasa (TV Size)
TitleUnicode:灼け落ちない翼 (TV Size)
Artist:Tada Aoi
ArtistUnicode:多田葵
Creator:FairyAccel
Version:Easy
Source:Charlotte
Tags:charlotte シャーロット ending strategas kyle y
BeatmapID:790548
BeatmapSetID:354153

[Difficulty]
HPDrainRate:2
CircleSize:3
OverallDifficulty:2
ApproachRate:3
SliderMultiplier:0.8
SliderTickRate:1

[Events]
//Background and Video events
Video,-60,"Video.avi"
0,0,"BG.jpg",0,0
//Break Periods
//Storyboard Layer 0 (Background)
//Storyboard Layer 1 (Fail)
//Storyboard Layer 2 (Pass)
//Storyboard Layer 3 (Foreground)
//Storyboard Sound Samples

[TimingPoints]
590,461.538461538462,4,2,1,70,1,0
15359,-100,4,2,2,70,0,0
41090,-100,4,2,1,60,0,0
41320,-100,4,2,2,70,0,0
44897,-100,4,2,2,70,0,1
46166,-100,4,2,5,70,0,1
46397,-100,4,2,2,70,0,1
48936,-100,4,2,5,70,0,1
49166,-100,4,2,2,70,0,1
53551,-100,4,2,5,70,0,1
53782,-100,4,2,2,70,0,1
57243,-100,4,2,5,70,0,1
57474,-100,4,2,2,70,0,1
60936,-100,4,2,5,70,0,1
61166,-100,4,2,2,70,0,1
63705,-100,4,2,5,70,0,1
63936,-100,4,2,2,70,0,1
68320,-100,4,2,5,70,0,1
68551,-100,4,2,2,70,0,1
72013,-100,4,2,5,70,0,1
72243,-100,4,2,2,70,0,1
75705,-100,4,2,5,70,0,1
75936,-100,4,2,2,70,0,1
83090,-100,4,2,5,70,0,1
83320,-100,4,2,2,70,0,1
87359,-100,4,2,2,70,0,0
89205,-100,4,2,2,5,0,0

[Colours]
Combo1 : 210,210,210
Combo2 : 148,40,255
Combo3 : 251,64,78
Combo4 : 0,198,99
Combo5 : 255,169,83

[HitObjects]
312,268,590,6,0,L|444:284,2,120,2|0|2,0:0|0:0|0:0,0:0:0:0:
244,200,2436,2,0,P|220:244|232:320,2,120,2|0|2,0:0|0:0|0:0,0:0:0:0:
328,152,4282,6,0,P|352:108|340:32,2,120,2|0|2,0:0|0:0|0:0,0:0:0:0:
244,200,6128,2,0,L|112:216,2,120,2|0|2,0:0|0:0|0:0,0:0:0:0:
332,244,7974,6,0,P|376:248|424:236,1,80,2|2,0:0|0:0,0:0:0:0:
476,168,8897,2,0,P|484:128|468:76,1,80,2|2,0:0|0:0,0:0:0:0:
396,36,9820,1,4,0:0:0:0:
312,84,10282,2,0,L|136:76,1,160,2|2,0:0|0:0,0:0:0:0:
60,44,11666,6,0,B|32:92|88:152|60:208,1,160,4|2,0:0|0:0,0:0:0:0:
8,280,13051,1,2,0:0:0:0:
88,336,13513,2,0,B|144:312|216:328|216:328|236:264|212:208,1,240,2|0,0:0|0:0,0:0:0:0:
240,128,15359,6,0,P|196:124|156:152,1,80,0|2,0:0|0:0,0:0:0:0:
72,164,16282,2,0,P|80:100|60:44,2,120,0|0|2,0:0|0:0|0:0,0:0:0:0:
12,236,18128,2,0,L|36:328,1,80,0|2,0:0|0:0,0:0:0:0:
120,352,19051,5,0,0:0:0:0:
200,300,19513,2,0,P|232:288|288:288,1,80,2|0,0:0|0:0,0:0:0:0:
348,220,20436,2,0,P|407:253|502:244,2,160,2|2|2,0:0|0:0|0:0,0:0:0:0:
276,156,22743,5,0,0:0:0:0:
192,204,23205,1,2,0:0:0:0:
156,292,23666,2,0,P|112:256|100:224,1,80,0|2,0:0|0:0,0:0:0:0:
104,140,24590,2,0,P|124:105|157:83,1,80,0|2,0:0|0:0,0:0:0:0:
248,56,25513,2,0,L|344:64,1,80,0|2,0:0|0:0,0:0:0:0:
368,148,26436,6,0,P|416:92|420:44,2,120,0|0|2,0:0|0:0|0:0,0:0:0:0:
288,204,28282,1,0,0:0:0:0:
200,164,28743,1,2,0:0:0:0:
112,208,29205,2,0,L|100:304,1,80,0|2,0:0|0:0,0:0:0:0:
172,356,30128,6,0,P|216:364|259:356,1,80,2|0,0:0|0:0,0:0:0:0:
328,304,31051,2,0,L|452:304,1,120,2|0,0:0|0:0,0:0:0:0:
508,228,32205,1,0,0:0:0:0:
456,148,32666,2,0,L|328:148,1,120,2|0,0:0|0:0,0:0:0:0:
272,76,33820,6,0,L|192:83,1,80,2|0,0:0|0:0,0:0:0:0:
108,36,34743,2,0,P|96:96|124:156,1,120,2|0,0:0|0:0,0:0:0:0:
204,192,35897,1,0,0:0:0:0:
296,164,36359,2,0,B|316:220|316:220|296:292,1,120,2|0,0:0|0:0,0:0:0:0:
228,344,37513,6,0,P|192:352|132:348,1,80,2|0,0:0|0:0,0:0:0:0:
80,284,38436,2,0,B|65:249|65:249|73:199|73:199|58:161,1,120,2|0,0:0|0:0,0:0:0:0:
4,92,39590,1,0,0:0:0:0:
100,80,40051,2,0,B|148:104|148:104|220:76,1,120,2|2,0:0|0:0,0:0:0:0:
300,44,41205,6,0,P|384:60|432:124,1,160,4|2,0:0|0:0,0:0:0:0:
472,200,42590,1,0,0:0:0:0:
412,276,43051,2,0,B|376:288|376:288|334:281,1,80,2|0,0:0|0:0,0:0:0:0:
248,320,43974,6,0,P|240:280|256:228,1,80,2|8,0:0|0:0,0:0:0:0:
296,160,44897,5,4,0:0:0:0:
204,136,45359,1,8,0:0:0:0:
152,216,45820,2,0,B|112:252|112:252|40:252,2,120,2|0|8,0:0|0:0|0:0,0:0:0:0:
76,155,47666,2,0,P|105:129|144:119,1,80,2|8,0:0|0:0,0:0:0:0:
232,160,48590,6,0,P|236:88|200:40,2,120,0|0|8,0:0|0:0|0:0,0:0:0:0:
152,216,50436,2,0,P|184:248|216:256,1,80,2|8,0:0|0:0,0:0:0:0:
312,256,51359,2,0,P|349:245|376:215,1,80,2|8,0:0|0:0,0:0:0:0:
420,132,52282,5,4,0:0:0:0:
356,60,52743,1,8,0:0:0:0:
264,88,53205,2,0,P|207:71|151:88,2,120,2|0|8,0:0|0:0|0:0,0:0:0:0:
208,168,55051,2,0,L|208:264,1,80,2|8,0:0|0:0,0:0:0:0:
280,312,55974,5,2,0:0:0:0:
364,268,56436,1,8,0:0:0:0:
428,340,56897,2,0,B|464:304|464:304|468:224,1,120,2|0,0:0|0:0,0:0:0:0:
500,144,58051,2,0,L|504:92,1,40,8|8,0:0|0:0,0:0:0:0:
424,48,58743,2,0,L|332:40,1,80,2|8,0:0|0:0,0:0:0:0:
260,88,59666,5,4,0:0:0:0:
168,56,60128,1,8,0:0:0:0:
100,124,60590,2,0,P|76:52|88:8,2,120,2|0|8,0:0|0:0|0:0,0:0:0:0:
176,184,62436,2,0,P|186:222|185:262,1,80,2|8,0:0|0:0,0:0:0:0:
124,336,63359,6,0,P|160:356|248:336,2,120,2|0|8,0:0|0:0|0:0,0:0:0:0:
76,252,65205,2,0,P|65:213|66:173,1,80,2|8,0:0|0:0,0:0:0:0:
120,92,66128,2,0,B|160:71|160:71|213:73,1,80,2|8,0:0|0:0,0:0:0:0:
284,40,67051,5,4,0:0:0:0:
372,80,67513,1,8,0:0:0:0:
340,172,67974,2,0,P|408:172|452:132,2,120,2|0|8,0:0|0:0|0:0,0:0:0:0:
248,144,69820,2,0,P|204:140|164:148,1,80,2|8,0:0|0:0,0:0:0:0:
84,196,70743,5,4,0:0:0:0:
24,120,71205,1,8,0:0:0:0:
92,52,71666,2,0,L|224:32,1,120,2|0,0:0|0:0,0:0:0:0:
288,92,72820,2,8,L|327:97,1,40
424,80,73513,2,0,P|424:124|404:164,1,80,2|8,0:0|0:0,0:0:0:0:
352,236,74436,5,4,0:0:0:0:
264,200,74897,1,8,0:0:0:0:
196,268,75359,2,0,P|168:212|184:148,2,120,2|0|8,0:0|0:0|0:0,0:0:0:0:
276,320,77205,2,0,P|328:324|368:316,1,80,2|8,0:0|0:0,0:0:0:0:
440,272,78128,5,2,0:0:0:0:
468,180,78590,2,0,B|484:128|452:96|452:96|416:96|380:80,1,160,8|8,0:0|0:0,0:0:0:0:
292,52,79974,2,0,L|212:52,1,80,2|8,0:0|0:0,0:0:0:0:
120,24,80897,2,0,P|116:68|136:112,1,80,2|8,0:0|0:0,0:0:0:0:
196,168,81820,5,4,0:0:0:0:
148,252,82282,1,8,0:0:0:0:
216,320,82743,2,0,P|156:348|96:332,2,120,2|0|8,0:0|0:0|0:0,0:0:0:0:
308,292,84590,2,0,P|348:296|392:284,1,80,2|8,0:0|0:0,0:0:0:0:
448,212,85513,5,2,0:0:0:0:
424,120,85974,1,8,0:0:0:0:
336,84,86436,1,2,0:0:0:0:
248,120,86897,2,0,L|204:108,2,40,8|0|4,0:0|0:0|0:0,0:0:0:0:
256,192,87474,12,0,89205,0:0:0:0:
