osu file format v14

[General]
AudioFilename: audio.mp3
AudioLeadIn: 0
PreviewTime: 54027
Countdown: 0
SampleSet: Soft
StackLeniency: 0.7
Mode: 0
LetterboxInBreaks: 0
WidescreenStoryboard: 1

[Editor]
DistanceSpacing: 1.3
BeatDivisor: 4
GridSize: 8
TimelineZoom: 1

[Metadata]
Title:Word of Dawn
TitleUnicode:Word of Dawn
Artist:Tada Aoi
ArtistUnicode:多田葵
Creator:miradzin
Version:Advanced
Source:Rewrite
Tags:ending 2 second ed TV アニメ size リライト trynna
BeatmapID:1226780
BeatmapSetID:578514

[Difficulty]
HPDrainRate:4
CircleSize:3.8
OverallDifficulty:5
ApproachRate:6
SliderMultiplier:1.3
SliderTickRate:1

[Events]
//Background and Video events
Video,0,"word of dawn~1.avi"
0,0,"memories.jpg",0,0
//Break Periods
//Storyboard Layer 0 (Background)
//Storyboard Layer 1 (Fail)
//Storyboard Layer 2 (Pass)
//Storyboard Layer 3 (Foreground)
//Storyboard Layer 4 (Overlay)
//Storyboard Sound Samples

[TimingPoints]
-165,483.870967741935,4,2,1,50,1,0
1770,-100,4,2,1,50,0,0
17253,-90.9090909090909,4,2,1,60,0,0
24995,-111.111111111111,4,2,1,55,0,0
25721,-125,4,2,1,50,0,0
26447,-142.857142857143,4,2,1,45,0,0
35640,483.870967741935,4,2,1,55,1,0
35640,-100,4,2,1,55,0,0
43382,-100,4,2,1,60,0,0
47253,-111.111111111111,4,2,1,50,0,0
49189,-111.111111111111,4,2,1,40,0,0
52818,-111.111111111111,4,2,1,60,0,0
54994,-90.9090909090909,4,2,1,70,0,1
70479,-86.9565217391304,4,2,1,70,0,1
80881,-111.111111111111,4,2,1,50,0,0
85962,-111.111111111111,4,2,1,40,0,0

[Colours]
Combo1 : 255,211,81
Combo2 : 153,98,255
Combo3 : 159,188,255
Combo4 : 244,74,100

[HitObjects]
112,272,1770,6,0,P|139:214|198:192,1,130,2|2,0:0|0:0,0:0:0:0:
280,216,2496,2,0,L|416:208,1,130,0|2,0:0|0:0,0:0:0:0:
480,160,3221,1,0,0:0:0:0:
432,88,3463,2,0,P|384:72|304:112,1,130,2|2,0:0|0:0,0:0:0:0:
248,152,4189,1,0,0:0:0:0:
165,135,4431,2,0,P|117:127|85:135,1,65,2|0,0:0|0:0,0:0:0:0:
53,199,4915,2,0,P|101:207|133:199,1,65,2|0,0:0|0:0,0:0:0:0:
194,237,5399,1,0,0:0:0:0:
275,216,5641,6,0,P|299:160|299:88,1,130,2|2,0:0|0:0,0:0:0:0:
257,18,6366,1,0,0:0:0:0:
191,72,6609,2,0,L|103:64,1,65,2|0,0:0|0:0,0:0:0:0:
44,88,7092,1,0,0:0:0:0:
63,170,7334,2,0,L|223:162,1,130,2|2,0:0|0:0,0:0:0:0:
276,151,8060,2,0,P|284:103|268:63,1,65
361,113,8544,2,0,L|449:105,1,65,2|0,0:0|0:0,0:0:0:0:
474,176,9028,2,0,L|386:184,1,65,2|0,0:0|0:0,0:0:0:0:
352,244,9512,6,0,B|256:260|256:260|208:228,1,130,2|2,0:0|0:0,0:0:0:0:
164,186,10238,2,0,P|124:170|92:170,1,65
18,179,10722,2,0,L|10:99,1,65,2|0,0:0|0:0,0:0:0:0:
55,41,11205,2,0,P|103:33|191:81,1,130,2|2,0:0|0:0,0:0:0:0:
236,122,11931,2,0,P|276:90|292:50,1,65,2|2,0:0|0:0,0:0:0:0:
322,153,12415,2,0,L|402:137,1,65
457,186,12899,1,2,0:0:0:0:
427,264,13141,6,0,B|363:256|363:256|307:272|307:272|235:256,1,195,0|2,0:0|0:0,0:0:0:0:
160,104,14350,1,0,0:0:0:0:
160,104,14592,2,0,L|152:184,1,65,2|0,0:0|0:0,0:0:0:0:
238,165,15076,6,0,P|278:149|374:173,1,130,2|0,0:0|0:0,0:0:0:0:
430,213,15802,2,0,L|438:141,1,65,2|0,0:0|0:0,0:0:0:0:
397,73,16286,2,0,L|253:65,1,130,2|2,0:0|0:0,0:0:0:0:
185,86,17011,1,0,0:0:0:0:
104,39,17254,6,0,B|88:79|88:79|96:183,1,143.000004364014,2|0,0:0|0:0,0:0:0:0:
127,266,17980,2,0,P|183:250|215:170,1,143.000004364014,2|0,0:0|0:0,0:0:0:0:
288,118,18705,1,2,0:0:0:0:
360,176,18947,6,0,B|456:168|456:168|480:128,1,143.000004364014,2|0,0:0|0:0,0:0:0:0:
424,56,19673,2,0,L|336:48,1,71.5000021820069,2|0,0:0|0:0,0:0:0:0:
266,85,20157,2,0,L|178:93,1,71.5000021820069
104,71,20641,2,0,L|112:159,1,71.5000021820069,2|0,0:0|0:0,0:0:0:0:
104,235,21125,6,0,B|152:219|200:243|200:243|240:235|264:219,1,143.000004364014,2|0,0:0|0:0,0:0:0:0:
307,164,21850,1,0,0:0:0:0:
394,194,22092,2,0,P|394:131|330:72,1,143.000004364014,2|0,0:0|0:0,0:0:0:0:
251,102,22818,6,0,L|91:94,1,143.000004364014,2|0,0:0|0:0,0:0:0:0:
63,176,23544,2,0,P|99:190|152:191,1,71.5000021820069,2|0,0:0|0:0,0:0:0:0:
224,182,24028,2,0,P|218:217|204:249,1,71.5000021820069,2|0,0:0|0:0,0:0:0:0:
147,323,24512,2,0,P|180:336|215:340,1,71.5000021820069,2|0,0:0|0:0,0:0:0:0:
291,330,24996,6,0,P|300:253|352:226,1,116.999996429443,2|0,0:0|0:0,0:0:0:0:
377,278,25721,6,0,L|361:166,1,104,2|0,0:0|0:0,0:0:0:0:
310,145,26447,6,0,P|342:81|438:105,1,181.999994445801,2|0,0:0|0:0,0:0:0:0:
483,211,27899,6,0,B|435:235|435:235|387:227|387:227|339:243|299:227,1,181.999994445801,2|0,0:0|0:0,0:0:0:0:
131,223,29592,1,0,0:0:0:0:
117,165,29834,2,0,P|125:125|149:77,1,90.9999972229005,2|0,0:0|0:0,0:0:0:0:
199,51,30560,1,0,0:0:0:0:
252,76,30802,6,0,L|348:60,1,90.9999972229005,2|0,0:0|0:0,0:0:0:0:
394,34,31528,1,0,0:0:0:0:
446,61,31770,2,0,P|470:117|446:189,1,136.499995834351,2|2,0:0|0:0,0:0:0:0:
295,276,33221,2,0,P|263:228|255:180,1,90.9999972229005,2|4,0:0|0:0,0:0:0:0:
33,118,35157,5,8,0:3:0:0:
177,205,35640,6,0,L|332:193,1,130,4|2,0:0|0:0,0:0:0:0:
379,151,36366,1,0,0:0:0:0:
460,174,36608,2,0,L|467:107,2,65,0|0|2,0:0|0:0|0:0,0:0:0:0:
469,258,37334,1,0,0:0:0:0:
396,301,37575,2,0,P|331:281|289:220,1,130,2|0,0:0|0:0,0:0:0:0:
224,282,38301,2,0,L|89:263,1,130,2|0,0:0|0:0,0:0:0:0:
50,192,39028,2,0,L|75:120,1,65,8|0,0:3|0:0,0:0:0:0:
149,162,39511,6,0,B|245:168|245:168|300:141,1,130,2|0,0:0|0:0,0:0:0:0:
430,84,40479,2,0,P|366:76|289:53,1,130,2|0,0:0|0:0,0:0:0:0:
223,29,41205,1,0,0:0:0:0:
141,51,41447,2,0,B|122:79|122:79|110:179,1,130,2|0,0:0|0:0,0:0:0:0:
159,243,42173,2,0,P|209:227|302:231,1,130,2|0,0:0|0:0,0:0:0:0:
367,251,42899,1,0,0:0:0:0:
367,251,43140,1,0,0:0:0:0:
326,325,43381,6,0,L|185:319,1,130,4|2,0:0|0:0,0:0:0:0:
112,305,44108,1,0,0:0:0:0:
91,226,44349,2,0,B|139:210|139:210|179:218|179:218|235:202,1,130,0|2,0:0|0:0,0:0:0:0:
283,154,45076,1,0,0:0:0:0:
363,186,45318,2,0,P|402:149|401:64,1,130,0|2,0:0|0:0,0:0:0:0:
323,50,46044,1,0,0:0:0:0:
243,82,46286,6,0,L|110:73,1,130,0|2,0:0|0:0,0:0:0:0:
29,60,47011,1,0,0:0:0:0:
31,136,47253,2,0,L|-2:187,2,58.4999982147217,0|0|2,0:0|0:0|0:0,0:0:0:0:
105,153,47979,1,0,0:0:0:0:
180,142,48220,2,0,P|216:132|257:135,1,58.4999982147217
295,180,48705,2,0,L|376:181,1,58.4999982147217,2|0,0:0|0:0,0:0:0:0:
419,142,49188,6,0,L|443:83,2,58.4999982147217,2|0|0,0:0|0:0|0:0,0:0:0:0:
353,102,49914,2,0,P|318:77|231:69,1,116.999996429443,2|0,0:0|0:0,0:0:0:0:
184,110,50639,2,0,L|114:99,1,58.4999982147217,2|0,0:0|0:0,0:0:0:0:
64,146,51123,2,0,L|40:205,2,58.4999982147217,2|0|0,0:0|0:0|0:0,0:0:0:0:
130,186,51850,2,0,P|165:211|252:219,1,116.999996429443,2|2,0:0|0:0,0:0:0:0:
308,195,52576,1,0,0:0:0:0:
348,130,52818,2,0,L|356:79,2,29.2499991073609,0|0|2,0:0|0:0|0:0,0:0:0:0:
68,116,54995,6,0,P|132:111|194:171,1,143.000004364014,4|8,0:0|0:0,0:0:0:0:
269,206,55720,1,0,0:0:0:0:
354,170,55962,2,8,P|360:121|371:89,2,71.5000021820069
402,249,56688,1,0,0:0:0:0:
321,295,56930,6,0,L|163:273,1,143.000004364014,8|8,0:0|0:0,0:0:0:0:
94,236,57656,1,0,0:0:0:0:
146,163,57898,2,0,P|206:157|270:208,1,143.000004364014,8|8,0:0|0:0,0:0:0:0:
355,239,58623,1,0,0:0:0:0:
443,210,58865,6,0,P|454:142|412:67,1,143.000004364014,8|8,0:0|0:0,0:0:0:0:
334,109,59591,2,0,L|164:91,1,143.000004364014
101,70,60317,2,0,L|89:161,1,71.5000021820069,8|0,0:0|0:0,0:0:0:0:
104,233,60801,6,0,P|172:244|239:191,1,143.000004364014,8|8,0:0|0:0,0:0:0:0:
319,234,61527,1,0,0:0:0:0:
404,198,61769,2,0,L|428:273,2,71.5000021820069,8|8|8,0:0|0:0|0:0,0:0:0:0:
375,109,62494,1,0,0:0:0:0:
295,157,62736,6,0,P|225:160|167:115,1,143.000004364014,4|8,0:0|0:0,0:0:0:0:
86,73,63462,2,0,B|60:176|60:176|87:211,1,143.000004364014
156,261,64188,2,0,L|233:256,1,71.5000021820069,8|0,0:0|0:0,0:0:0:0:
314,289,64672,6,0,P|347:237|343:153,1,143.000004364014,8|8,0:0|0:0,0:0:0:0:
281,88,65398,1,0,0:0:0:0:
192,115,65639,2,0,L|182:196,2,71.5000021820069,8|0|8,0:0|0:0|0:0,0:0:0:0:
203,22,66365,1,0,0:0:0:0:
111,38,66607,6,0,P|75:82|86:177,1,143.000004364014,4|8,0:0|0:0,0:0:0:0:
119,248,67333,1,0,0:0:0:0:
210,231,67575,2,0,B|252:220|252:220|356:227,1,143.000004364014,8|8,0:0|0:0,0:0:0:0:
444,216,68301,1,0,0:0:0:0:
420,305,68543,6,0,L|263:313,1,143.000004364014,4|8,0:0|0:0,0:0:0:0:
186,333,69269,1,0,0:0:0:0:
101,294,69510,2,8,P|106:244|125:213,1,71.5000021820069
208,224,69994,2,8,L|295:211,1,71.5000021820069
356,162,70478,6,0,P|322:114|239:92,1,143.000004364014,4|8,0:0|0:0,0:0:0:0:
162,144,71204,1,0,0:0:0:0:
83,86,71446,2,0,L|73:9,2,74.7500014257431,8|8|8,0:0|0:0|0:0,0:0:0:0:
13,155,72172,1,0,0:0:0:0:
77,227,72414,6,0,L|247:221,1,149.500002851486,4|8,0:0|0:0,0:0:0:0:
323,225,73139,2,0,P|360:186|360:76,1,149.500002851486
278,132,73865,2,0,L|177:119,1,74.7500014257431,8|0,0:0|0:0,0:0:0:0:
112,157,74349,6,0,P|145:189|112:297,1,149.500002851486,8|8,0:0|0:0,0:0:0:0:
45,332,75075,2,0,L|224:323,1,149.500002851486
281,281,75801,2,0,L|364:294,1,74.7500014257431,8|0,0:0|0:0,0:0:0:0:
413,370,76285,6,0,P|447:314|415:216,1,149.500002851486,8|8,0:0|0:0,0:0:0:0:
361,167,77010,1,0,0:0:0:0:
269,134,77252,2,0,P|217:127|183:131,1,74.7500014257431,8|8,0:0|0:0,0:0:0:0:
108,174,77736,2,0,P|99:129|110:84,1,74.7500014257431,8|0,0:0|0:0,0:0:0:0:
169,29,78220,6,0,L|326:38,1,149.500002851486,4|8,0:0|0:0,0:0:0:0:
392,100,78946,1,0,0:0:0:0:
320,165,79188,2,0,L|337:268,2,74.7500014257431,8|8|8,0:0|0:0|0:0,0:0:0:0:
240,107,79914,1,8,0:0:0:0:
151,147,80156,6,0,B|129:103|155:56|155:56|117:30|88:45|88:45|62:76|74:125,1,224.250004277229,4|8,0:0|0:0,0:0:0:0:
67,174,81123,2,0,L|86:304,1,116.999996429443,8|8,0:0|0:3,0:0:0:0:
220,225,82091,6,0,P|203:172|128:149,1,116.999996429443,2|0,0:0|0:0,0:0:0:0:
303,152,83059,2,0,P|320:99|395:76,1,116.999996429443,2|0,0:0|0:0,0:0:0:0:
222,48,84027,1,2,0:0:0:0:
256,192,84269,12,0,87898,0:0:0:0:
