osu file format v14

[General]
AudioFilename: audio.mp3
AudioLeadIn: 0
PreviewTime: 54027
Countdown: 0
SampleSet: Soft
StackLeniency: 0.2
Mode: 0
LetterboxInBreaks: 0
WidescreenStoryboard: 0

[Editor]
DistanceSpacing: 0.7
BeatDivisor: 4
GridSize: 16
TimelineZoom: 1

[Metadata]
Title:Word of Dawn (TV Size)
TitleUnicode:Word of Dawn (TV Size)
Artist:Tada Aoi
ArtistUnicode:多田葵
Creator:miradzin
Version:Memories
Source:Rewrite
Tags:ending 2 second ed TV アニメ size リライト trynna nanashima asami
BeatmapID:1224924
BeatmapSetID:578514

[Difficulty]
HPDrainRate:5
CircleSize:4.2
OverallDifficulty:7.2
ApproachRate:8.2
SliderMultiplier:1.6
SliderTickRate:1

[Events]
//Background and Video events
Video,0,"word of dawn~1.avi"
0,0,"memories.jpg",0,0
//Break Periods
//Storyboard Layer 0 (Background)
//Storyboard Layer 1 (Fail)
//Storyboard Layer 2 (Pass)
//Storyboard Layer 3 (Foreground)
//Storyboard Layer 4 (Overlay)
//Storyboard Sound Samples

[TimingPoints]
-165,483.870967741935,4,2,1,50,1,0
1770,-100,4,2,1,50,0,0
17253,-90.9090909090909,4,2,1,60,0,0
24995,-111.111111111111,4,2,1,55,0,0
25721,-142.857142857143,4,2,1,50,0,0
26447,-200,4,2,1,45,0,0
27415,-142.857142857143,4,2,1,45,0,0
35640,483.870967741935,4,2,1,55,1,0
35640,-100,4,2,1,55,0,0
43382,-100,4,2,1,60,0,0
47253,-111.111111111111,4,2,1,40,0,0
49189,-111.111111111111,4,2,1,35,0,0
52818,-111.111111111111,4,2,1,60,0,0
54994,-83.3333333333333,4,2,1,70,0,1
70479,-80,4,2,1,70,0,1
80156,-133.333333333333,4,2,1,50,0,0
84027,-133.333333333333,4,2,1,40,0,0
86446,-133.333333333333,4,2,1,30,0,0

[Colours]
Combo1 : 255,211,81
Combo2 : 153,98,255
Combo3 : 159,188,255
Combo4 : 244,74,100

[HitObjects]
256,192,76,12,0,1770,0:0:0:0:
128,112,2253,5,2,0:0:0:0:
224,183,2496,2,0,L|331:173,1,80
395,97,2980,2,0,L|288:87,1,80,2|0,0:0|0:0,0:0:0:0:
462,214,3463,6,0,B|448:270|448:270|362:335,1,160,2|2,0:0|0:0,0:0:0:0:
382,222,4189,1,0,0:0:0:0:
292,301,4431,2,0,L|210:292,1,80,2|0,0:0|0:0,0:0:0:0:
382,222,4915,2,0,L|464:213,1,80,2|0,0:0|0:0,0:0:0:0:
262,129,5399,1,0,0:0:0:0:
259,135,5520,1,0,0:0:0:0:
256,143,5641,6,0,P|206:144|174:129,1,80,2|0,0:0|0:0,0:0:0:0:
232,30,6124,1,2,0:0:0:0:
345,69,6366,1,0,0:0:0:0:
223,242,6609,1,2,0:0:0:0:
262,129,6851,1,0,0:0:0:0:
352,208,7092,1,0,0:0:0:0:
162,158,7334,6,0,P|170:81|237:28,1,160,2|0,0:0|0:0,0:0:0:0:
61,113,8060,2,0,L|95:204,1,80,2|0,0:0|0:0,0:0:0:0:
101,217,8423,1,0,0:0:0:0:
115,245,8544,2,0,P|167:257|215:240,1,80,2|0,0:0|0:0,0:0:0:0:
288,160,9028,1,2,0:0:0:0:
162,158,9270,1,0,0:0:0:0:
273,319,9512,6,0,L|288:149,1,160,2|0,0:0|0:0,0:0:0:0:
224,64,10238,2,0,P|156:36|76:71,1,160,2|0,0:0|0:0,0:0:0:0:
153,144,10963,1,0,0:0:0:0:
38,226,11205,6,0,B|92:206|92:206|195:241,1,160,2|2,0:0|0:0,0:0:0:0:
67,303,11931,1,0,0:0:0:0:
177,350,12173,1,2,0:0:0:0:
144,127,12415,1,0,0:0:0:0:
188,238,12657,1,2,0:0:0:0:
38,226,12899,1,0,0:0:0:0:
82,74,13141,6,0,P|155:46|219:95,1,160
268,198,13866,1,2,0:0:0:0:
38,234,14350,5,0,0:0:0:0:
144,127,14592,1,2,0:0:0:0:
341,262,15076,1,2,0:0:0:0:
341,262,15560,5,0,0:0:0:0:
322,143,15802,1,2,0:0:0:0:
230,221,16044,1,2,0:0:0:0:
230,221,16165,1,0,0:0:0:0:
230,221,16286,2,0,P|188:229|142:210,1,80,2|0,0:0|0:0,0:0:0:0:
110,98,16770,1,2,0:0:0:0:
202,62,17012,1,0,0:0:0:0:
202,62,17132,1,0,0:0:0:0:
202,62,17254,6,0,P|207:114|190:154,1,88.000002685547,2|0,0:0|0:0,0:0:0:0:
66,177,17737,1,0,0:0:0:0:
230,221,17980,2,0,B|285:185|285:185|416:222,1,176.000005371094,2|0,0:0|0:0,0:0:0:0:
296,272,18705,1,0,0:0:0:0:
316,97,18947,6,0,P|384:121|385:221,1,176.000005371094,2|0,0:0|0:0,0:0:0:0:
469,108,19673,1,0,0:0:0:0:
466,280,19915,1,0,0:0:0:0:
466,280,20036,1,0,0:0:0:0:
466,280,20157,1,2,0:0:0:0:
359,208,20399,1,2,0:0:0:0:
430,349,20641,1,2,0:0:0:0:
505,208,20883,1,2,0:0:0:0:
340,311,21125,6,0,L|253:308,1,88.000002685547,2|0,0:0|0:0,0:0:0:0:
222,298,21487,1,0,0:0:0:0:
197,279,21608,1,0,0:0:0:0:
195,146,21850,1,0,0:0:0:0:
254,227,22093,2,0,P|305:231|346:191,2,88.000002685547,2|0|0,0:0|0:0|0:0,0:0:0:0:
114,140,22818,6,0,P|152:77|246:82,1,176.000005371094,2|0,0:0|0:0,0:0:0:0:
254,227,23544,1,0,0:0:0:0:
195,146,23786,1,2,0:0:0:0:
352,138,24028,5,2,0:0:0:0:
315,44,24270,1,0,0:0:0:0:
279,258,24512,1,2,0:0:0:0:
276,155,24754,1,0,0:0:0:0:
487,257,24996,6,0,L|327:217,1,143.999995605469,2|0,0:0|0:0,0:0:0:0:
487,257,25722,6,0,L|421:147,1,111.999996582031,2|0,0:0|0:0,0:0:0:0:
487,257,26447,6,0,L|510:163,1,80,2|0,0:0|0:0,0:0:0:0:
403,328,27415,1,0,0:0:0:0:
238,265,27657,1,0,0:0:0:0:
238,265,27778,1,0,0:0:0:0:
238,265,27899,6,0,B|199:191|245:128|245:128|186:104|185:53|185:53|168:99|120:128,1,335.999989746094,2|0,0:0|0:0,0:0:0:0:
269,46,29593,1,0,0:0:0:0:
384,192,29834,5,2,0:0:0:0:
384,79,30076,1,0,0:0:0:0:
304,192,30318,1,0,0:0:0:0:
456,133,30560,1,0,0:0:0:0:
340,300,30802,5,2,0:0:0:0:
304,192,31044,1,0,0:0:0:0:
262,322,31286,1,0,0:0:0:0:
391,222,31528,1,0,0:0:0:0:
192,213,31770,5,2,0:0:0:0:
228,105,32012,1,0,0:0:0:0:
192,213,32253,1,0,0:0:0:0:
193,31,32496,6,0,P|264:31|302:73,1,111.999996582031,2|0,0:0|0:0,0:0:0:0:
323,134,33221,1,0,0:0:0:0:
150,140,33463,1,2,0:0:0:0:
150,140,33584,1,0,0:0:0:0:
150,140,33705,1,2,0:0:0:0:
367,100,35157,5,4,0:3:0:0:
390,84,35640,6,0,B|336:64|336:64|288:80|288:80|224:64,1,160,2|0,0:0|0:0,0:0:0:0:
172,168,36366,1,0,0:0:0:0:
324,222,36608,2,0,P|336:168|335:133,1,80,2|0,0:0|0:0,0:0:0:0:
203,257,37091,1,0,0:0:0:0:
309,312,37333,1,0,0:0:0:0:
335,143,37575,5,2,0:0:0:0:
335,143,37817,2,0,L|335:50,1,80
413,187,38301,2,0,P|388:216|345:233,1,80,2|0,0:0|0:0,0:0:0:0:
240,160,38785,1,0,0:0:0:0:
240,272,39027,1,4,0:3:0:0:
240,160,39269,1,0,0:0:0:0:
240,160,39389,1,0,0:0:0:0:
240,160,39510,6,0,L|240:64,1,80,2|0,0:0|0:0,0:0:0:0:
123,133,39994,1,0,0:0:0:0:
240,160,40237,1,0,0:0:0:0:
58,182,40478,2,0,P|42:134|53:90,1,80,2|0,0:0|0:0,0:0:0:0:
161,32,40962,1,0,0:0:0:0:
123,133,41205,1,0,0:0:0:0:
288,40,41446,5,2,0:0:0:0:
288,40,41688,2,0,L|383:35,1,80
213,125,42172,2,0,L|376:116,1,160,2|0,0:0|0:0,0:0:0:0:
308,249,42899,1,8,0:3:0:0:
443,142,43140,1,4,0:3:0:0:
378,273,43382,6,0,B|385:239|374:215|374:215|378:181|378:181|369:150|369:150|376:117|367:84,1,160,4|0,0:0|0:0,0:0:0:0:
235,120,44107,2,0,P|269:157|307:171,1,80,2|0,0:0|0:0,0:0:0:0:
290,31,44591,1,0,0:0:0:0:
154,111,44833,2,0,P|164:160|190:191,1,80,2|0,0:0|0:0,0:0:0:0:
50,34,45317,6,0,L|77:200,1,160,2|0,0:0|0:0,0:0:0:0:
100,310,46044,1,0,0:0:0:0:
311,235,46285,2,0,P|258:178|173:188,1,160,2|0,0:0|0:0,0:0:0:0:
225,262,47010,1,0,0:0:0:0:
407,125,47253,5,0,0:0:0:0:
368,304,47495,1,0,0:0:0:0:
464,256,47737,1,0,0:0:0:0:
368,192,47979,1,0,0:0:0:0:
329,371,48220,5,0,0:0:0:0:
368,192,48462,1,0,0:0:0:0:
368,304,48704,1,0,0:0:0:0:
272,240,48946,1,0,0:0:0:0:
110,368,49189,5,2,0:0:0:0:
144,272,49431,1,0,0:0:0:0:
176,176,49673,1,0,0:0:0:0:
33,193,49915,2,0,L|208:172,1,143.999995605469,2|0,0:0|0:0,0:0:0:0:
191,166,50519,1,0,0:0:0:0:
206,156,50640,1,0,0:0:0:0:
131,78,50882,1,0,0:0:0:0:
288,156,51123,6,0,P|271:107|236:76,2,71.9999978027344,2|0|0,0:0|0:0|0:0,0:0:0:0:
169,256,51849,2,0,L|344:235,1,143.999995605469,2|0,0:0|0:0,0:0:0:0:
327,229,52453,1,0,0:0:0:0:
342,219,52574,1,0,0:0:0:0:
432,80,52817,6,0,L|432:128,1,35.9999989013672,2|0,0:0|0:0,0:0:0:0:
432,224,53059,1,2,0:0:0:0:
256,192,53302,12,0,54753,0:0:0:0:
139,260,54995,6,0,B|198:236|198:236|334:270,1,191.999994140625,4|8,0:0|0:0,0:0:0:0:
442,186,55721,1,0,0:0:0:0:
442,186,55842,1,8,0:0:0:0:
442,186,55963,2,8,L|383:144,1,47.9999985351563
290,68,56204,1,0,0:0:0:0:
426,20,56447,1,8,0:0:0:0:
252,140,56689,1,0,0:0:0:0:
252,140,56809,1,8,0:0:0:0:
252,140,56930,6,0,P|213:92|209:55,1,95.9999970703126,8|0,0:0|0:0,0:0:0:0:
166,218,57415,1,8,0:0:0:0:
73,108,57656,1,0,0:0:0:0:
73,108,57777,1,8,0:0:0:0:
73,108,57898,2,0,L|61:177,1,47.9999985351563,8|8,0:0|0:0,0:0:0:0:
41,297,58139,1,0,0:0:0:0:
261,231,58382,2,0,L|156:216,1,95.9999970703126,8|0,0:0|0:0,0:0:0:0:
396,192,58865,6,0,P|398:139|391:88,1,95.9999970703126,8|0,0:0|0:0,0:0:0:0:
261,231,59349,2,0,P|259:284|266:335,1,95.9999970703126,8|0,0:0|0:0,0:0:0:0:
284,339,59713,1,8,0:0:0:0:
303,353,59834,2,8,L|356:341,1,47.9999985351563
485,294,60075,1,0,0:0:0:0:
338,249,60318,1,8,0:0:0:0:
492,154,60560,1,8,0:0:0:0:
492,154,60681,1,8,0:0:0:0:
492,154,60802,5,8,0:0:0:0:
433,22,61044,1,0,0:0:0:0:
316,153,61285,2,0,L|211:137,1,95.9999970703126,8|0,0:0|0:0,0:0:0:0:
200,151,61649,1,8,0:0:0:0:
179,163,61769,2,0,L|184:222,1,47.9999985351563,8|8,0:0|0:0,0:0:0:0:
194,354,62010,2,0,L|172:306,1,47.9999985351563,8|0,0:0|0:0,0:0:0:0:
46,242,62252,2,0,L|85:269,1,47.9999985351563,8|0,0:0|0:0,0:0:0:0:
281,368,62495,1,8,0:0:0:0:
298,351,62616,1,0,0:0:0:0:
314,333,62736,6,0,L|304:216,1,95.9999970703126,4|0,0:0|0:0,0:0:0:0:
288,96,63220,1,8,0:0:0:0:
183,210,63463,1,0,0:0:0:0:
195,36,63705,1,0,0:0:0:0:
195,36,63826,1,8,0:0:0:0:
195,36,63947,1,8,0:0:0:0:
305,237,64189,1,8,0:0:0:0:
288,96,64431,1,0,0:0:0:0:
183,210,64672,6,0,L|69:204,1,95.9999970703126,8|0,0:0|0:0,0:0:0:0:
350,159,65156,2,0,L|464:153,1,95.9999970703126,8|0,0:0|0:0,0:0:0:0:
466,140,65519,1,8,0:0:0:0:
484,125,65639,2,8,L|417:86,1,47.9999985351563
320,23,65881,1,8,0:0:0:0:
269,190,66123,1,8,0:0:0:0:
200,70,66365,1,0,0:0:0:0:
127,266,66608,6,0,P|203:274|270:177,1,191.999994140625,4|8,0:0|0:0,0:0:0:0:
283,340,67334,1,0,0:0:0:0:
173,179,67575,1,0,0:0:0:0:
173,179,67697,1,8,0:0:0:0:
173,179,67818,1,8,0:0:0:0:
162,357,68058,1,8,0:0:0:0:
23,282,68302,1,0,0:0:0:0:
227,272,68543,6,0,B|283:259|283:259|345:281|345:281|429:261,1,191.999994140625,4|8,0:0|0:0,0:0:0:0:
437,86,69269,1,0,0:0:0:0:
350,201,69511,1,0,0:0:0:0:
233,20,69752,1,8,0:0:0:0:
225,57,69873,1,8,0:0:0:0:
235,93,69994,1,8,0:0:0:0:
246,129,70115,1,8,0:0:0:0:
254,166,70237,1,8,0:0:0:0:
242,202,70358,1,8,0:0:0:0:
217,233,70479,6,0,P|125:219|104:222,1,100,8|0,0:0|0:0,0:0:0:0:
41,348,70963,1,8,0:0:0:0:
184,304,71204,1,0,0:0:0:0:
21,173,71447,1,8,0:0:0:0:
21,173,71568,1,8,0:0:0:0:
21,173,71689,1,0,0:0:0:0:
102,299,71931,1,8,0:0:0:0:
152,112,72173,1,0,0:0:0:0:
261,257,72414,6,0,L|369:247,1,100,8|0,0:0|0:0,0:0:0:0:
251,121,72898,2,0,L|143:111,1,100,8|0,0:0|0:0,0:0:0:0:
129,124,73261,1,8,0:0:0:0:
108,138,73382,2,8,L|119:216,1,50
135,336,73623,1,8,0:0:0:0:
261,257,73866,1,8,0:0:0:0:
193,191,74108,1,0,0:0:0:0:
306,346,74349,6,0,P|346:307|358:249,1,100,12|0,0:0|0:0,0:0:0:0:
275,139,74833,1,8,0:0:0:0:
436,323,75075,2,0,P|451:269|432:212,1,100,0|8,0:0|0:0,0:0:0:0:
430,204,75438,1,8,0:0:0:0:
412,186,75559,1,8,0:0:0:0:
261,257,75802,1,8,0:0:0:0:
195,88,76044,1,0,0:0:0:0:
142,271,76285,6,0,L|155:385,1,100,8|0,0:0|0:0,0:0:0:0:
296,184,76769,2,0,L|283:70,1,100,8|0,0:0|0:0,0:0:0:0:
299,64,77132,1,8,0:0:0:0:
316,46,77252,2,8,L|355:88,1,50
453,192,77494,2,0,L|398:198,1,50,8|0,0:0|0:0,0:0:0:0:
271,269,77736,2,0,L|326:275,1,50,8|0,0:0|0:0,0:0:0:0:
454,143,77979,1,8,0:0:0:0:
454,167,78099,1,8,0:0:0:0:
453,192,78221,6,0,P|447:252|429:311,1,100,8|0,0:0|0:0,0:0:0:0:
296,184,78704,1,8,0:0:0:0:
205,363,78947,1,8,0:0:0:0:
341,349,79189,1,8,0:0:0:0:
116,266,79430,5,8,0:0:0:0:
119,231,79551,1,8,0:0:0:0:
122,196,79672,1,8,0:0:0:0:
125,161,79793,1,8,0:0:0:0:
128,126,79914,1,8,0:0:0:0:
131,91,80035,1,8,0:0:0:0:
135,56,80156,1,12,0:0:0:0:
220,278,80882,5,8,0:0:0:0:
220,278,81124,1,8,0:0:0:0:
436,218,81608,1,8,0:3:0:0:
101,164,82092,6,0,B|141:140|185:154|185:154|232:181|296:150,1,180.000006866455,2|0,0:0|0:0,0:0:0:0:
234,68,83059,6,0,B|194:44|150:58|150:58|103:85|39:54,1,180.000006866455,2|0,0:0|0:0,0:0:0:0:
256,192,84027,12,0,87898,0:0:0:0:
