osu file format v14

[General]
AudioFilename: audio.mp3
AudioLeadIn: 0
PreviewTime: 54389
Countdown: 0
SampleSet: Soft
StackLeniency: 0.5
Mode: 0
LetterboxInBreaks: 0
WidescreenStoryboard: 0

[Editor]
DistanceSpacing: 1
BeatDivisor: 4
GridSize: 32
TimelineZoom: 1

[Metadata]
Title:Word of Dawn (TV Size)
TitleUnicode:Word of Dawn (TV Size)
Artist:Tada Aoi
ArtistUnicode:多田葵
Creator:Cami
Version:Skies Full of Stars
Source:Rewrite
Tags:anime key ending short version visual novel リライト
BeatmapID:1769920
BeatmapSetID:846250

[Difficulty]
HPDrainRate:4.5
CircleSize:4.2
OverallDifficulty:6.2
ApproachRate:8
SliderMultiplier:1.55
SliderTickRate:1

[Events]
//Background and Video events
0,0,"henlo.png",0,0
//Break Periods
//Storyboard Layer 0 (Background)
//Storyboard Layer 1 (Fail)
//Storyboard Layer 2 (Pass)
//Storyboard Layer 3 (Foreground)
//Storyboard Sound Samples

[TimingPoints]
-165,483.870967741935,4,2,1,49,1,0
11205,-100,4,2,1,56,0,0
11447,-100,4,2,1,49,0,0
15076,-100,4,2,1,56,0,0
15318,-100,4,2,1,49,0,0
17133,-100,4,2,1,52,0,0
17254,-98.4682713347921,4,2,1,56,0,0
17496,-98.4682713347921,4,2,1,49,0,0
18947,-98.4682713347921,4,2,1,56,0,0
19189,-98.4682713347921,4,2,1,49,0,0
21125,-98.4682713347921,4,2,1,56,0,0
22818,-98.4682713347921,4,2,1,63,0,0
23060,-98.4682713347921,4,2,1,56,0,0
26447,-139.75155279503,4,2,1,49,0,0
29351,-98.4682713347917,4,2,1,49,0,0
33464,-98.4682713347917,4,2,1,39,0,0
35157,-98.4682713347917,4,2,1,60,0,0
35640,483.870967741935,4,2,1,55,1,0
39027,-100,4,2,1,60,0,0
39269,-100,4,2,1,55,0,0
42898,-100,4,2,1,60,0,0
43381,-92.7841747311578,4,2,1,60,0,0
44712,-92.7841747311578,4,2,1,5,0,0
44833,-92.7841747311578,4,2,1,60,0,0
47252,-142.857142857143,4,2,1,35,0,0
47494,-142.857142857143,4,2,1,30,0,0
47736,-142.857142857143,4,2,1,45,0,0
47978,-142.857142857143,4,2,1,25,0,0
48220,-142.857142857143,4,2,1,35,0,0
48462,-142.857142857143,4,2,1,30,0,0
48704,-142.857142857143,4,2,1,45,0,0
48946,-142.857142857143,4,2,1,25,0,0
49188,-142.857142857143,4,2,1,35,0,0
49914,-142.857142857143,4,2,1,45,0,0
50398,-142.857142857143,4,2,1,35,0,0
51123,-142.857142857143,4,2,1,50,0,0
51365,-142.857142857143,4,2,1,35,0,0
51849,-142.857142857143,4,2,1,45,0,0
52333,-142.857142857143,4,2,1,35,0,0
52817,-142.857142857143,4,2,1,40,0,0
52938,-142.857142857143,4,2,1,45,0,0
53059,-142.857142857143,4,2,1,60,0,0
54510,-142.857142857143,4,2,1,5,0,0
54994,-85.7959965957864,4,2,1,75,0,1
69994,-85.7959965957864,4,2,1,75,0,0
70478,-85.7959965957864,4,2,1,75,0,1
80156,-100,4,2,1,56,0,0
82091,-100,4,2,1,46,0,0
83059,-100,4,2,1,36,0,0
84027,-100,4,2,1,24,0,0
84752,-100,4,2,1,44,0,0
85478,-100,4,2,1,15,0,0

[Colours]
Combo1 : 38,255,255
Combo2 : 163,163,163

[HitObjects]
218,274,1770,6,0,B|257:254|294:281|294:281|331:305|378:281,1,155,2|2,0:0|0:0,0:0:0:0:
409,223,2496,2,0,L|395:145,1,77.5,2|0,0:0|0:0,0:0:0:0:
329,105,2980,1,2,0:0:0:0:
186,166,3464,2,0,B|171:204|171:204|187:332,1,155,2|2,0:0|0:0,0:0:0:0:
250,368,4189,1,0,0:0:0:0:
250,368,4431,2,0,P|296:376|332:368,1,77.5,2|0,0:0|0:0,0:0:0:0:
382,316,4915,1,2,0:0:0:0:
283,195,5399,6,0,B|184:180|225:246|120:219,1,155,2|2,0:0|0:0,0:0:0:0:
66,187,6125,1,2,0:0:0:0:
66,187,6367,2,0,P|58:141|68:111,2,77.5,2|0|2,0:0|0:0|0:0,0:0:0:0:
134,149,7093,1,2,0:0:0:0:
219,74,7334,6,0,B|248:61|248:61|279:65|299:91|299:91|320:124|381:120,1,155,2|2,0:0|0:0,0:0:0:0:
426,97,8060,1,2,0:0:0:0:
481,151,8302,1,2,0:0:0:0:
479,170,8422,1,2,0:0:0:0:
477,189,8543,1,2,0:0:0:0:
419,241,8786,2,0,L|423:285,3,38.75,0|0|2|0,0:0|0:0|0:0|0:0,0:0:0:0:
444,311,9270,1,2,0:0:0:0:
332,343,9512,6,0,B|296:349|296:349|248:320|176:329,1,155,2|2,0:0|0:0,0:0:0:0:
115,370,10238,2,0,P|76:369|28:353,1,77.5,2|0,0:0|0:0,0:0:0:0:
4,286,10722,1,2,0:0:0:0:
92,159,11205,2,0,B|131:140|171:157|171:157|207:173|252:143,1,155,2|2,0:0|0:0,0:0:0:0:
292,90,11931,2,0,P|287:45|265:16,2,77.5,2|0|2,0:0|0:0|0:0,0:0:0:0:
215,76,12657,1,2,0:0:0:0:
241,149,12899,1,2,0:0:0:0:
356,136,13141,5,2,0:0:0:0:
356,136,13867,2,0,B|372:178|372:178|355:289,1,155,2|0,0:0|0:0,0:0:0:0:
286,322,14593,1,2,0:0:0:0:
286,322,15076,2,0,B|248:304|213:326|213:326|170:352|122:314,1,155,2|0,0:0|0:0,0:0:0:0:
84,269,15802,1,2,0:0:0:0:
144,220,16044,1,2,0:0:0:0:
163,221,16164,1,2,0:0:0:0:
182,222,16286,2,0,P|215:202|150:142,1,155,2|0,0:0|0:0,0:0:0:0:
44,192,17012,1,2,0:0:0:0:
13,169,17132,1,2,0:0:0:0:
1,133,17254,6,0,B|0:107|7:82|7:82|54:44|133:61,1,157.411114286961,6|0,0:0|0:0,0:0:0:0:
172,100,17980,2,0,B|205:108|233:102|233:102|277:72|341:82,1,157.411114286961,2|0,0:0|0:0,0:0:0:0:
392,119,18705,1,2,0:0:0:0:
306,201,18947,2,0,L|319:280,1,78.7055571434803,2|0,0:0|0:0,0:0:0:0:
273,343,19431,2,0,B|242:366|201:365|201:365|181:324|134:313,1,157.411114286961,2|2,0:0|0:0,0:0:0:0:
140,314,20399,1,2,0:0:0:0:
91,251,20641,2,0,L|97:166,1,78.7055571434803,2|0,0:0|0:0,0:0:0:0:
45,66,21125,6,0,B|81:94|124:76|124:76|164:55|206:83,1,157.411114286961,2|2,0:0|0:0,0:0:0:0:
228,147,21851,1,2,0:0:0:0:
308,71,22093,2,0,L|402:66,1,78.7055571434803,2|2,0:0|0:0,0:0:0:0:
455,104,22576,1,0,0:0:0:0:
375,176,22818,2,0,B|367:216|367:216|393:331,1,157.411114286961,2|0,0:0|0:0,0:0:0:0:
465,361,23544,1,2,0:0:0:0:
493,287,23786,2,0,P|499:237|509:203,2,78.7055571434803,0|2|0,0:0|0:0|0:0,0:0:0:0:
414,299,24512,2,0,L|372:295,3,39.3527785717402
338,310,24996,6,0,B|314:317|287:306|287:306|248:288|176:293,1,157.411114286961,2|0,0:0|0:0,0:0:0:0:
69,295,25722,2,0,B|104:256|104:256|109:189|89:131,1,157.411114286961,2|0,0:0|0:0,0:0:0:0:
162,42,26447,6,0,B|145:58|116:68|116:68|209:93|211:195,1,221.822216505775,2|0,0:0|0:0,0:0:0:0:
186,292,27657,1,2,0:0:0:0:
180,319,27777,1,2,0:0:0:0:
184,346,27899,2,0,B|225:368|270:349|270:349|314:328|307:265|307:265|300:227|307:198|307:198|364:222|405:194,1,332.733324758663,2|0,0:0|0:0,0:0:0:0:
454,172,29593,1,2,0:0:0:0:
357,109,29834,6,0,B|309:94|309:94|202:111,1,157.411114286961,2|0,0:0|0:0,0:0:0:0:
168,182,30560,1,0,0:0:0:0:
55,141,30802,2,0,P|87:213|92:291,1,157.411114286961,2|0,0:0|0:0,0:0:0:0:
245,329,31770,6,0,P|283:312|337:309,2,78.7055571434803,2|0|0,0:0|0:0|0:0,0:0:0:0:
179,241,32496,2,0,P|102:210|24:206,1,157.411114286961,2|0,0:0|0:0,0:0:0:0:
7,281,33222,1,2,0:0:0:0:
111,346,33464,1,2,0:0:0:0:
128,337,33584,1,2,0:0:0:0:
147,332,33705,1,2,0:0:0:0:
147,332,35157,1,8,0:3:0:0:
348,196,35640,6,0,B|340:218|329:237|329:237|328:290|372:349,1,155,6|0,3:2|3:0,0:0:0:0:
456,347,36365,1,2,0:0:0:0:
456,347,37091,1,0,3:0:0:0:
479,272,37333,1,0,1:2:0:0:
362,263,37575,6,0,B|332:277|307:302|307:302|264:280|211:288,1,155,2|0,3:2|3:0,0:0:0:0:
165,340,38301,2,0,B|137:313|142:269|142:269|147:223|113:188,1,155,2|0,1:2|0:0,0:0:0:0:
66,252,39027,1,8,3:3:0:0:
120,196,39269,1,2,0:0:0:0:
62,102,39510,6,0,B|69:114|90:122|90:122|143:121|207:80,1,155,2|0,3:2|3:2,0:0:0:0:
247,20,40236,1,2,0:0:0:0:
318,84,40478,2,0,B|323:136|326:187|326:187|311:238,1,155,2|0,3:2|3:2,0:0:0:0:
237,215,41204,1,2,1:2:0:0:
271,321,41446,6,0,P|347:322|397:266,1,155,2|0,1:2|3:0,0:0:0:0:
371,193,42172,2,0,P|360:153|359:105,1,77.5,2|0,0:0|3:0,0:0:0:0:
435,24,42656,1,2,0:0:0:0:
461,136,42898,1,8,3:3:0:0:
486,156,43139,1,8,0:3:0:0:
358,117,43381,6,0,P|307:111|253:126,1,83.5271774063642,6|0,0:2|3:0,0:0:0:0:
244,239,43865,1,8,0:2:0:0:
315,195,44107,1,0,3:0:0:0:
182,182,44349,2,0,B|158:215|158:215|161:307,1,125.290766109546,2|0,1:2|0:0,0:0:0:0:
176,324,44833,1,8,0:0:0:0:
253,292,45075,1,0,3:0:0:0:
119,245,45317,6,0,P|96:205|98:155,1,83.5271774063642,2|0,1:2|3:0,0:0:0:0:
236,122,45801,2,0,P|212:161|168:185,1,83.5271774063642,10|0,0:2|3:0,0:0:0:0:
70,82,46285,2,0,P|116:82|158:108,1,83.5271774063642,2|0,1:2|3:0,0:0:0:0:
181,181,46769,1,10,0:0:0:0:
94,168,47010,1,0,3:0:0:0:
163,262,47252,6,0,P|208:261|230:247,2,54.2499983444214,2|0|2,1:2|0:0|0:0,0:0:0:0:
143,251,47978,1,0,0:0:0:0:
78,291,48220,2,0,P|72:319|75:352,2,54.2499983444214,2|0|2,0:0|0:0|0:0,0:0:0:0:
93,310,48946,1,0,0:0:0:0:
178,349,49188,6,0,P|209:343|245:340,1,54.2499983444214,2|0,0:0|0:0,0:0:0:0:
305,310,49672,2,0,P|336:316|372:319,1,54.2499983444214,0|2,0:0|0:0,0:0:0:0:
358,318,50398,1,0,0:0:0:0:
380,293,50639,1,2,0:0:0:0:
380,293,51123,6,0,P|384:261|382:233,1,54.2499983444214,2|0,0:0|0:0,0:0:0:0:
306,217,51607,2,0,P|302:185|304:157,1,54.2499983444214,0|2,0:0|0:0,0:0:0:0:
303,163,52333,1,0,0:0:0:0:
318,136,52575,1,2,0:0:0:0:
256,47,52817,1,2,0:0:0:0:
218,39,52937,1,2,0:0:0:0:
183,54,53058,5,2,0:0:0:0:
256,192,53180,12,0,54510,0:0:0:0:
193,250,54994,6,0,P|290:271|340:203,1,180.661108094089,6|10,0:0|0:0,0:0:0:0:
316,128,55720,1,2,3:2:0:0:
416,86,55962,1,0,1:0:0:0:
438,87,56082,1,8,0:0:0:0:
461,89,56203,1,2,3:2:0:0:
446,209,56446,1,10,0:0:0:0:
355,261,56688,2,0,P|345:288|346:311,1,45.1652770235223,2|2,3:2|0:0,0:0:0:0:
332,336,56930,6,0,B|290:304|244:320|244:320|195:341|155:299,1,180.661108094089,2|10,1:2|0:0,0:0:0:0:
138,219,57656,1,2,3:2:0:0:
230,154,57898,1,0,1:0:0:0:
228,131,58019,1,8,0:0:0:0:
226,108,58139,1,2,3:2:0:0:
140,37,58381,2,0,P|117:76|115:121,1,90.3305540470446,10|2,0:0|3:2,0:0:0:0:
230,154,58865,6,0,B|263:187|263:187|269:334,1,180.661108094089,2|10,1:2|0:0,0:0:0:0:
194,373,59591,1,2,3:2:0:0:
115,306,59833,1,0,1:0:0:0:
84,312,59954,1,8,0:0:0:0:
53,319,60075,1,2,3:2:0:0:
47,206,60317,1,10,0:0:0:0:
136,217,60559,2,0,P|164:203|178:182,1,45.1652770235223,2|2,3:2|0:2,3:2:0:0:
172,151,60801,6,0,P|244:102|325:132,1,180.661108094089,2|10,1:2|0:0,0:0:0:0:
342,221,61527,1,2,3:2:0:0:
438,164,61769,1,0,1:0:0:0:
469,170,61890,1,8,0:0:0:0:
500,177,62011,1,2,3:2:0:0:
464,276,62252,1,10,0:0:0:0:
342,221,62494,1,8,0:0:0:0:
297,227,62614,1,8,0:0:0:0:
252,233,62736,6,0,B|221:250|205:275|205:275|149:257|84:276,1,180.661108094089,6|10,1:2|0:0,0:0:0:0:
46,353,63462,1,2,3:2:0:0:
0,260,63704,1,0,1:2:0:0:
2,237,63824,1,8,0:0:0:0:
4,215,63945,1,2,3:2:0:0:
117,185,64188,1,8,0:0:0:0:
89,274,64430,1,2,3:2:0:0:
203,220,64672,6,0,P|194:132|119:91,1,180.661108094089,2|10,1:2|0:0,0:0:0:0:
42,138,65398,1,2,3:2:0:0:
8,19,65639,1,0,1:0:0:0:
39,17,65760,1,8,0:0:0:0:
70,15,65881,1,2,3:2:0:0:
180,24,66123,1,10,0:0:0:0:
119,91,66365,1,2,3:2:0:0:
152,225,66607,6,2,B|191:251|191:251|269:261|326:194,1,180.661108094089,6|10,1:2|0:0,0:0:0:0:
321,118,67333,1,2,3:2:0:0:
411,190,67575,1,0,1:0:0:0:
408,212,67695,1,8,0:0:0:0:
406,234,67816,1,2,3:2:0:0:
321,294,68059,2,0,P|306:252|312:207,1,90.3305540470446,10|2,0:0|3:2,0:0:0:0:
456,130,68543,6,0,B|495:105|502:58|502:58|480:3|426:-2,1,180.661108094089,2|10,1:2|0:0,0:0:0:0:
350,70,69269,1,2,3:2:0:0:
245,15,69510,1,2,1:2:0:0:
244,133,69752,2,0,L|251:189,1,45.1652770235223,10|8,0:0|0:0,0:0:0:0:
281,210,69994,1,8,0:0:0:0:
275,254,70114,1,8,0:0:0:0:
269,298,70236,1,8,0:0:0:0:
149,266,70478,6,0,B|106:226|32:235|32:235|49:207|42:166,1,180.661108094089,6|10,1:2|0:0,0:0:0:0:
28,92,71204,1,2,3:2:0:0:
122,147,71446,1,0,1:2:0:0:
144,146,71566,1,8,0:0:0:0:
167,145,71687,1,2,3:2:0:0:
135,22,71930,1,10,0:0:0:0:
214,67,72172,1,2,3:2:0:0:
340,23,72414,6,0,B|377:10|408:18|408:18|451:49|442:124,1,180.661108094089,2|10,1:2|0:0,0:0:0:0:
389,191,73139,1,2,3:2:0:0:
478,261,73381,1,0,1:0:0:0:
476,283,73501,1,8,0:0:0:0:
474,306,73622,1,2,3:2:0:0:
383,371,73865,1,10,0:0:0:0:
386,281,74107,1,2,3:2:0:0:
257,327,74349,6,0,B|216:351|173:325|173:325|131:301|85:324,1,180.661108094089,2|10,1:2|0:0,0:0:0:0:
8,372,75075,1,2,3:2:0:0:
5,258,75317,1,0,1:0:0:0:
8,226,75438,1,8,0:0:0:0:
11,194,75559,1,2,3:2:0:0:
131,166,75801,1,10,0:0:0:0:
184,239,76043,1,2,3:2:0:0:
322,203,76285,6,0,P|290:123|205:114,1,180.661108094089,2|10,1:2|0:0,0:0:0:0:
131,166,77010,1,2,3:2:0:0:
50,75,77252,1,0,1:0:0:0:
58,44,77373,1,8,0:0:0:0:
67,13,77494,1,2,3:2:0:0:
182,42,77736,1,10,0:0:0:0:
299,3,77978,1,8,0:0:0:0:
344,3,78098,1,8,0:0:0:0:
389,4,78220,6,0,B|409:19|426:38|426:38|450:101|423:173,1,180.661108094089,6|10,1:2|0:0,0:0:0:0:
355,224,78946,1,2,3:2:0:0:
266,124,79188,1,6,1:2:0:0:
191,229,79430,2,0,L|194:274,1,45.1652770235223,8|8,0:0|0:0,0:0:0:0:
120,275,79672,2,0,L|117:230,1,45.1652770235223,8|8,0:0|0:0,0:0:0:0:
78,335,79914,2,0,L|81:380,1,45.1652770235223,8|8,0:0|0:0,0:0:0:0:
153,352,80156,6,0,P|241:347|256:210,1,232.5,6|0,1:2|1:0,0:0:0:0:
194,274,81123,1,8,0:0:0:0:
194,274,81607,1,8,0:3:0:0:
99,150,82091,6,0,B|78:114|111:72|111:72|150:114|200:110|200:110|255:72|324:77,2,310,2|2|2,1:2|1:2|0:0,0:0:0:0:
114,166,84752,1,2,0:0:0:0:
122,169,85478,1,2,0:0:0:0:
