osu file format v14

[General]
AudioFilename: audio.mp3
AudioLeadIn: 0
PreviewTime: 54389
Countdown: 0
SampleSet: Soft
StackLeniency: 0.5
Mode: 0
LetterboxInBreaks: 0
WidescreenStoryboard: 1

[Editor]
DistanceSpacing: 1.2
BeatDivisor: 4
GridSize: 32
TimelineZoom: 1

[Metadata]
Title:Word of Dawn (TV Size)
TitleUnicode:Word of Dawn (TV Size)
Artist:Tada Aoi
ArtistUnicode:多田葵
Creator:Cami
Version:Normal
Source:Rewrite
Tags:anime key ending short version visual novel リライト
BeatmapID:1770115
BeatmapSetID:846250

[Difficulty]
HPDrainRate:3.3
CircleSize:3.2
OverallDifficulty:3.8
ApproachRate:4.5
SliderMultiplier:1.3
SliderTickRate:1

[Events]
//Background and Video events
0,0,"henlo.png",0,0
//Break Periods
2,47452,51799
//Storyboard Layer 0 (Background)
//Storyboard Layer 1 (Fail)
//Storyboard Layer 2 (Pass)
//Storyboard Layer 3 (Foreground)
//Storyboard Sound Samples

[TimingPoints]
-165,483.870967741935,4,2,1,49,1,0
11205,-100,4,2,1,56,0,0
11447,-100,4,2,1,49,0,0
15076,-100,4,2,1,56,0,0
15318,-100,4,2,1,49,0,0
17254,-98.4682713347921,4,2,1,56,0,0
17496,-98.4682713347921,4,2,1,49,0,0
18947,-98.4682713347921,4,2,1,56,0,0
19189,-98.4682713347921,4,2,1,49,0,0
21125,-98.4682713347921,4,2,1,56,0,0
22818,-98.4682713347921,4,2,1,63,0,0
23060,-98.4682713347921,4,2,1,56,0,0
26447,-106.382978723404,4,2,1,49,0,0
29351,-98.4682713347917,4,2,1,49,0,0
33464,-98.4682713347917,4,2,1,39,0,0
35157,-98.4682713347917,4,2,1,60,0,0
35640,483.870967741935,4,2,1,55,1,0
39027,-100,4,2,1,60,0,0
39269,-100,4,2,1,55,0,0
42898,-100,4,2,1,60,0,0
43381,-92.7841747311578,4,2,1,60,0,0
44833,-92.7841747311578,4,2,1,60,0,0
47252,-92.7841747311578,4,2,1,35,0,0
53059,-142.857142857143,4,2,1,60,0,0
54994,-90.9090909090909,4,2,1,75,0,1
69994,-85.7959965957864,4,2,1,75,0,0
70478,-85.7959965957864,4,2,1,75,0,1
80156,-100,4,2,1,56,0,0
82091,-100,4,2,1,46,0,0
83059,-100,4,2,1,36,0,0
84027,-125,4,2,1,24,0,0
84752,-166.666666666667,4,2,1,44,0,0
85478,-166.666666666667,4,2,1,15,0,0

[Colours]
Combo1 : 38,255,255
Combo2 : 163,163,163

[HitObjects]
269,154,1770,5,2,0:0:0:0:
375,40,2254,1,2,0:0:0:0:
375,40,2496,2,0,P|438:35|505:58,1,130,0|2,0:0|0:0,0:0:0:0:
507,211,3464,1,2,0:0:0:0:
365,276,3947,1,2,0:0:0:0:
269,154,4431,2,0,P|206:149|139:172,1,130,2|0,0:0|0:0,0:0:0:0:
143,325,5399,1,2,0:0:0:0:
143,325,5641,6,0,B|216:352|200:297|275:321,2,130,2|2|2,0:0|0:0|0:0,0:0:0:0:
22,225,7093,1,2,0:0:0:0:
22,225,7334,2,0,B|4:192|19:158|19:158|-5:131|0:78,2,130,2|2|2,0:0|0:0|0:0,0:0:0:0:
100,229,8544,2,0,B|116:225|140:231|140:231|160:177|223:152,1,130,0|2,0:0|0:0,0:0:0:0:
352,149,9512,5,2,0:0:0:0:
506,173,9996,1,2,0:0:0:0:
506,173,10238,2,0,P|506:107|462:39,2,130,2|2|2,0:0|0:0|0:0,0:0:0:0:
402,289,11689,1,2,0:0:0:0:
402,289,11931,2,0,P|366:304|325:301,1,65,2|0,0:0|0:0,0:0:0:0:
271,341,12415,2,0,P|235:326|194:329,1,65,2|0,0:0|0:0,0:0:0:0:
146,372,12899,1,2,0:0:0:0:
146,372,13141,1,2,0:0:0:0:
146,372,13867,6,0,P|127:311|139:248,1,130,2|0,0:0|0:0,0:0:0:0:
205,205,14593,1,2,0:0:0:0:
144,61,15076,2,0,P|106:33|16:21,2,130,2|2|2,0:0|0:0|0:0,0:0:0:0:
199,116,16286,2,0,P|274:125|333:107,1,130,2|2,0:0|0:0,0:0:0:0:
380,54,17012,1,2,0:0:0:0:
445,99,17254,5,6,0:0:0:0:
467,254,17738,1,2,0:0:0:0:
393,284,17980,2,0,B|363:304|330:289|330:289|299:272|266:287,1,132.022224885838,2|2,0:0|0:0,0:0:0:0:
244,363,18705,1,0,0:0:0:0:
170,333,18947,2,0,P|160:273|194:209,1,132.022224885838,2|0,0:0|0:0,0:0:0:0:
332,138,19915,1,2,0:0:0:0:
393,284,20399,1,2,0:0:0:0:
499,166,20883,1,2,0:0:0:0:
499,166,21125,6,0,B|498:120|479:80|479:80|434:56,1,132.022224885838,2|2,0:0|0:0,0:0:0:0:
361,59,21851,2,0,B|330:72|295:61|295:61|254:77|241:117,1,132.022224885838,2|2,0:0|0:0,0:0:0:0:
264,185,22576,1,0,0:0:0:0:
264,185,22818,1,2,0:0:0:0:
107,211,23302,1,2,0:0:0:0:
107,211,23544,2,0,P|96:247|100:278,2,66.011112442919,0|2|0,0:0|0:0|0:0,0:0:0:0:
179,256,24270,1,2,0:0:0:0:
179,256,24512,1,2,0:0:0:0:
295,363,24996,6,0,B|316:363|341:355|341:355|392:360|419:325|419:325|445:287|488:287,2,198.033337328757,2|2|2,0:0|0:0|0:0,0:0:0:0:
295,363,27899,2,0,B|-10:388|102:105|272:250,1,427.699993473816,2|0,0:0|0:0,0:0:0:0:
316,185,29834,1,2,0:0:0:0:
316,185,30802,1,2,0:0:0:0:
316,185,31770,6,0,B|274:189|274:189|238:225|175:218,1,132.022224885838,2|0,0:0|0:0,0:0:0:0:
118,187,32496,2,0,B|98:199|78:222|78:222|74:311,1,132.022224885838,2|0,0:0|0:0,0:0:0:0:
109,372,33222,1,2,0:0:0:0:
256,320,33705,1,2,0:0:0:0:
256,320,35157,1,8,0:3:0:0:
169,190,35640,6,0,B|152:157|168:127|168:127|183:96|170:60,1,130,6|0,0:0|3:0,0:0:0:0:
129,0,36365,1,2,0:0:0:0:
52,137,36849,1,2,0:0:0:0:
52,137,37091,2,0,P|58:173|58:212,1,65,2|0,3:2|1:0,0:0:0:0:
34,275,37575,2,0,P|57:323|155:331,1,130,2|0,1:2|3:0,0:0:0:0:
194,302,38301,2,0,B|231:293|231:293|272:284|265:323|324:309,1,130,2|0,0:0|0:0,0:0:0:0:
377,259,39027,1,8,3:0:0:0:
489,366,39510,6,0,B|484:316|484:316|502:276|491:224,1,130,2|0,3:2|3:0,0:0:0:0:
486,81,40478,2,0,B|486:45|472:21|472:21|436:-1|392:12,1,130,2|0,3:2|3:0,0:0:0:0:
345,57,41204,1,0,1:0:0:0:
345,57,41446,2,0,P|361:109|364:189,1,130,2|0,1:2|3:0,0:0:0:0:
312,242,42172,2,0,B|289:255|260:250|260:250|239:243|239:243|196:241|173:255,1,130,2|2,0:0|1:2,0:0:0:0:
127,301,42898,2,0,P|89:332|51:338,1,65,8|4,3:3|3:3,3:3:0:0:
58,255,43381,6,0,P|42:178|65:110,1,140.110104036482,6|10,0:0|0:0,0:0:0:0:
132,79,44107,2,0,B|172:72|195:85|195:85|213:121|267:126,1,140.110104036482,2|0,3:2|3:0,0:0:0:0:
335,95,44833,1,8,0:0:0:0:
487,23,45317,6,0,P|499:66|502:118,1,70.055052018241,2|0,1:2|3:0,0:0:0:0:
433,140,45801,2,0,P|421:183|418:235,1,70.055052018241,10|0,0:2|3:0,0:0:0:0:
442,288,46285,1,2,1:2:0:0:
282,340,46769,1,10,0:0:0:0:
147,239,47252,1,2,1:2:0:0:
256,320,53059,5,2,0:0:0:0:
256,320,54994,6,0,B|263:291|278:269|278:269|269:232|269:182,1,143.000004364014,6|10,1:2|0:0,0:0:0:0:
340,134,55720,2,0,P|290:98|208:122,1,143.000004364014,2|2,3:2|3:2,0:0:0:0:
183,195,56446,1,8,0:0:0:0:
86,336,56930,2,0,B|80:307|57:287|57:287|24:259|39:184,1,143.000004364014,2|8,1:2|0:0,0:0:0:0:
102,154,57656,1,2,3:2:0:0:
256,64,58139,1,2,3:2:0:0:
256,64,58381,1,10,0:0:0:0:
371,192,58865,6,0,B|420:192|420:192|457:157|445:106,1,143.000004364014,2|10,1:2|0:0,0:0:0:0:
467,23,59591,2,0,P|411:27|359:103,1,143.000004364014,2|2,3:2|3:2,0:0:0:0:
291,142,60317,1,10,0:0:0:0:
291,142,60559,2,0,B|254:159|221:141|221:141|176:121|130:155,1,143.000004364014,2|2,3:2|3:2,0:0:0:0:
192,225,61285,1,8,0:0:0:0:
192,225,61527,2,0,P|146:288|64:287,1,143.000004364014,2|0,3:2|3:0,0:0:0:0:
103,208,62252,1,8,0:0:0:0:
29,53,62736,6,0,B|37:35|56:19|56:19|110:2|167:20,1,143.000004364014,2|10,1:2|0:0,0:0:0:0:
217,74,63462,1,0,3:0:0:0:
388,63,63946,1,0,3:0:0:0:
388,63,64188,1,8,0:0:0:0:
486,205,64672,2,0,B|491:226|487:250|487:250|426:258|409:320,1,143.000004364014,2|10,1:2|0:0,0:0:0:0:
494,336,65398,1,2,3:2:0:0:
323,350,65881,1,2,3:2:0:0:
323,350,66123,1,8,0:0:0:0:
256,192,66607,6,0,B|248:163|248:142|248:142|278:101|252:40,1,143.000004364014,6|10,1:2|0:0,0:0:0:0:
179,89,67333,2,0,P|117:121|51:93,1,143.000004364014,2|0,3:2|3:0,0:0:0:0:
114,34,68059,1,10,0:0:0:0:
78,201,68543,2,0,B|76:262|76:262|90:283|90:283|86:345,1,143.000004364014,2|8,1:2|0:0,0:0:0:0:
167,367,69269,2,0,P|213:360|249:358,1,71.5000021820069,2|0,3:2|1:0,0:0:0:0:
323,360,69752,2,0,P|369:367|405:369,2,71.5000021820069,8|10|10,3:0|0:0|0:0,0:0:0:0:
372,281,70478,6,0,B|380:237|349:211|349:211|320:189|331:144,1,151.522219691817,6|10,1:2|0:0,0:0:0:0:
423,150,71204,2,0,P|407:89|312:53,1,151.522219691817,2|0,3:2|3:0,0:0:0:0:
256,96,71930,1,10,0:0:0:0:
256,96,72172,2,0,B|233:111|204:112|204:112|172:145|187:218,1,151.522219691817,2|0,3:2|3:0,0:0:0:0:
256,256,72898,1,10,0:0:0:0:
74,260,73381,1,2,1:2:0:0:
65,78,73865,2,0,P|78:39|116:8,1,75.7611098459084,10|2,0:0|0:0,0:0:0:0:
186,51,74349,6,0,B|202:59|228:61|228:61|257:55|257:55|300:71|366:56,1,151.522219691817,2|10,1:2|0:0,0:0:0:0:
413,14,75075,1,2,3:2:0:0:
409,195,75559,1,2,3:2:0:0:
409,195,75801,1,10,0:0:0:0:
256,96,76285,2,0,B|219:136|227:194|227:194|213:227|192:237,1,151.522219691817,2|10,1:2|0:0,0:0:0:0:
110,234,77010,2,0,P|117:196|137:165,2,75.7611098459084,2|8|8,1:2|0:0|0:0,0:0:0:0:
155,312,77736,1,10,0:0:0:0:
331,357,78220,6,0,B|378:376|409:368|409:368|443:335|439:296,1,151.522219691817,2|10,1:2|0:0,0:0:0:0:
381,235,78946,1,2,0:0:0:0:
381,235,79188,6,0,L|385:152,2,75.7611098459084,6|8|8,0:0|0:0|0:0,0:0:0:0:
256,320,80156,1,6,1:2:0:0:
256,320,81123,1,10,0:0:0:0:
256,320,82091,6,0,B|224:287|175:292|175:292|150:246|99:243|99:243|53:240|30:188,1,260,2|2,1:2|1:2,0:0:0:0:
183,23,84027,6,0,B|152:44|150:89|150:89|147:139|116:157,2,156,2|2|2,0:0|0:0|0:0,0:0:0:0:
