osu file format v14

[General]
AudioFilename: audio.mp3
AudioLeadIn: 0
PreviewTime: 5203
Countdown: 0
SampleSet: Normal
StackLeniency: 0.6
Mode: 2
LetterboxInBreaks: 0
WidescreenStoryboard: 0

[Editor]
DistanceSpacing: 2.5
BeatDivisor: 4
GridSize: 4
TimelineZoom: 0.3999999

[Metadata]
Title:Tlen (prod. Rumak)
TitleUnicode:Tlen (prod. Rumak)
Artist:Taco Hemingway
ArtistUnicode:Taco Hemingway
Creator:Jakkubon
Version:O2
Source:
Tags:Rap Oxygen Polish Poland
BeatmapID:2122254
BeatmapSetID:1014007

[Difficulty]
HPDrainRate:4
CircleSize:3
OverallDifficulty:6
ApproachRate:6
SliderMultiplier:2
SliderTickRate:1

[Events]
//Background and Video events
0,0,"youtu.be-BiLatOZzNL4 (1).png",0,0
//Break Periods
//Storyboard Layer 0 (Background)
//Storyboard Layer 1 (Fail)
//Storyboard Layer 2 (Pass)
//Storyboard Layer 3 (Foreground)
//Storyboard Sound Samples

[TimingPoints]
6886,2242.99065420561,4,2,1,100,1,0
6886,-100,4,1,1,100,0,1
9152,-100,4,1,2,100,0,1
11393,-100,4,1,2,100,0,1
15875,-100,4,1,1,100,0,1
18117,-100,4,1,2,100,0,1
19798,-100,4,1,1,100,0,1
20918,-100,4,1,2,100,0,1
24840,-100,4,1,1,100,0,1
27081,-100,4,1,2,100,0,1
33805,-100,4,1,1,100,0,1
36046,-100,4,1,2,100,0,1
38278,-100,4,2,1,100,0,1
41089,-100,4,1,2,100,0,1
42773,-100,4,2,1,100,0,0
49494,-100,4,1,2,100,0,0
50614,-100,4,2,1,100,0,0
58459,-100,4,1,2,100,0,0
59579,-100,4,2,1,100,0,0
67423,-100,4,1,2,100,0,0
68544,-100,4,2,1,100,0,0
78661,-100,4,1,1,100,0,1
80871,-100,4,1,2,100,0,1
87594,-100,4,1,1,100,0,1
89836,-100,4,1,2,100,0,1
92077,-100,4,1,1,100,0,1
94318,-100,4,1,2,100,0,1
96559,-100,4,1,1,100,0,1
98801,-100,4,1,2,100,0,1
105524,-100,4,1,1,100,0,1
107765,-100,4,2,1,100,0,1
112808,-100,4,1,2,100,0,1
114549,-100,4,2,1,100,0,0
121213,-100,4,1,2,100,0,0
122333,-100,4,2,1,100,0,0
130178,-100,4,1,2,100,0,0
131298,-100,4,2,1,100,0,0
139143,-100,4,1,2,100,0,0
140263,-100,4,2,1,100,0,0
150437,-100,4,1,1,100,0,1
152590,-100,4,1,2,100,0,1
159314,-100,4,1,1,100,0,1
161555,-100,4,1,2,100,0,1
163796,-100,4,2,1,100,0,1
166037,-100,4,1,2,100,0,1
168278,-100,4,1,1,100,0,1
170520,-100,4,1,2,100,0,1
177243,-100,4,1,1,100,0,1
179485,-100,4,1,2,100,0,1
181726,-100,4,2,1,100,0,1
184527,-100,4,1,2,100,0,1
186325,-100,4,2,1,100,0,0
202457,-100,4,1,2,100,0,0
203017,-100,4,2,1,100,0,0
228791,-100,4,1,2,100,0,0
229912,-100,4,2,1,100,0,0
240157,-100,4,1,1,100,0,1
242239,-100,4,1,2,100,0,1
248962,-100,4,1,1,100,0,1
251204,-100,4,1,2,100,0,1
258100,-100,4,2,1,100,0,0
264651,-100,4,1,2,100,0,0
265772,-100,4,2,1,100,0,0

[Colours]
Combo1 : 39,80,239
Combo2 : 213,47,236

[HitObjects]
256,192,157,12,0,1278,0:0:0:0:
256,192,2400,12,0,3147,0:0:0:0:
227,199,4643,5,0,0:0:0:0:
378,198,5203,5,0,0:0:0:0:
310,201,5764,1,0,0:0:0:0:
242,209,6325,1,0,0:0:0:0:
123,218,6886,6,0,L|222:224,1,100
323,236,8568,1,8,0:0:0:0:
431,239,9128,6,0,L|331:237,1,100
209,235,10811,1,8,0:0:0:0:
85,234,11371,6,0,L|194:181,1,100
291,189,13054,1,8,0:0:0:0:
420,194,13614,6,0,L|415:144,1,50
307,144,14736,1,8,0:0:0:0:
210,144,15297,1,8,0:0:0:0:
83,152,15857,6,0,L|182:148,1,100
279,153,17540,1,8,0:0:0:0:
420,155,18100,6,2,L|320:152,1,100
160,183,19783,6,0,L|161:133,1,50
268,182,20904,2,0,L|271:133,1,50
381,195,22026,1,8,0:0:0:0:
242,207,22586,6,0,L|182:206,1,50
279,212,23708,1,8,0:0:0:0:
370,213,24269,1,8,0:0:0:0:
281,218,24829,6,0,L|181:217,1,100
91,213,26512,1,8,0:0:0:0:
223,223,27072,6,0,L|325:232,1,100
419,236,28755,1,8,0:0:0:0:
313,241,29315,6,0,L|213:241,1,100
115,239,30998,1,8,0:0:0:0:
234,228,31558,6,0,L|231:178,1,50
314,171,32680,1,8,0:0:0:0:
407,174,33241,1,8,0:0:0:0:
306,176,33801,6,0,L|206:176,1,100
76,181,35484,1,8,0:0:0:0:
200,240,36044,6,0,L|310:235,1,100
418,235,37727,1,8,0:0:0:0:
322,238,38287,6,0,L|315:168,1,50
211,188,39409,1,8,0:0:0:0:
96,196,39970,6,0,L|102:248,1,50
207,226,41091,2,0,P|262:200|198:134,1,150
381,143,43895,5,0,0:0:0:0:
203,155,45016,6,0,L|103:159,1,100
271,205,47259,2,0,L|369:177,1,100
219,195,49502,6,0,L|126:230,1,100
311,205,51745,6,0,L|412:159,1,100
89,219,53988,6,0,L|208:211,1,100
287,207,55671,1,0,0:0:0:0:
396,212,56231,2,0,B|487:197|380:211,1,100
145,213,58474,6,0,L|96:214,2,50
244,215,60157,1,0,0:0:0:0:
349,211,60717,6,0,L|402:212,2,50
160,209,62960,6,0,L|110:209,2,50
308,217,65203,6,0,L|408:191,1,100
177,206,67446,6,0,L|127:203,2,50
354,205,69689,6,0,L|434:134,1,100
199,131,71932,6,0,L|131:132,2,50
282,133,73614,1,0,0:0:0:0:
373,132,74175,5,0,0:0:0:0:
282,133,74736,2,0,L|232:138,1,50
110,145,75857,2,0,L|182:133,1,50
241,146,76979,5,0,0:0:0:0:
326,146,77540,1,0,0:0:0:0:
411,151,78100,1,0,0:0:0:0:
316,195,78661,6,0,L|216:203,1,100
101,241,80343,1,8,0:0:0:0:
212,296,80904,6,0,L|336:283,1,100
402,229,82586,1,8,0:0:0:0:
293,195,83147,6,0,L|193:205,1,100
87,167,84829,1,8,0:0:0:0:
192,132,85390,6,0,L|311:103,1,100
394,102,87072,1,8,0:0:0:0:
312,183,87633,6,0,L|212:185,1,100
110,186,89315,1,8,0:0:0:0:
240,276,89876,6,0,L|351:250,1,100
394,186,91558,1,8,0:0:0:0:
263,193,92119,6,0,L|268:116,1,50
166,170,93241,1,8,0:0:0:0:
73,174,93801,1,8,0:0:0:0:
185,178,94362,6,0,L|250:121,1,50
316,147,95484,1,8,0:0:0:0:
400,146,96044,1,8,0:0:0:0:
303,173,96605,6,0,L|203:178,1,100
94,219,98287,1,8,0:0:0:0:
203,262,98848,6,0,L|322:263,1,100
398,212,100530,1,8,0:0:0:0:
305,197,101091,6,0,L|225:132,1,100
128,128,102773,1,8,0:0:0:0:
236,134,103334,6,0,L|329:52,1,100
416,78,105016,1,8,0:0:0:0:
320,152,105577,6,0,L|222:174,1,100
120,207,107259,1,8,0:0:0:0:
197,264,107820,6,0,L|270:219,1,50
343,246,108942,2,0,L|373:190,1,50
264,228,110063,6,0,L|261:176,1,50
166,185,111185,1,8,0:0:0:0:
244,188,111745,6,0,L|307:182,1,50
380,209,112867,2,0,P|423:136|356:87,1,150
282,102,115110,6,0,L|211:108,1,50
116,207,116792,6,0,L|217:138,1,100
318,191,119035,6,0,L|450:171,1,100
286,178,121278,6,0,L|186:191,1,100
70,307,123521,6,0,L|179:267,1,100
229,232,125764,6,0,L|345:210,1,100
419,207,127446,1,0,0:0:0:0:
332,159,128007,2,0,L|232:168,1,100
71,202,130250,6,0,L|195:169,1,100
235,191,132493,5,0,0:0:0:0:
267,190,133054,1,0,0:0:0:0:
300,190,133614,1,0,0:0:0:0:
333,191,134175,1,0,0:0:0:0:
368,189,134736,1,0,0:0:0:0:
404,192,135297,1,0,0:0:0:0:
440,189,135857,1,0,0:0:0:0:
308,195,136979,6,0,L|258:199,2,50
388,191,139222,6,0,L|437:191,2,50
262,192,140904,1,0,0:0:0:0:
147,201,141465,6,0,L|97:194,2,50
240,198,143147,1,0,0:0:0:0:
330,198,143708,5,0,0:0:0:0:
240,198,144269,2,0,L|181:210,1,50
95,215,145390,1,0,0:0:0:0:
181,272,145951,2,0,L|299:269,1,100
429,198,148194,5,0,0:0:0:0:
342,202,148755,5,0,0:0:0:0:
258,202,149315,1,0,0:0:0:0:
181,205,149876,1,0,0:0:0:0:
71,266,150437,6,0,L|173:240,1,100
252,225,152119,1,8,0:0:0:0:
370,139,152680,6,0,L|274:168,1,100
195,168,154362,1,8,0:0:0:0:
89,172,154923,6,0,L|174:173,1,50
205,169,156044,1,0,0:0:0:0:
298,170,156605,1,0,0:0:0:0:
386,167,157166,6,0,L|387:105,1,50
285,115,158287,1,8,0:0:0:0:
195,119,158848,1,8,0:0:0:0:
88,125,159409,6,0,L|224:119,1,100
282,116,161091,1,8,0:0:0:0:
382,121,161652,6,0,P|332:117|282:125,1,100
194,134,163334,1,8,0:0:0:0:
78,225,163895,6,0,L|146:195,1,50
206,203,165016,1,8,0:0:0:0:
299,206,165577,1,8,0:0:0:0:
417,193,166138,6,0,L|327:238,1,100
239,245,167820,1,8,0:0:0:0:
120,217,168381,6,0,L|239:208,1,100
313,210,170063,1,8,0:0:0:0:
435,199,170624,6,0,L|335:208,1,100
240,212,172306,1,8,0:0:0:0:
124,229,172867,6,0,L|261:212,1,100
308,215,174549,1,8,0:0:0:0:
418,221,175110,6,0,L|395:177,1,50
304,175,176231,1,8,0:0:0:0:
214,179,176792,1,8,0:0:0:0:
106,196,177353,6,0,L|232:177,1,100
296,177,179035,1,8,0:0:0:0:
404,178,179596,6,0,L|354:181,1,50
268,188,180717,1,8,0:0:0:0:
190,194,181278,5,8,0:0:0:0:
111,196,181839,2,0,L|61:196,2,50
198,196,183521,5,8,0:0:0:0:
284,199,184082,1,8,0:0:0:0:
370,220,184643,6,0,P|424:186|357:126,1,150
124,251,188568,6,0,L|123:191,1,50
267,203,190811,5,0,0:0:0:0:
239,201,194175,5,0,0:0:0:0:
174,202,194736,1,0,0:0:0:0:
115,203,195297,1,0,0:0:0:0:
227,203,197540,6,0,L|278:198,1,50
369,202,199783,6,0,L|330:233,1,50
153,215,202586,6,0,L|218:196,1,50
328,199,204269,5,0,0:0:0:0:
160,196,206512,6,0,L|164:141,1,50
313,172,208755,5,0,0:0:0:0:
81,211,211558,5,0,0:0:0:0:
113,209,212119,1,0,0:0:0:0:
145,208,212680,1,0,0:0:0:0:
180,204,213241,1,0,0:0:0:0:
251,206,213801,6,0,L|311:198,1,50
210,199,215484,5,0,0:0:0:0:
152,201,216044,6,0,L|102:198,1,50
264,191,217727,5,0,0:0:0:0:
302,193,218287,2,0,L|373:192,1,50
111,202,219970,5,0,0:0:0:0:
151,197,220530,1,0,0:0:0:0:
185,195,221091,1,0,0:0:0:0:
228,193,221652,5,0,0:0:0:0:
281,196,222213,2,0,L|389:199,1,100
281,196,223895,5,0,0:0:0:0:
204,198,224456,2,0,L|104:201,1,100
224,205,226138,5,0,0:0:0:0:
284,203,226699,2,0,L|406:196,1,100
300,204,228942,6,0,L|200:201,1,100
142,204,230624,1,0,0:0:0:0:
216,271,231185,2,0,L|331:272,1,100
245,191,233428,6,0,L|195:191,1,50
140,191,234549,1,0,0:0:0:0:
63,191,235110,5,0,0:0:0:0:
142,258,235671,2,0,L|241:264,1,100
379,259,237353,6,0,L|376:204,1,50
304,197,238474,5,0,0:0:0:0:
239,199,239035,1,0,0:0:0:0:
181,199,239596,1,0,0:0:0:0:
89,243,240157,6,0,L|205:237,1,100
279,236,241839,1,8,0:0:0:0:
409,230,242400,6,0,L|309:238,1,100
223,249,244082,1,8,0:0:0:0:
110,269,244643,6,0,L|251:251,1,100
291,241,246325,1,8,0:0:0:0:
375,238,246886,6,0,L|412:199,1,50
295,196,248007,1,8,0:0:0:0:
214,198,248568,1,8,0:0:0:0:
89,202,249128,6,0,L|190:204,1,100
272,206,250811,1,8,0:0:0:0:
362,208,251371,6,0,L|367:137,1,50
269,162,252493,1,8,0:0:0:0:
192,162,253054,1,8,0:0:0:0:
106,182,253614,6,0,L|106:129,1,50
191,135,254736,1,8,0:0:0:0:
274,138,255297,1,8,0:0:0:0:
358,191,255857,6,0,L|360:132,1,50
278,138,256979,5,8,0:0:0:0:
186,136,257540,1,8,0:0:0:0:
102,137,258100,1,8,0:0:0:0:
234,148,260343,5,0,0:0:0:0:
352,145,262586,5,0,0:0:0:0:
270,185,264829,6,0,L|173:210,1,100
75,226,266512,5,0,0:0:0:0:
168,235,267072,1,0,0:0:0:0:
309,226,269315,5,0,0:0:0:0:
402,231,271558,5,0,0:0:0:0:
256,192,272119,8,0,280530,0:0:0:0:
