osu file format v14

[General]
AudioFilename: audio.mp3
AudioLeadIn: 0
PreviewTime: 82295
Countdown: 0
SampleSet: None
StackLeniency: 0.3
Mode: 0
LetterboxInBreaks: 0
WidescreenStoryboard: 0

[Editor]
Bookmarks: 108009,122295
DistanceSpacing: 0.5
BeatDivisor: 4
GridSize: 32
TimelineZoom: 1.7

[Metadata]
Title:Funk You All (Transforma Remix)
TitleUnicode:Funk You All (Transforma Remix)
Artist:Tack
ArtistUnicode:Tack
Creator:MastroCubo
Version:Insane
Source:
Tags:
BeatmapID:1457164
BeatmapSetID:688584

[Difficulty]
HPDrainRate:7
CircleSize:4
OverallDifficulty:7
ApproachRate:9
SliderMultiplier:1.4
SliderTickRate:1

[Events]
//Background and Video events
0,0,"Tangram.jpg",0,0
//Break Periods
//Storyboard Layer 0 (Background)
//Storyboard Layer 1 (Fail)
//Storyboard Layer 2 (Pass)
//Storyboard Layer 3 (Foreground)
//Storyboard Sound Samples

[TimingPoints]
13724,357.142857142857,4,1,0,100,1,0
13724,-133.333333333333,4,3,0,40,0,0
24795,-83.3333333333333,4,3,0,40,0,0
25152,-100,4,3,0,40,0,0
33723,-71.4285714285714,4,3,0,40,0,0
34259,-88.4955752212389,4,3,0,5,0,0
34616,-200,4,3,0,10,0,0
36581,-83.3333333333333,4,3,0,40,0,0
46581,-71.4285714285714,4,3,0,40,0,0
48009,-83.3333333333333,4,3,0,40,0,0
58009,-71.4285714285714,4,3,0,40,0,0
59081,-83.3333333333333,4,3,0,40,0,0
59438,-76.9230769230769,4,3,0,40,0,0
69438,-71.4285714285714,4,3,0,40,0,0
70509,-83.3333333333333,4,3,0,40,0,0
70866,-76.9230769230769,4,3,0,40,0,0
82295,-66.6666666666667,4,3,0,40,0,1
106581,-62.5,4,3,0,40,0,0
107295,-66.6666666666667,4,3,0,40,0,1

[HitObjects]
164,95,13724,6,0,P|147:146|176:204,1,105.000004005432
225,243,14259,2,0,L|249:242,3,17.500000667572
392,169,14616,1,0,0:0:0:0:
360,280,14795,2,0,P|357:322|364:340,1,52.5000020027161
467,302,15152,6,0,P|467:214|453:178,1,105.000004005432
391,156,15599,2,0,L|359:165,2,26.2500010013581
425,121,15866,1,0,0:0:0:0:
437,117,15955,1,0,0:0:0:0:
450,113,16044,1,0,0:0:0:0:
360,47,16224,2,0,P|334:44|297:49,1,52.5000020027161
210,82,16581,6,0,P|157:96|98:68,1,105.000004005432
44,22,17116,1,0,0:0:0:0:
49,149,17295,1,0,0:0:0:0:
163,16,17474,2,0,L|151:143,1,105.000004005432
237,174,18009,6,0,L|247:286,1,105.000004005432
319,326,18545,1,0,0:0:0:0:
369,256,18724,1,0,0:0:0:0:
246,278,18902,1,0,0:0:0:0:
150,283,19081,2,0,P|116:274|97:257,1,52.5000020027161
152,211,19438,6,0,L|66:228,1,78.7500030040742
30,213,19795,2,0,P|24:171|31:143,1,52.5000020027161
96,95,20152,1,0,0:0:0:0:
152,211,20331,1,0,0:0:0:0:
222,142,20509,2,0,P|227:114|223:83,1,52.5000020027161
306,25,20866,6,0,B|304:81|304:81|331:131,1,105.000004005432
406,52,21402,1,0,0:0:0:0:
435,144,21581,1,0,0:0:0:0:
491,22,21759,1,0,0:0:0:0:
491,22,21849,1,0,0:0:0:0:
491,22,21938,2,0,P|491:61|477:87,1,52.5000020027161
435,144,22295,6,0,P|424:188|436:251,1,105.000004005432
512,198,22831,1,0,0:0:0:0:
435,144,23009,1,0,0:0:0:0:
344,218,23188,2,0,L|346:248,1,17.500000667572
394,309,23366,2,0,P|427:321|462:318,1,52.5000020027161
435,246,23724,6,0,L|324:250,1,105.000004005432
225,254,24438,1,0,0:0:0:0:
435,246,24616,1,0,0:0:0:0:
381,151,24795,6,0,B|349:139|318:152|318:152|283:166|229:146,1,125.999996154785
177,134,25152,6,0,B|171:181|171:181|192:261,1,105
223,303,25509,1,0,0:0:0:0:
337,287,25688,2,0,P|349:252|349:208,1,70
293,88,26045,1,0,0:0:0:0:
185,32,26223,1,0,0:0:0:0:
185,32,26313,2,0,L|135:37,1,35
33,131,26581,6,0,B|80:164|80:164|141:155,1,105
206,144,26938,1,0,0:0:0:0:
291,228,27116,2,0,P|283:273|246:312,1,70
192,365,27473,1,0,0:0:0:0:
219,235,27652,1,0,0:0:0:0:
219,235,27741,2,0,L|226:196,2,35
269,292,28009,6,0,B|322:294|322:294|368:259,1,105
422,211,28366,1,0,0:0:0:0:
468,332,28545,2,0,P|428:358|387:363,1,70
274,326,28902,1,0,0:0:0:0:
274,326,28991,1,0,0:0:0:0:
274,326,29081,1,0,0:0:0:0:
274,326,29170,2,0,L|267:278,1,35
233,181,29438,6,0,B|256:133|256:133|315:113,1,105
378,97,29795,1,0,0:0:0:0:
456,201,29973,2,0,P|455:246|424:284,1,70
327,215,30331,1,0,0:0:0:0:
235,60,30509,1,0,0:0:0:0:
235,60,30598,2,0,L|280:39,1,35
449,30,30866,6,0,B|425:78|425:78|377:97,1,105
305,124,31223,1,0,0:0:0:0:
362,3,31402,1,0,0:0:0:0:
424,163,31581,2,0,P|416:204|391:235,1,70
305,124,31938,1,0,0:0:0:0:
81,205,32295,6,0,B|60:256|60:256|64:312,1,105
74,383,32652,1,0,0:0:0:0:
212,274,32831,2,0,P|206:223|186:196,1,70
101,121,33188,1,0,0:0:0:0:
101,121,33277,1,0,0:0:0:0:
101,121,33366,1,0,0:0:0:0:
187,80,33545,2,0,L|223:88,1,35
297,108,33723,6,0,B|316:156|303:205|303:205|287:258|304:304,1,195.999994018555
372,255,34259,2,0,P|384:289|421:318,1,79.100000241394
416,316,34527,1,0,0:0:0:0:
416,316,34616,6,0,P|501:209|372:255,1,367.5,0|0,0:0|0:0,0:3:0:0:
443,250,36581,6,0,B|442:186|442:186|418:120,1,125.999996154785
381,57,36938,1,0,0:0:0:0:
292,163,37116,2,0,P|282:218|304:254,1,83.9999974365235
370,316,37473,1,0,0:0:0:0:
201,210,37652,1,0,0:0:0:0:
201,210,37741,1,0,0:0:0:0:
201,210,37831,2,0,L|191:160,1,41.9999987182618
185,88,38009,5,0,0:0:0:0:
215,93,38098,1,0,0:0:0:0:
246,88,38187,1,0,0:0:0:0:
277,84,38276,1,0,0:0:0:0:
308,91,38366,2,0,P|337:135|336:177,1,83.9999974365235
313,258,38723,1,0,0:0:0:0:
407,215,38902,1,0,0:0:0:0:
239,164,39081,2,0,P|207:191|196:239,1,83.9999974365235
240,335,39438,5,0,0:0:0:0:
209,343,39527,1,0,0:0:0:0:
178,341,39616,1,0,0:0:0:0:
149,331,39705,1,0,0:0:0:0:
124,311,39795,2,0,L|111:223,1,83.9999974365235
127,140,40152,1,0,0:0:0:0:
32,233,40331,1,0,0:0:0:0:
220,199,40509,1,0,0:0:0:0:
220,199,40598,1,0,0:0:0:0:
220,199,40688,2,0,P|257:196|277:200,1,41.9999987182618
347,211,40866,5,0,0:0:0:0:
374,225,40955,1,0,0:0:0:0:
396,248,41044,1,0,0:0:0:0:
412,275,41133,1,0,0:0:0:0:
418,306,41223,2,0,P|402:364|384:381,1,83.9999974365235
309,284,41581,1,0,0:0:0:0:
309,284,41670,1,0,0:0:0:0:
309,284,41759,1,0,0:0:0:0:
403,127,41938,2,0,P|382:110|345:103,1,41.9999987182618
292,138,42116,2,0,P|265:133|229:146,1,41.9999987182618
169,183,42295,6,0,L|179:337,1,125.999996154785
182,384,42652,1,0,0:0:0:0:
83,309,42831,1,0,0:0:0:0:
254,258,43009,2,0,P|280:260|316:277,1,41.9999987182618
373,316,43188,1,0,0:0:0:0:
344,166,43366,1,0,0:0:0:0:
344,166,43456,1,0,0:0:0:0:
344,166,43545,2,0,L|331:107,1,41.9999987182618
314,53,43723,6,0,B|250:45|250:45|187:74,1,125.999996154785
125,109,44081,2,0,P|135:157|166:195,1,83.9999974365235
256,147,44438,2,0,P|281:158|298:161,1,41.9999987182618
392,144,44616,1,0,0:0:0:0:
392,144,44706,1,0,0:0:0:0:
392,144,44795,2,0,L|383:208,3,41.9999987182618
373,263,45152,6,0,B|314:284|314:284|247:262,1,125.999996154785
181,231,45509,2,0,P|128:244|93:265,1,83.9999974365235
30,365,45866,1,0,0:0:0:0:
30,365,45956,2,0,L|22:321,1,41.9999987182618
102,258,46223,1,0,0:0:0:0:
106,226,46312,1,0,0:0:0:0:
111,195,46401,1,0,0:0:0:0:
115,164,46490,1,0,0:0:0:0:
120,133,46581,6,0,B|205:95|270:161|270:161|354:237|462:150,1,342.999989532471
474,104,47295,1,0,0:0:0:0:
474,104,47384,1,0,0:0:0:0:
474,104,47473,1,0,0:0:0:0:
474,104,47563,1,0,0:0:0:0:
474,104,47652,2,0,P|437:96|404:96,1,48.9999985046387
341,103,47831,1,0,0:0:0:0:
341,103,47920,1,0,0:0:0:0:
341,103,48009,6,0,B|316:166|316:166|334:254,1,125.999996154785
354,295,48366,1,0,0:0:0:0:
455,150,48545,2,0,P|460:99|437:63,1,83.9999974365235
378,0,48902,1,0,0:0:0:0:
258,105,49081,1,0,0:0:0:0:
258,105,49170,2,0,P|248:139|250:172,1,41.9999987182618
258,279,49438,5,0,0:0:0:0:
228,290,49527,1,0,0:0:0:0:
197,291,49616,1,0,0:0:0:0:
166,288,49705,1,0,0:0:0:0:
135,295,49795,2,0,P|84:293|41:268,1,83.9999974365235
73,203,50152,1,0,0:0:0:0:
50,360,50331,1,0,0:0:0:0:
162,208,50509,1,0,0:0:0:0:
162,208,50598,1,0,0:0:0:0:
162,208,50688,2,0,P|183:199|203:194,1,41.9999987182618
270,147,50866,5,0,0:0:0:0:
301,150,50955,1,0,0:0:0:0:
330,162,51044,1,0,0:0:0:0:
354,182,51133,1,0,0:0:0:0:
373,207,51223,2,0,P|390:256|383:294,1,83.9999974365235
341,350,51581,1,0,0:0:0:0:
459,313,51759,1,0,0:0:0:0:
312,255,51938,1,0,0:0:0:0:
312,255,52027,1,0,0:0:0:0:
312,255,52116,2,0,P|279:244|252:243,1,41.9999987182618
193,244,52295,5,0,0:0:0:0:
162,250,52384,1,0,0:0:0:0:
135,266,52473,1,0,0:0:0:0:
116,291,52562,1,0,0:0:0:0:
106,320,52652,2,0,P|82:351|21:363,1,83.9999974365235
37,282,53009,1,0,0:0:0:0:
41,250,53098,1,0,0:0:0:0:
45,219,53187,1,0,0:0:0:0:
50,188,53276,1,0,0:0:0:0:
54,157,53366,2,0,P|81:142|112:140,1,41.9999987182618
136,61,53545,2,0,P|166:60|194:74,1,41.9999987182618
267,111,53723,6,0,L|397:125,1,125.999996154785
465,148,54081,1,0,0:0:0:0:
404,42,54259,2,0,P|391:86|395:137,1,83.9999974365235
400,156,54527,1,0,0:0:0:0:
400,156,54616,2,0,P|404:192|399:216,1,41.9999987182618
383,275,54795,1,0,0:0:0:0:
353,276,54884,1,0,0:0:0:0:
323,277,54973,1,0,0:0:0:0:
293,278,55062,1,0,0:0:0:0:
263,279,55152,6,0,B|203:267|203:267|161:193,1,125.999996154785
154,135,55509,2,0,P|203:141|242:178,1,83.9999974365235
335,131,55866,2,0,P|362:150|379:159,1,41.9999987182618
450,184,56045,2,0,L|447:124,1,41.9999987182618
446,68,56223,1,0,0:0:0:0:
371,42,56402,2,0,P|336:32|296:31,1,41.9999987182618
252,34,56581,6,0,B|189:44|189:44|128:98,1,125.999996154785
93,142,56938,1,0,0:0:0:0:
153,237,57116,1,0,0:0:0:0:
218,122,57295,1,0,0:0:0:0:
218,122,57384,1,0,0:0:0:0:
218,122,57473,2,0,P|224:163|229:178,1,41.9999987182618
258,244,57652,1,0,0:0:0:0:
262,275,57742,1,0,0:0:0:0:
256,305,57831,1,0,0:0:0:0:
238,332,57920,1,0,0:0:0:0:
214,353,58009,6,0,B|292:298|243:209|243:209|187:104|257:47,1,342.999989532471
320,0,58723,1,0,0:0:0:0:
320,0,58813,2,0,P|336:53|316:98,1,97.9999970092774
338,170,59081,1,0,0:0:0:0:
328,200,59170,1,0,0:0:0:0:
329,231,59259,1,0,0:0:0:0:
339,260,59348,1,0,0:0:0:0:
358,285,59438,6,0,B|419:252|419:252|448:189,1,136.499993751526
491,126,59795,2,0,P|451:111|384:150,1,90.9999958343508
319,199,60152,1,0,0:0:0:0:
202,130,60331,1,0,0:0:0:0:
202,130,60420,1,0,0:0:0:0:
202,130,60509,2,0,P|196:211|210:251,1,90.9999958343508
297,92,60866,6,0,P|248:58|195:40,1,90.9999958343508
145,36,61134,1,0,0:0:0:0:
145,36,61223,2,0,P|135:61|131:103,1,45.4999979171754
88,138,61402,2,0,P|84:203|65:244,1,90.9999958343508
16,310,61759,1,0,0:0:0:0:
16,310,61848,1,0,0:0:0:0:
16,310,61938,6,0,P|48:316|85:314,1,45.4999979171754
247,244,62116,2,0,P|216:228|180:222,1,45.4999979171754
192,316,62295,6,0,P|239:342|296:338,1,90.9999958343508
350,324,62563,1,0,0:0:0:0:
350,324,62652,1,0,0:0:0:0:
392,235,62831,2,0,P|397:179|378:128,1,90.9999958343508
329,35,63188,2,0,L|385:39,1,45.4999979171754
484,65,63366,2,0,P|464:94|444:110,1,45.4999979171754
388,147,63545,2,0,P|397:187|395:216,1,45.4999979171754
381,266,63723,6,0,P|332:285|283:282,1,90.9999958343508
220,266,63991,1,0,0:0:0:0:
220,266,64081,2,0,P|186:248|168:231,1,45.4999979171754
125,193,64259,1,0,0:0:0:0:
111,337,64438,2,0,P|94:295|92:272,1,45.4999979171754
15,254,64616,2,0,P|42:218|61:205,1,45.4999979171754
125,193,64795,6,0,P|157:193|197:221,1,45.4999979171754
357,266,64973,2,0,P|325:266|285:238,1,45.4999979171754
251,187,65152,6,0,B|229:121|229:121|268:33,1,136.499993751526
308,12,65509,2,0,P|333:41|341:65,1,45.4999979171754
372,112,65688,1,0,0:0:0:0:
309,234,65866,1,0,0:0:0:0:
303,267,65955,1,0,0:0:0:0:
298,301,66044,1,0,0:0:0:0:
293,335,66133,1,0,0:0:0:0:
288,369,66223,1,0,0:0:0:0:
409,322,66402,2,0,P|418:295|425:264,1,45.4999979171754
449,206,66581,6,0,B|460:140|460:140|425:67,1,136.499993751526
390,13,66938,2,0,P|369:14|340:26,1,45.4999979171754
284,66,67116,1,0,0:0:0:0:
186,187,67295,1,0,0:0:0:0:
185,221,67384,1,0,0:0:0:0:
194,253,67473,2,0,P|207:284|229:301,1,45.4999979171754
290,351,67652,1,0,0:0:0:0:
360,223,67831,2,0,L|306:209,1,45.4999979171754
238,193,68009,6,0,B|171:195|171:195|104:246,1,136.499993751526
58,286,68366,2,0,P|79:322|113:335,1,45.4999979171754
148,356,68545,1,0,0:0:0:0:
238,238,68723,2,0,L|238:178,1,45.4999979171754
243,121,68902,1,0,0:0:0:0:
243,121,68991,1,0,0:0:0:0:
243,121,69081,1,0,0:0:0:0:
370,34,69259,2,0,P|401:41|432:64,1,45.4999979171754
370,108,69438,6,0,B|413:129|419:177|404:207|366:231|327:214|327:214|284:197|239:232|227:300|310:329,1,342.999989532471
353,367,70152,1,0,0:0:0:0:
353,367,70241,2,0,L|241:367,1,97.9999970092774
148,364,70509,1,0,0:0:0:0:
74,269,70688,2,0,L|79:213,1,41.9999987182618
88,151,70866,6,0,B|114:81|114:81|196:29,1,136.499993751526
235,7,71223,1,0,0:0:0:0:
332,107,71402,2,0,P|357:176|342:225,1,90.9999958343508
298,323,71759,2,0,P|265:329|235:324,1,45.4999979171754
165,309,71938,2,0,L|105:305,1,45.4999979171754
84,228,72116,2,0,L|144:232,1,45.4999979171754
210,216,72295,6,0,P|271:218|313:183,1,90.9999958343508
348,148,72563,1,0,0:0:0:0:
348,148,72652,2,0,L|344:217,1,45.4999979171754
340,268,72831,2,0,L|334:358,1,90.9999958343508
455,232,73188,1,0,0:0:0:0:
462,198,73277,1,0,0:0:0:0:
463,164,73366,6,0,P|455:124|445:104,1,45.4999979171754
267,42,73545,2,0,P|260:63|257:86,1,45.4999979171754
320,167,73723,6,0,P|328:219|346:260,1,90.9999958343508
388,316,73991,1,0,0:0:0:0:
388,316,74081,1,0,0:0:0:0:
253,293,74259,2,0,L|156:279,1,90.9999958343508
28,264,74616,1,0,0:0:0:0:
28,264,74706,1,0,0:0:0:0:
28,264,74795,2,0,P|26:233|32:210,1,45.4999979171754
91,150,74973,2,0,P|93:119|87:96,1,45.4999979171754
44,2,75152,6,0,P|119:7|164:24,1,90.9999958343508
180,31,75420,1,0,0:0:0:0:
180,31,75509,2,0,L|193:88,1,45.4999979171754
262,127,75688,2,0,P|257:184|239:254,1,90.9999958343508
237,260,75956,1,0,0:0:0:0:
220,302,76045,2,0,L|290:297,1,45.4999979171754
398,256,76223,6,0,P|416:226|417:196,1,45.4999979171754
323,38,76402,2,0,P|305:68|304:98,1,45.4999979171754
289,163,76581,6,0,B|222:172|222:172|147:130,1,136.499993751526
97,92,76938,1,0,0:0:0:0:
196,32,77116,1,0,0:0:0:0:
289,163,77295,1,0,0:0:0:0:
289,163,77384,1,0,0:0:0:0:
289,163,77473,2,0,L|281:212,1,45.4999979171754
262,299,77652,1,0,0:0:0:0:
402,280,77831,1,0,0:0:0:0:
413,260,77920,1,0,0:0:0:0:
421,239,78009,6,0,B|432:173|432:173|411:88,1,136.499993751526
387,33,78366,1,0,0:0:0:0:
289,163,78545,1,0,0:0:0:0:
146,50,78723,1,0,0:0:0:0:
146,50,78813,1,0,0:0:0:0:
146,50,78902,2,0,L|150:106,1,45.4999979171754
106,176,79081,1,0,0:0:0:0:
171,299,79259,1,0,0:0:0:0:
171,299,79348,1,0,0:0:0:0:
171,299,79438,6,0,B|240:309|240:309|302:258,1,136.499993751526
350,217,79795,1,0,0:0:0:0:
306,98,79973,2,0,P|256:83|199:98,1,90.9999958343508
156,126,80241,1,0,0:0:0:0:
156,126,80331,1,0,0:0:0:0:
155,255,80509,1,0,0:0:0:0:
189,257,80598,1,0,0:0:0:0:
223,260,80687,1,0,0:0:0:0:
257,263,80776,1,0,0:0:0:0:
291,266,80866,5,0,0:0:0:0:
291,266,81581,5,0,0:0:0:0:
372,197,81759,1,0,0:0:0:0:
372,197,81848,1,0,0:0:0:0:
372,197,81938,2,0,L|362:149,1,45.4999979171754
440,250,82116,2,0,L|430:294,1,45.4999979171754
279,183,82295,5,0,0:0:0:0:
144,85,82563,1,0,0:0:0:0:
144,85,82652,2,0,B|122:133|122:133|128:211,1,105.000004005432
185,337,83009,2,0,L|249:344,1,52.5000020027161
213,258,83188,2,0,L|149:265,1,52.5000020027161
48,231,83366,6,0,P|40:189|42:159,1,52.5000020027161
234,117,83545,2,0,P|242:159|240:189,1,52.5000020027161
324,218,83723,5,0,0:0:0:0:
324,218,83813,1,0,0:0:0:0:
324,218,83902,1,0,0:0:0:0:
324,218,83991,2,0,L|380:205,1,52.5000020027161
453,184,84170,1,0,0:0:0:0:
453,184,84259,1,0,0:0:0:0:
380,309,84438,6,0,B|383:337|383:337|373:362,1,52.5000020027161
250,301,84616,2,0,B|240:278|240:278|243:250,1,52.5000020027161
303,141,84795,2,0,P|274:124|236:121,1,52.5000020027161
103,252,84973,2,0,P|124:266|150:272,1,52.5000020027161
262,313,85152,5,0,0:0:0:0:
262,313,85241,1,0,0:0:0:0:
262,313,85331,1,0,0:0:0:0:
262,313,85420,2,0,L|318:308,1,52.5000020027161
387,249,85598,1,0,0:0:0:0:
387,249,85688,2,0,L|393:301,1,52.5000020027161
425,176,85866,2,0,L|434:107,1,52.5000020027161
312,160,86045,1,0,0:0:0:0:
312,160,86134,1,0,0:0:0:0:
312,160,86223,1,0,0:0:0:0:
312,160,86313,6,0,P|267:167|229:162,1,52.5000020027161
158,158,86491,1,0,0:0:0:0:
155,184,86581,5,0,0:0:0:0:
152,210,86670,1,0,0:0:0:0:
149,236,86759,1,0,0:0:0:0:
146,262,86848,2,0,L|139:320,1,52.5000020027161
68,355,87027,1,0,0:0:0:0:
68,355,87116,1,0,0:0:0:0:
224,332,87295,5,0,0:0:0:0:
224,332,87384,2,0,L|299:322,1,52.5000020027161
356,315,87563,1,0,0:0:0:0:
356,315,87652,1,0,0:0:0:0:
356,315,87741,2,0,B|370:293|370:293|383:254,2,52.5000020027161
295,256,88009,6,0,B|280:208|280:208|291:126,1,105.000004005432
306,81,88277,1,0,0:0:0:0:
306,81,88366,1,0,0:0:0:0:
306,81,88456,1,0,0:0:0:0:
306,81,88545,1,0,0:0:0:0:
202,150,88723,2,0,L|133:156,1,52.5000020027161
60,88,88902,2,0,B|83:65|83:65|120:63,1,52.5000020027161
149,154,89081,6,0,P|147:205|140:233,1,52.5000020027161
85,328,89259,2,0,P|103:311|116:286,1,52.5000020027161
45,265,89438,6,0,L|53:155,1,105.000004005432
60,88,89706,1,0,0:0:0:0:
60,88,89795,2,0,L|64:28,1,52.5000020027161
148,65,89973,2,0,L|151:117,1,52.5000020027161
156,200,90152,5,0,0:0:0:0:
156,200,90241,2,0,L|237:200,1,52.5000020027161
285,202,90420,1,0,0:0:0:0:
285,202,90509,2,0,P|281:233|290:266,1,52.5000020027161
319,329,90688,2,0,P|343:347|376:356,1,52.5000020027161
441,325,90866,5,0,0:0:0:0:
441,325,90956,1,0,0:0:0:0:
441,325,91045,1,0,0:0:0:0:
441,325,91134,2,0,L|445:263,1,52.5000020027161
414,200,91313,1,0,0:0:0:0:
414,200,91402,1,0,0:0:0:0:
218,138,91581,1,0,0:0:0:0:
202,158,91670,1,0,0:0:0:0:
193,183,91759,2,0,P|184:226|187:242,1,52.5000020027161
261,303,91938,6,0,P|288:292|334:293,1,52.5000020027161
464,186,92116,2,0,P|437:197|391:196,1,52.5000020027161
336,135,92295,5,0,0:0:0:0:
336,135,92384,2,0,L|276:120,1,52.5000020027161
216,84,92563,2,0,P|170:77|138:85,2,52.5000020027161
182,149,92831,1,0,0:0:0:0:
75,320,93009,1,0,0:0:0:0:
75,320,93098,1,0,0:0:0:0:
75,320,93188,2,0,L|72:252,1,52.5000020027161
157,219,93366,2,0,L|154:271,2,52.5000020027161
92,180,93634,1,0,0:0:0:0:
92,180,93723,6,0,P|78:118|104:64,1,105.000004005432
139,14,93991,1,0,0:0:0:0:
139,14,94081,2,0,L|201:8,1,52.5000020027161
256,57,94259,2,0,L|308:62,1,52.5000020027161
391,72,94438,1,0,0:0:0:0:
392,98,94527,1,0,0:0:0:0:
394,124,94616,2,0,P|395:156|386:186,1,52.5000020027161
315,242,94795,6,0,P|293:227|268:218,1,52.5000020027161
101,307,94973,2,0,P|122:292|147:283,1,52.5000020027161
208,335,95152,6,0,L|279:344,2,52.5000020027161
146,283,95420,1,0,0:0:0:0:
146,283,95509,2,0,P|138:249|142:220,1,52.5000020027161
161,154,95688,1,0,0:0:0:0:
306,200,95866,1,0,0:0:0:0:
306,200,95955,1,0,0:0:0:0:
306,200,96045,2,0,P|342:196|380:210,1,52.5000020027161
440,227,96223,6,0,P|435:254|416:277,1,52.5000020027161
256,361,96402,2,0,L|336:353,1,52.5000020027161
395,349,96581,5,0,0:0:0:0:
421,348,96670,1,0,0:0:0:0:
447,348,96759,1,0,0:0:0:0:
473,350,96848,2,0,L|499:278,1,52.5000020027161
440,227,97027,1,0,0:0:0:0:
440,227,97116,1,0,0:0:0:0:
292,142,97295,2,0,B|265:138|265:138|230:145,1,52.5000020027161
171,189,97473,2,0,L|165:265,1,52.5000020027161
86,303,97652,5,0,0:0:0:0:
86,303,97741,2,0,P|78:273|81:250,2,52.5000020027161
177,326,98009,6,0,L|237:319,1,52.5000020027161
404,267,98277,2,0,B|378:257|378:257|344:260,1,52.5000020027161
276,243,98456,1,0,0:0:0:0:
276,243,98545,1,0,0:0:0:0:
395,145,98723,5,0,0:0:0:0:
395,145,98813,1,0,0:0:0:0:
395,145,98902,2,0,P|358:146|311:134,1,52.5000020027161
276,113,99081,1,0,0:0:0:0:
254,99,99170,2,0,P|218:90|134:126,1,105.000004005432
88,153,99438,6,0,B|73:247|73:247|112:317,1,157.500006008148
180,346,99795,1,0,0:0:0:0:
180,346,99884,1,0,0:0:0:0:
180,346,99973,2,0,L|260:336,1,52.5000020027161
306,296,100152,1,0,0:0:0:0:
308,269,100241,1,0,0:0:0:0:
311,243,100331,2,0,P|309:213|290:180,1,52.5000020027161
210,105,100509,6,0,P|200:140|205:166,1,52.5000020027161
318,112,100688,2,0,P|318:85|309:61,1,52.5000020027161
227,26,100866,6,0,B|328:50|328:50|398:33,1,157.500006008148
464,46,101223,1,0,0:0:0:0:
464,46,101313,1,0,0:0:0:0:
464,46,101402,2,0,L|456:103,1,52.5000020027161
437,175,101581,1,0,0:0:0:0:
437,175,101670,2,0,P|419:200|389:211,2,52.5000020027161
365,136,101938,6,0,B|305:118|305:118|265:131|265:131|201:114,1,157.500006008148
132,75,102295,6,0,P|121:136|184:207,1,157.500006008148
217,281,102652,2,0,B|269:264|269:264|341:277,1,105.000004005432
432,123,103009,1,0,0:0:0:0:
432,123,103098,1,0,0:0:0:0:
432,123,103188,2,0,L|420:185,1,52.5000020027161
369,280,103366,6,0,P|345:280|300:262,1,52.5000020027161
233,352,103545,2,0,P|207:344|181:344,1,52.5000020027161
78,328,103723,6,0,B|67:276|67:276|83:207,1,105.000004005432
132,163,103991,2,0,B|184:152|184:152|253:168,1,105.000004005432
318,189,104259,1,0,0:0:0:0:
194,286,104438,2,0,P|198:260|212:239,1,52.5000020027161
281,291,104616,1,0,0:0:0:0:
281,291,104706,1,0,0:0:0:0:
281,291,104795,5,0,0:0:0:0:
307,291,104884,1,0,0:0:0:0:
333,287,104973,1,0,0:0:0:0:
357,279,105062,1,0,0:0:0:0:
380,265,105152,6,0,L|359:102,1,157.500006008148
288,60,105509,2,0,P|235:49|173:71,1,105.000004005432
100,110,105866,1,0,0:0:0:0:
100,110,105956,1,0,0:0:0:0:
100,110,106045,2,0,L|104:182,1,52.5000020027161
46,250,106223,6,0,P|80:258|102:251,1,52.5000020027161
240,169,106402,2,0,P|206:161|184:168,1,52.5000020027161
195,284,106581,6,0,P|350:236|280:53,1,392
212,17,107295,5,0,0:0:0:0:
212,17,107384,1,0,0:0:0:0:
212,17,107473,2,0,L|201:83,1,52.5000020027161
216,155,107652,2,0,P|186:157|156:144,1,52.5000020027161
27,137,107831,2,0,P|46:154|56:178,1,52.5000020027161
115,259,108009,6,0,L|197:264,1,52.5000020027161
240,304,108188,1,0,0:0:0:0:
240,304,108277,2,0,L|322:309,1,52.5000020027161
361,278,108456,1,0,0:0:0:0:
361,278,108545,1,0,0:0:0:0:
495,192,108723,2,0,P|456:178|426:181,1,52.5000020027161
356,190,108902,2,0,B|332:200|332:200|313:177,1,52.5000020027161
357,95,109081,6,0,P|325:84|288:85,1,52.5000020027161
191,196,109259,2,0,P|211:212|235:223,1,52.5000020027161
248,145,109438,5,0,0:0:0:0:
248,145,109527,2,0,P|198:118|161:120,1,52.5000020027161
121,108,109706,1,0,0:0:0:0:
121,108,109795,2,0,L|114:167,1,52.5000020027161
100,243,109973,1,0,0:0:0:0:
199,328,110152,5,0,0:0:0:0:
199,328,110241,2,0,P|228:321|261:328,1,52.5000020027161
326,349,110420,1,0,0:0:0:0:
326,349,110509,2,0,L|322:263,1,52.5000020027161
471,221,110688,2,0,L|468:273,1,52.5000020027161
459,359,110866,5,0,0:0:0:0:
459,359,110956,1,0,0:0:0:0:
459,359,111045,1,0,0:0:0:0:
459,359,111134,2,0,L|400:344,1,52.5000020027161
373,274,111313,1,0,0:0:0:0:
373,274,111402,1,0,0:0:0:0:
287,104,111581,2,0,L|294:163,1,52.5000020027161
218,255,111759,2,0,L|224:202,1,52.5000020027161
205,94,111938,6,0,P|168:86|134:90,1,52.5000020027161
92,235,112116,2,0,P|129:243|163:239,1,52.5000020027161
224,202,112295,5,0,0:0:0:0:
224,202,112384,2,0,L|230:254,1,52.5000020027161
236,331,112563,1,0,0:0:0:0:
236,331,112652,2,0,P|271:338|299:334,1,52.5000020027161
361,318,112831,1,0,0:0:0:0:
427,159,113009,5,0,0:0:0:0:
427,159,113098,1,0,0:0:0:0:
427,159,113188,2,0,L|414:216,1,52.5000020027161
343,161,113366,2,0,L|331:109,1,52.5000020027161
247,111,113545,2,0,L|258:59,1,52.5000020027161
332,23,113723,5,0,0:0:0:0:
332,23,113813,2,0,L|400:21,1,52.5000020027161
463,23,113991,1,0,0:0:0:0:
463,23,114081,1,0,0:0:0:0:
469,48,114170,1,0,0:0:0:0:
469,74,114259,1,0,0:0:0:0:
391,198,114438,2,0,P|327:227|305:226,1,52.5000020027161
259,238,114616,6,0,P|234:234|207:237,1,52.5000020027161
111,298,114795,2,0,L|106:225,1,52.5000020027161
33,99,114973,2,0,L|29:151,1,52.5000020027161
23,252,115152,5,0,0:0:0:0:
23,252,115241,2,0,B|57:290|57:290|139:301,1,105.000004005432
189,308,115509,1,0,0:0:0:0:
189,308,115598,2,0,L|261:302,1,52.5000020027161
384,192,115866,2,0,L|380:271,1,52.5000020027161
375,325,116045,1,0,0:0:0:0:
375,325,116134,1,0,0:0:0:0:
300,243,116223,6,0,P|268:233|221:231,2,52.5000020027161
381,244,116491,1,0,0:0:0:0:
381,244,116581,6,0,L|442:242,1,52.5000020027161
445,153,116848,1,0,0:0:0:0:
445,153,116938,2,0,L|392:151,1,52.5000020027161
307,147,117116,1,0,0:0:0:0:
