osu file format v14

[General]
AudioFilename: audio.mp3
AudioLeadIn: 0
PreviewTime: 53361
Countdown: 0
SampleSet: None
StackLeniency: 0.2
Mode: 0
LetterboxInBreaks: 0
WidescreenStoryboard: 0

[Editor]
Bookmarks: 7618,22778,36624,51197,54372,74729,80621,87696
DistanceSpacing: 1.2
BeatDivisor: 4
GridSize: 32
TimelineZoom: 5.599997

[Metadata]
Title:Newsong
TitleUnicode:Newsong
Artist:Tacica
ArtistUnicode:Tacica
Creator:bleq
Version:extreme mapping effort
Source:naruto
Tags:naruto
BeatmapID:1464756
BeatmapSetID:692215

[Difficulty]
HPDrainRate:6
CircleSize:4
OverallDifficulty:8
ApproachRate:9
SliderMultiplier:1.59999990463257
SliderTickRate:1

[Events]
//Background and Video events
Video,0,"Naruto Shippuden OP10 NC.mp4"
0,0,"top notch quality background right here bois.jpg",0,0
//Break Periods
//Storyboard Layer 0 (Background)
//Storyboard Layer 1 (Fail)
//Storyboard Layer 2 (Pass)
//Storyboard Layer 3 (Foreground)
//Storyboard Sound Samples

[TimingPoints]
20744.1031592896,468.759889036493,4,2,0,40,1,0
53791,-100,4,2,0,40,0,1
80908,-100,4,2,0,40,0,0

[Colours]
Combo1 : 0,255,0
Combo2 : 255,0,0
Combo3 : 255,128,255

[HitObjects]
96,128,587,5,0,0:0:0:0:
256,160,821,1,0,0:0:0:0:
160,288,1056,1,0,0:0:0:0:
352,288,1290,5,0,0:0:0:0:
352,288,1407,1,0,0:0:0:0:
352,288,1524,1,0,0:0:0:0:
352,288,1642,1,0,0:0:0:0:
352,288,1759,2,0,P|320:288|256:256,1,79.9999952316285
160,192,2228,5,0,0:0:0:0:
64,64,2462,1,0,0:0:0:0:
224,32,2696,1,0,0:0:0:0:
160,192,2931,1,0,0:0:0:0:
64,320,3165,1,0,0:0:0:0:
64,320,3282,1,0,0:0:0:0:
64,320,3399,1,0,0:0:0:0:
64,320,3517,2,0,P|96:320|96:288,1,39.9999976158142
224,128,3868,5,0,0:0:0:0:
384,64,4103,1,0,0:0:0:0:
448,224,4337,1,0,0:0:0:0:
288,256,4571,2,0,P|256:288|224:288,1,79.9999952316285
96,256,5040,5,0,0:0:0:0:
64,224,5157,1,0,0:0:0:0:
54,185,5275,1,0,0:0:0:0:
57,141,5392,1,0,0:0:0:0:
78,106,5509,2,0,B|95:110|124:69|177:78,1,79.9999952316285
288,68,5978,5,0,0:0:0:0:
354,254,6212,5,0,0:0:0:0:
354,254,6329,1,0,0:0:0:0:
192,260,6564,1,0,0:0:0:0:
192,260,6682,1,0,0:0:0:0:
281,142,6915,5,0,0:0:0:0:
197,148,7032,1,0,0:0:0:0:
303,60,7267,2,0,L|374:60,1,39.9999976158142
339,105,7618,5,0,0:0:0:0:
309,245,7853,1,0,0:0:0:0:
197,142,8087,1,0,0:0:0:0:
322,103,8321,1,0,0:0:0:0:
335,83,8439,1,0,0:0:0:0:
339,105,8556,1,0,0:0:0:0:
245,262,8790,1,0,0:0:0:0:
103,182,9025,2,0,B|86:177|124:163|92:148|119:126|56:132|123:88,1,79.9999952316285
98,108,9493,5,0,0:0:0:0:
220,53,9728,1,0,0:0:0:0:
222,193,9962,1,0,0:0:0:0:
222,193,10197,1,0,0:0:0:0:
222,193,10315,1,0,0:0:0:0:
222,193,10431,1,0,0:0:0:0:
220,53,10665,5,0,0:0:0:0:
220,53,10782,1,0,0:0:0:0:
220,53,10900,1,0,0:0:0:0:
98,108,11134,5,0,0:0:0:0:
98,108,11251,1,0,0:0:0:0:
98,108,11368,1,0,0:0:0:0:
222,193,11603,5,0,0:0:0:0:
310,88,11837,1,0,0:0:0:0:
361,230,12072,1,0,0:0:0:0:
361,230,12189,1,0,0:0:0:0:
361,230,12306,1,0,0:0:0:0:
204,322,12540,5,0,0:0:0:0:
95,220,12775,1,0,0:0:0:0:
222,188,13009,1,0,0:0:0:0:
222,188,13126,1,0,0:0:0:0:
222,188,13243,1,0,0:0:0:0:
128,91,13478,5,0,0:0:0:0:
254,41,13712,1,0,0:0:0:0:
239,166,13947,1,0,0:0:0:0:
239,166,14064,1,0,0:0:0:0:
239,166,14181,1,0,0:0:0:0:
377,128,14415,5,0,0:0:0:0:
339,266,14650,1,0,0:0:0:0:
468,244,14884,1,0,0:0:0:0:
468,244,15001,1,0,0:0:0:0:
468,244,15118,1,0,0:0:0:0:
257,134,15353,5,0,0:0:0:0:
75,190,15587,1,0,0:0:0:0:
203,300,15822,1,0,0:0:0:0:
203,300,15939,1,0,0:0:0:0:
203,300,16056,1,0,0:0:0:0:
203,300,16290,5,0,0:0:0:0:
75,190,16525,1,0,0:0:0:0:
217,119,16759,1,0,0:0:0:0:
217,119,16876,1,0,0:0:0:0:
217,119,16994,1,0,0:0:0:0:
319,257,17228,5,0,0:0:0:0:
379,118,17462,1,0,0:0:0:0:
453,260,17697,1,0,0:0:0:0:
453,260,17814,1,0,0:0:0:0:
453,260,17931,1,0,0:0:0:0:
317,249,18165,5,0,0:0:0:0:
223,77,18400,1,0,0:0:0:0:
139,253,18634,1,0,0:0:0:0:
139,253,18751,1,0,0:0:0:0:
139,253,18869,1,0,0:0:0:0:
311,218,19103,5,0,0:0:0:0:
310,126,19337,1,0,0:0:0:0:
386,175,19572,1,0,0:0:0:0:
386,175,19689,1,0,0:0:0:0:
386,175,19806,1,0,0:0:0:0:
201,218,20040,5,0,0:0:0:0:
202,126,20274,1,0,0:0:0:0:
126,175,20509,1,0,0:0:0:0:
126,175,20626,1,0,0:0:0:0:
126,175,20743,1,0,0:0:0:0:
201,166,20978,5,0,0:0:0:0:
202,258,21212,1,0,0:0:0:0:
126,209,21447,1,0,0:0:0:0:
126,209,21564,1,0,0:0:0:0:
126,209,21681,1,0,0:0:0:0:
235,249,21916,5,0,0:0:0:0:
327,238,22150,1,0,0:0:0:0:
286,319,22385,1,0,0:0:0:0:
286,319,22502,1,0,0:0:0:0:
286,319,22619,1,0,0:0:0:0:
291,142,22853,5,0,0:0:0:0:
200,127,23087,1,0,0:0:0:0:
261,61,23322,1,0,0:0:0:0:
261,61,23439,1,0,0:0:0:0:
261,61,23556,1,0,0:0:0:0:
216,145,23791,5,0,0:0:0:0:
128,160,24025,1,0,0:0:0:0:
130,154,24142,1,0,0:0:0:0:
130,154,24259,1,0,0:0:0:0:
130,154,24494,1,0,0:0:0:0:
187,303,24728,5,0,0:0:0:0:
187,303,24845,1,0,0:0:0:0:
187,303,24962,1,0,0:0:0:0:
273,275,25197,1,0,0:0:0:0:
201,218,25431,1,0,0:0:0:0:
311,218,25666,5,0,0:0:0:0:
310,126,25900,1,0,0:0:0:0:
386,175,26135,1,0,0:0:0:0:
386,175,26252,1,0,0:0:0:0:
386,175,26369,1,0,0:0:0:0:
201,218,26603,5,0,0:0:0:0:
202,126,26837,1,0,0:0:0:0:
126,175,27072,1,0,0:0:0:0:
126,175,27189,1,0,0:0:0:0:
126,175,27306,1,0,0:0:0:0:
386,175,27541,5,0,0:0:0:0:
386,175,27658,1,0,0:0:0:0:
386,175,27775,1,0,0:0:0:0:
310,126,28010,1,0,0:0:0:0:
311,218,28244,1,0,0:0:0:0:
109,192,28478,5,0,0:0:0:0:
129,85,28713,1,0,0:0:0:0:
213,150,28947,5,0,0:0:0:0:
246,142,29064,1,0,0:0:0:0:
285,151,29181,1,0,0:0:0:0:
209,192,29416,5,0,0:0:0:0:
252,191,29533,1,0,0:0:0:0:
285,193,29650,1,0,0:0:0:0:
208,137,29884,5,0,0:0:0:0:
246,105,30001,1,0,0:0:0:0:
283,136,30119,1,0,0:0:0:0:
145,153,30353,6,0,L|142:97,2,39.9999976158142
212,186,30822,1,0,0:0:0:0:
261,272,31056,1,0,0:0:0:0:
176,270,31291,1,0,0:0:0:0:
197,254,31408,1,0,0:0:0:0:
193,278,31525,1,0,0:0:0:0:
313,249,31759,5,0,0:0:0:0:
326,233,31877,1,0,0:0:0:0:
326,257,31994,1,0,0:0:0:0:
222,153,32228,5,0,0:0:0:0:
208,128,32345,1,0,0:0:0:0:
205,154,32463,1,0,0:0:0:0:
298,159,32697,6,0,L|298:208,2,39.9999976158142
298,159,33166,6,0,L|298:226,2,39.9999976158142
296,256,33634,5,0,0:0:0:0:
312,240,33752,1,0,0:0:0:0:
325,260,33869,1,0,0:0:0:0:
151,138,34103,5,0,0:0:0:0:
241,88,34338,1,0,0:0:0:0:
235,184,34572,1,0,0:0:0:0:
235,184,34689,1,0,0:0:0:0:
235,184,34806,1,0,0:0:0:0:
195,293,35041,5,0,0:0:0:0:
145,199,35275,1,0,0:0:0:0:
245,211,35510,2,0,L|330:191,1,79.9999952316285
322,192,35978,5,0,0:0:0:0:
251,120,36213,1,0,0:0:0:0:
215,204,36447,1,0,0:0:0:0:
197,235,36564,1,0,0:0:0:0:
179,263,36681,1,0,0:0:0:0:
73,256,36916,5,4,0:0:0:0:
99,226,37033,1,4,0:0:0:0:
122,199,37150,1,4,0:0:0:0:
149,171,37267,1,4,0:0:0:0:
172,146,37384,1,4,0:0:0:0:
194,123,37502,2,0,B|227:103|202:96|210:85|231:79|239:90|246:110|245:108|246:109,1,39.9999976158142
216,91,37853,5,0,0:0:0:0:
270,154,38088,1,0,0:0:0:0:
193,164,38322,1,0,0:0:0:0:
193,164,38439,1,0,0:0:0:0:
193,164,38556,1,0,0:0:0:0:
193,164,38791,5,0,0:0:0:0:
136,288,39025,1,0,0:0:0:0:
303,291,39260,1,0,0:0:0:0:
312,288,39377,1,0,0:0:0:0:
323,286,39494,1,0,0:0:0:0:
403,164,39728,5,0,0:0:0:0:
353,53,39963,1,0,0:0:0:0:
237,92,40197,1,0,0:0:0:0:
237,92,40314,1,0,0:0:0:0:
237,92,40432,1,0,0:0:0:0:
276,164,40666,5,0,0:0:0:0:
276,164,40783,1,0,0:0:0:0:
276,164,40900,1,0,0:0:0:0:
201,160,41135,5,0,0:0:0:0:
201,160,41252,1,0,0:0:0:0:
201,160,41369,1,0,0:0:0:0:
201,160,41603,5,0,0:0:0:0:
276,164,41838,1,0,0:0:0:0:
237,92,42072,1,0,0:0:0:0:
237,92,42189,1,0,0:0:0:0:
237,92,42307,1,0,0:0:0:0:
154,241,42541,5,0,0:0:0:0:
83,324,42775,1,0,0:0:0:0:
208,329,43010,1,0,0:0:0:0:
208,329,43127,1,0,0:0:0:0:
208,329,43244,1,0,0:0:0:0:
433,218,43478,5,0,0:0:0:0:
329,225,43713,1,0,0:0:0:0:
389,319,43947,1,0,0:0:0:0:
389,319,44064,1,0,0:0:0:0:
389,319,44182,1,0,0:0:0:0:
389,319,44416,5,0,0:0:0:0:
308,225,44650,1,0,0:0:0:0:
432,213,44885,1,0,0:0:0:0:
432,213,45002,1,0,0:0:0:0:
432,213,45119,1,0,0:0:0:0:
399,149,45353,6,0,B|445:147|355:146|400:148,2,39.9999976158142
113,149,45822,6,0,B|67:147|157:146|112:148,2,39.9999976158142
113,235,46291,6,0,B|67:237|157:238|112:236,2,39.9999976158142
399,235,46760,6,0,B|445:237|355:238|400:236,2,39.9999976158142
399,149,47229,6,0,B|445:147|355:146|400:148,2,39.9999976158142
113,149,47697,6,0,B|67:147|157:146|112:148,2,39.9999976158142
113,235,48166,6,0,B|67:237|157:238|112:236,2,39.9999976158142
130,133,48635,5,0,0:0:0:0:
228,95,48869,1,0,0:0:0:0:
206,181,49104,1,0,0:0:0:0:
206,181,49221,1,0,0:0:0:0:
206,181,49338,1,0,0:0:0:0:
279,153,49573,5,0,0:0:0:0:
270,230,49807,1,0,0:0:0:0:
206,181,50041,1,0,0:0:0:0:
206,181,50158,1,0,0:0:0:0:
206,181,50276,1,0,0:0:0:0:
153,118,50510,5,0,0:0:0:0:
125,193,50744,1,0,0:0:0:0:
206,181,50979,1,0,0:0:0:0:
206,181,51096,1,0,0:0:0:0:
206,181,51213,1,0,0:0:0:0:
279,196,51447,1,0,0:0:0:0:
250,130,51682,1,0,0:0:0:0:
206,181,51915,1,0,0:0:0:0:
206,181,52033,1,0,0:0:0:0:
206,181,52150,1,0,0:0:0:0:
82,111,52385,5,0,0:0:0:0:
309,100,52619,5,0,0:0:0:0:
210,317,52854,5,0,0:0:0:0:
206,181,53088,5,0,0:0:0:0:
206,181,53205,5,0,0:0:0:0:
206,181,53322,5,0,0:0:0:0:
206,181,53557,5,0,0:0:0:0:
112,104,53791,6,0,L|217:122,1,79.9999952316285
190,117,54260,1,0,0:0:0:0:
324,114,54494,1,0,0:0:0:0:
248,213,54729,1,0,0:0:0:0:
256,82,54963,6,0,L|256:152,2,39.9999976158142
149,189,55432,1,0,0:0:0:0:
316,209,55666,1,0,0:0:0:0:
258,82,55901,1,0,0:0:0:0:
197,182,56135,1,0,0:0:0:0:
279,161,56369,1,0,0:0:0:0:
221,111,56604,1,0,0:0:0:0:
197,182,56838,2,0,L|267:163,2,39.9999976158142
313,154,57307,5,0,0:0:0:0:
442,78,57541,1,0,0:0:0:0:
455,225,57776,1,0,0:0:0:0:
455,225,57893,1,0,0:0:0:0:
455,225,58010,1,0,0:0:0:0:
406,155,58244,5,0,0:0:0:0:
258,64,58479,1,0,0:0:0:0:
250,232,58713,1,0,0:0:0:0:
217,228,58830,1,0,0:0:0:0:
246,259,58948,1,0,0:0:0:0:
303,146,59182,5,0,0:0:0:0:
84,78,59416,1,0,0:0:0:0:
139,240,59651,1,0,0:0:0:0:
159,226,59768,1,0,0:0:0:0:
125,218,59885,1,0,0:0:0:0:
180,98,60119,5,0,0:0:0:0:
310,294,60354,1,0,0:0:0:0:
406,118,60588,1,0,0:0:0:0:
383,107,60705,1,0,0:0:0:0:
387,132,60823,1,0,0:0:0:0:
332,98,61057,5,0,0:0:0:0:
202,294,61292,1,0,0:0:0:0:
106,118,61526,1,0,0:0:0:0:
129,107,61643,1,0,0:0:0:0:
125,132,61761,1,0,0:0:0:0:
180,286,61994,5,0,0:0:0:0:
310,90,62229,1,0,0:0:0:0:
406,266,62463,1,0,0:0:0:0:
383,277,62580,1,0,0:0:0:0:
387,252,62698,1,0,0:0:0:0:
332,286,62932,5,0,0:0:0:0:
202,90,63167,1,0,0:0:0:0:
106,266,63401,1,0,0:0:0:0:
129,277,63518,1,0,0:0:0:0:
125,252,63636,1,0,0:0:0:0:
180,98,63870,5,0,0:0:0:0:
310,294,64105,1,0,0:0:0:0:
406,118,64339,1,0,0:0:0:0:
383,107,64456,1,0,0:0:0:0:
387,132,64574,1,0,0:0:0:0:
180,286,64807,5,0,0:0:0:0:
310,90,65042,1,0,0:0:0:0:
406,266,65276,1,0,0:0:0:0:
383,277,65393,1,0,0:0:0:0:
387,252,65511,1,0,0:0:0:0:
332,98,65745,5,0,0:0:0:0:
202,294,65980,1,0,0:0:0:0:
106,118,66214,1,0,0:0:0:0:
132,107,66331,1,0,0:0:0:0:
125,132,66449,1,0,0:0:0:0:
124,170,66682,5,0,0:0:0:0:
125,201,66799,1,0,0:0:0:0:
134,239,66916,1,0,0:0:0:0:
152,276,67034,1,0,0:0:0:0:
182,305,67151,1,0,0:0:0:0:
224,322,67268,1,0,0:0:0:0:
261,325,67385,1,0,0:0:0:0:
290,324,67502,1,0,0:0:0:0:
332,317,67620,1,0,0:0:0:0:
439,249,67854,5,0,0:0:0:0:
365,85,68088,1,0,0:0:0:0:
280,213,68323,1,0,0:0:0:0:
148,83,68557,5,0,0:0:0:0:
95,246,68791,1,0,0:0:0:0:
280,213,69026,1,0,0:0:0:0:
375,74,69260,5,0,0:0:0:0:
148,83,69495,1,0,0:0:0:0:
280,213,69729,1,0,0:0:0:0:
401,328,69963,5,0,0:0:0:0:
145,322,70198,1,0,0:0:0:0:
280,213,70432,1,0,0:0:0:0:
146,78,70667,5,0,0:0:0:0:
396,78,70901,1,0,0:0:0:0:
280,213,71135,1,0,0:0:0:0:
129,315,71370,5,0,0:0:0:0:
92,67,71604,1,0,0:0:0:0:
280,213,71838,1,0,0:0:0:0:
388,73,72073,5,0,0:0:0:0:
415,323,72307,1,0,0:0:0:0:
280,213,72542,1,0,0:0:0:0:
118,313,72776,5,0,0:0:0:0:
106,86,73010,1,0,0:0:0:0:
280,213,73245,1,0,0:0:0:0:
392,63,73479,5,0,0:0:0:0:
426,321,73713,1,0,0:0:0:0:
280,213,73948,1,0,0:0:0:0:
116,70,74182,5,0,0:0:0:0:
67,254,74417,1,0,0:0:0:0:
171,190,74651,6,0,B|198:174|185:156|212:169|229:187|221:158|236:149,1,79.9999952316285
183,73,75120,5,0,0:0:0:0:
84,233,75354,1,0,0:0:0:0:
304,152,75588,1,0,0:0:0:0:
173,319,75823,5,0,0:0:0:0:
366,151,76057,1,0,0:0:0:0:
290,336,76291,5,0,0:0:0:0:
220,88,76526,1,0,0:0:0:0:
173,319,76760,5,0,0:0:0:0:
298,95,76995,1,0,0:0:0:0:
104,273,77229,5,0,0:0:0:0:
324,204,77464,1,0,0:0:0:0:
191,62,77698,5,0,0:0:0:0:
223,46,77815,1,0,0:0:0:0:
255,46,77932,1,0,0:0:0:0:
295,54,78049,1,0,0:0:0:0:
327,70,78166,1,0,0:0:0:0:
385,148,78284,5,0,0:0:0:0:
381,187,78401,1,0,0:0:0:0:
371,218,78518,1,0,0:0:0:0:
354,245,78635,1,0,0:0:0:0:
336,270,78752,1,0,0:0:0:0:
311,294,78870,1,0,0:0:0:0:
215,288,79104,5,0,0:0:0:0:
139,215,79339,1,0,0:0:0:0:
108,312,79573,1,0,0:0:0:0:
139,215,79807,1,0,0:0:0:0:
164,142,80042,6,0,L|269:140,1,79.9999952316285
358,214,80510,5,0,0:0:0:0:
294,125,80745,1,0,0:0:0:0:
256,219,80979,1,0,0:0:0:0:
256,219,81096,1,0,0:0:0:0:
256,219,81214,1,0,0:0:0:0:
179,113,81448,5,0,0:0:0:0:
272,66,81682,1,0,0:0:0:0:
282,161,81917,1,0,0:0:0:0:
282,161,82034,1,0,0:0:0:0:
282,161,82151,1,0,0:0:0:0:
358,214,82386,5,0,0:0:0:0:
294,125,82621,1,0,0:0:0:0:
256,219,82855,1,0,0:0:0:0:
256,219,82972,1,0,0:0:0:0:
256,219,83090,1,0,0:0:0:0:
154,214,83323,5,0,0:0:0:0:
218,125,83558,1,0,0:0:0:0:
256,219,83792,1,0,0:0:0:0:
256,219,83909,1,0,0:0:0:0:
256,219,84027,1,0,0:0:0:0:
358,214,84261,5,0,0:0:0:0:
294,125,84496,1,0,0:0:0:0:
256,219,84730,1,0,0:0:0:0:
256,219,84847,1,0,0:0:0:0:
256,219,84965,1,0,0:0:0:0:
154,214,85198,5,0,0:0:0:0:
218,125,85433,1,0,0:0:0:0:
256,219,85667,1,0,0:0:0:0:
256,219,85784,1,0,0:0:0:0:
256,219,85901,1,0,0:0:0:0:
338,285,86136,5,0,0:0:0:0:
204,261,86370,5,0,0:3:0:0:
315,166,86487,1,0,0:3:0:0:
174,233,86721,5,0,0:0:0:0:
327,230,86838,1,0,0:0:0:0:
185,247,87073,5,0,0:0:0:0:
270,119,87190,1,0,0:0:0:0:
174,233,87425,5,0,0:0:0:0:
340,195,87542,1,0,0:0:0:0:
239,145,87776,1,0,0:0:0:0:
