osu file format v14

[General]
AudioFilename: audio.mp3
AudioLeadIn: 0
PreviewTime: 28863
Countdown: 0
SampleSet: None
StackLeniency: 0.2
Mode: 0
LetterboxInBreaks: 0
WidescreenStoryboard: 1

[Editor]
Bookmarks: 5953,17589,29225,52498,64135,88862,100498
DistanceSpacing: 1
BeatDivisor: 4
GridSize: 8
TimelineZoom: 1

[Metadata]
Title:Patrick Zone
TitleUnicode:Patrick Zone
Artist:Tachin1994
ArtistUnicode:Tachin1994
Creator:Satou Kazuma01
Version:Normal
Source:Spongebob Squarepants
Tags:Youtube Red ZONE Nico Nico Douga Calling Bikini Bottom Is This The Krusty Krabs Tatsh & Naoki
BeatmapID:1700695
BeatmapSetID:797581

[Difficulty]
HPDrainRate:1
CircleSize:3
OverallDifficulty:3
ApproachRate:4
SliderMultiplier:1.3
SliderTickRate:1

[Events]
//Background and Video events
Video,-120,"【レッドゾーン】PATRICK ZONE.mp4"
0,0,"Patrick BG.jpg",0,0
//Break Periods
2,17789,19178
2,23607,24996
2,52698,61360
//Storyboard Layer 0 (Background)
//Storyboard Layer 1 (Fail)
//Storyboard Layer 2 (Pass)
//Storyboard Layer 3 (Foreground)
//Storyboard Sound Samples

[TimingPoints]
135,363.636363636364,4,1,0,80,1,0
17589,-133.333333333333,4,1,0,80,0,0
29225,-100,4,1,0,80,0,1
40498,-100,4,1,0,80,0,0
40862,-100,4,1,0,80,0,1
52498,-100,4,1,0,80,0,0
64135,-100,4,1,0,80,0,1
75407,-100,4,1,0,80,0,0
75771,-100,4,1,0,80,0,1
87407,-100,4,1,0,40,0,0
88862,-100,4,1,0,80,0,1
100135,-100,4,1,0,80,0,0
100498,-100,4,1,0,80,0,1
103407,-133.333333333333,4,1,0,80,0,0
104680,-133.333333333333,4,1,0,5,0,0
105407,-200,4,1,0,5,0,0
106316,-66.6666666666667,4,1,0,80,0,1
106407,-100,4,1,0,5,0,0

[HitObjects]
167,261,4498,6,2,P|266:264|346:213,2,195
129,175,5953,6,0,B|86:229|86:229|145:218,1,130,4|8,0:0|0:0,0:0:0:0:
217,190,6680,2,0,P|283:196|358:240,1,130,0|8,0:0|0:0,0:0:0:0:
384,258,7225,1,0,0:0:0:0:
320,291,7407,6,0,P|254:269|176:273,1,130,0|8,0:0|0:0,0:0:0:0:
116,281,8135,2,0,P|174:251|265:230,1,130,0|8,0:0|0:0,0:0:0:0:
237,234,8680,1,0,0:0:0:0:
241,307,8862,6,0,P|300:299|385:279,1,130,0|8,0:0|0:0,0:0:0:0:
321,222,9589,2,0,P|389:197|436:143,1,130,0|8,0:0|0:0,0:0:0:0:
390,81,10316,6,0,L|322:77,1,65
316,80,10680,2,0,L|227:75,1,65,8|0,0:0|0:0,0:0:0:0:
210,78,11044,1,10,0:0:0:0:
210,78,11225,1,10,0:0:0:0:
210,78,11407,2,10,L|176:111,2,43.3333333333333
286,97,11771,6,0,P|317:137|343:234,1,130,0|8,0:0|0:0,0:0:0:0:
277,207,12498,2,0,P|241:244|151:255,1,130,0|8,0:0|0:0,0:0:0:0:
148,189,13225,5,0,0:0:0:0:
146,125,13589,1,8,0:0:0:0:
216,129,13953,1,0,0:0:0:0:
210,189,14316,1,8,0:0:0:0:
255,250,14680,6,0,L|391:249,2,130,0|8|0,0:0|0:0|0:0,0:0:0:0:
145,250,15771,1,8,0:0:0:0:
49,262,16135,2,0,P|75:197|156:178,1,130,0|8,0:0|0:0,0:0:0:0:
166,228,16680,1,0,0:0:0:0:
256,227,16862,2,0,L|180:186,2,65,0|0|8,0:0|0:0|0:0,0:0:0:0:
270,265,17407,1,0,0:0:0:0:
260,194,17589,5,4,0:0:0:0:
93,244,20498,6,0,P|180:253|200:248,1,97.50000371933,0|8,0:0|0:0,0:0:0:0:
240,218,21044,1,0,0:0:0:0:
260,245,21225,2,0,P|321:257|375:252,1,97.50000371933,0|8,0:0|0:0,0:0:0:0:
374,164,21953,6,0,P|287:173|267:168,1,97.50000371933,0|8,0:0|0:0,0:0:0:0:
227,138,22499,1,0,0:0:0:0:
207,165,22680,2,0,P|146:177|92:172,1,97.50000371933,0|8,0:0|0:0,0:0:0:0:
250,222,23407,5,4,0:0:0:0:
121,275,26316,6,0,P|173:269|216:230,1,97.50000371933,0|8,0:0|0:0,0:0:0:0:
244,192,26862,1,0,0:0:0:0:
277,148,27044,2,0,P|316:105|371:91,1,97.50000371933,0|8,0:0|0:0,0:0:0:0:
321,221,27771,2,0,P|379:217|433:198,2,97.50000371933,0|2|0,0:0|0:0|0:0,0:0:0:0:
271,157,28862,2,2,P|215:145|191:151,1,73.1250027894975
111,198,29225,6,0,P|122:247|133:278,1,65,6|0,0:0|0:0,0:0:0:0:
169,234,29589,2,0,P|190:263|227:267,1,65,8|0,0:0|0:0,0:0:0:0:
228,334,29953,2,0,P|313:318|357:289,1,130,2|8,0:0|0:0,0:0:0:0:
351,208,30680,5,2,0:0:0:0:
291,135,31044,2,0,P|246:139|161:168,2,130,8|2|10,0:0|0:0|0:0,0:0:0:0:
336,124,31953,1,0,0:0:0:0:
343,190,32135,6,0,P|293:215|215:232,1,130,2|8,0:0|0:0,0:0:0:0:
198,294,32862,2,0,P|145:286|74:245,1,130,2|8,0:0|0:0,0:0:0:0:
119,153,33589,1,2,0:0:0:0:
119,153,33953,1,8,0:0:0:0:
204,93,34316,2,0,P|269:93|341:116,1,130,2|8,0:0|0:0,0:0:0:0:
346,147,34862,1,0,0:0:0:0:
350,196,35044,6,0,B|341:249|341:249|257:264,1,130,6|0,0:0|0:0,0:0:0:0:
215,208,35771,1,2,0:0:0:0:
215,208,36135,1,8,0:0:0:0:
124,142,36498,6,0,P|181:106|255:100,1,130,2|8,0:0|0:0,0:0:0:0:
335,126,37044,1,0,0:0:0:0:
335,126,37225,2,0,P|386:168|398:241,1,130,2|10,0:0|0:0,0:0:0:0:
262,228,37953,6,0,P|266:275|195:284,1,130,2|8,0:0|0:0,0:0:0:0:
174,181,38498,1,0,0:0:0:0:
174,181,38680,2,0,P|226:162|328:145,1,130,2|8,0:0|0:0,0:0:0:0:
323,245,39407,6,0,P|266:272|185:275,2,130,2|8|2,0:0|0:0|0:0,0:0:0:0:
353,215,40316,2,0,P|375:147|361:76,1,130,8|0,0:0|0:0,0:0:0:0:
246,92,40862,6,0,P|191:101|127:152,1,130,4|8,0:0|0:0,0:0:0:0:
204,174,41589,2,0,B|192:232|192:232|226:305,1,130,0|8,0:0|0:0,0:0:0:0:
291,289,42316,2,0,B|321:233|321:233|259:163,1,130,0|8,0:0|0:0,0:0:0:0:
308,134,43044,1,0,0:0:0:0:
308,134,43407,1,8,0:0:0:0:
276,219,43771,6,0,P|353:222|409:263,1,130,0|8,0:0|0:0,0:0:0:0:
336,280,44498,2,0,P|278:268|178:273,1,130,0|8,0:0|0:0,0:0:0:0:
118,271,45225,2,0,L|120:200,3,65,0|0|8|0,0:0|0:0|0:0|0:0,0:0:0:0:
162,190,45953,2,0,L|159:111,3,65,0|0|8|0,0:0|0:0|0:0|0:0,0:0:0:0:
234,96,46680,5,4,0:0:0:0:
331,135,47044,2,0,P|398:133|460:107,2,130,8|0|8,0:0|0:0|0:0,0:0:0:0:
265,162,48135,1,0,0:0:0:0:
184,181,48498,2,0,P|183:234|244:293,1,130,8|0,0:0|0:0,0:0:0:0:
297,221,49225,6,0,P|346:247|361:279,2,65,8|0|0,0:0|0:0|0:0,0:0:0:0:
216,149,49953,1,8,0:0:0:0:
131,163,50316,1,0,0:0:0:0:
129,254,50680,1,8,0:0:0:0:
224,239,51044,6,0,P|297:239|355:220,3,130,0|8|0|8,0:0|0:0|0:0|0:0,0:0:0:0:
259,184,52498,1,4,0:0:0:0:
119,171,62680,6,0,L|74:172,15,32.5,0|0|0|0|8|0|0|0|0|0|0|0|8|0|0|0,0:0|0:0|0:0|0:0|0:0|0:0|0:0|0:0|0:0|0:0|0:0|0:0|0:0|0:0|0:0|0:0,0:0:0:0:
87,172,64135,6,0,P|159:133|222:121,1,130,6|8,0:0|0:0,0:0:0:0:
286,134,64862,2,0,L|362:143,1,65,2|0,0:0|0:0,0:0:0:0:
321,205,65225,2,0,L|407:225,1,65,8|0,0:0|0:0,0:0:0:0:
332,286,65589,6,0,P|231:303|201:292,1,130,2|8,0:0|0:0,0:0:0:0:
174,219,66316,1,2,0:0:0:0:
153,158,66680,1,10,0:0:0:0:
153,158,66862,1,0,0:0:0:0:
96,135,67044,6,0,P|156:102|246:102,1,130,2|8,0:0|0:0,0:0:0:0:
237,131,67771,2,0,P|292:159|383:174,1,130,2|8,0:0|0:0,0:0:0:0:
381,183,68316,1,0,0:0:0:0:
367,258,68498,6,0,B|346:309|345:309|345:309|276:239,1,130,2|8,0:0|0:0,0:0:0:0:
266,182,69225,2,0,P|218:153|186:153,2,65,2|0|8,0:0|0:0|0:0,0:0:0:0:
156,247,69953,6,0,P|218:259|306:250,1,130,6|8,0:0|0:0,0:0:0:0:
342,292,70680,2,0,P|383:257|415:183,1,130,2|8,0:0|0:0,0:0:0:0:
371,92,71407,6,0,L|299:140,1,65,2|0,0:0|0:0,0:0:0:0:
344,185,71771,2,0,L|264:228,1,65,8|0,0:0|0:0,0:0:0:0:
246,149,72135,2,0,P|191:172|151:241,1,130,2|10,0:0|0:0,0:0:0:0:
236,281,72862,5,2,0:0:0:0:
342,296,73225,2,0,P|382:290|429:261,2,65,8|0|2,0:0|0:0|0:0,0:0:0:0:
227,283,73953,1,8,0:0:0:0:
141,294,74316,6,0,P|77:247|66:243,1,65,2|0,0:0|0:0,0:0:0:0:
123,188,74680,2,0,P|178:188|216:182,1,65,8|0,0:0|0:0,0:0:0:0:
270,198,75044,2,0,L|310:219,2,32.5,2|0|8,0:0|0:0|0:0,0:0:0:0:
335,132,75407,1,8,0:0:0:0:
254,114,75771,6,0,P|171:110|119:119,1,130,4|8,0:0|0:0,0:0:0:0:
142,182,76498,2,0,P|181:205|281:206,1,130,0|8,0:0|0:0,0:0:0:0:
308,170,77044,1,0,0:0:0:0:
368,178,77225,6,0,P|421:221|441:293,1,130,0|8,0:0|0:0,0:0:0:0:
348,285,77953,2,0,P|377:315|418:321,2,65,0|0|8,0:0|0:0|0:0,0:0:0:0:
283,250,78498,1,0,0:0:0:0:
205,278,78680,6,0,P|148:285|65:267,1,130,0|8,0:0|0:0,0:0:0:0:
117,217,79225,1,0,0:0:0:0:
124,166,79407,2,0,B|156:153|156:153|255:144,1,130,0|8,0:0|0:0,0:0:0:0:
343,178,80135,2,0,L|341:139,12,32.5,0|0|0|0|8|0|0|0|0|0|0|0|8,0:0|0:0|0:0|0:0|0:0|0:0|0:0|0:0|0:0|0:0|0:0|0:0|0:0,0:0:0:0:
343,178,81407,1,0,0:0:0:0:
231,202,81589,6,0,P|256:284|221:291,1,130,4|8,0:0|0:0,0:0:0:0:
158,246,82316,1,0,0:0:0:0:
76,241,82680,1,8,0:0:0:0:
69,163,83044,2,0,L|207:166,1,130,0|8,0:0|0:0,0:0:0:0:
280,145,83771,2,0,P|316:112|331:72,2,65,0|0|8,0:0|0:0|0:0,0:0:0:0:
177,213,84498,6,0,P|247:237|317:237,1,130,0|8,0:0|0:0,0:0:0:0:
411,202,85225,2,0,P|350:158|279:143,1,130,0|8,0:0|0:0,0:0:0:0:
293,195,85771,1,0,0:0:0:0:
256,242,85953,6,0,P|204:240|101:225,3,130,0|8|0|8,0:0|0:0|0:0|0:0,0:0:0:0:
126,227,87407,1,4,0:0:0:0:
90,189,88862,6,0,P|148:172|225:166,1,130,4|8,0:0|0:0,0:0:0:0:
328,174,89407,1,0,0:0:0:0:
328,174,89589,2,0,P|317:214|221:263,1,130,0|8,0:0|0:0,0:0:0:0:
139,270,90316,6,0,L|138:194,1,65
191,172,90680,2,0,L|196:97,1,65,8|0,0:0|0:0,0:0:0:0:
267,85,91044,2,0,P|316:87|412:124,1,130,0|8,0:0|0:0,0:0:0:0:
419,203,91771,6,0,P|347:211|264:211,1,130,0|8,0:0|0:0,0:0:0:0:
237,251,92316,1,0,0:0:0:0:
237,251,92498,2,0,P|178:246|110:199,1,130,0|8,0:0|0:0,0:0:0:0:
176,94,93225,6,0,L|247:91,1,65
231,155,93589,2,0,L|296:152,1,65,8|0,0:0|0:0,0:0:0:0:
316,110,93953,2,0,L|466:117,1,130,0|8,0:0|0:0,0:0:0:0:
344,218,94680,6,0,P|308:235|216:249,1,130,4|8,0:0|0:0,0:0:0:0:
111,227,95225,1,0,0:0:0:0:
111,227,95407,2,0,P|101:176|173:133,1,130,0|8,0:0|0:0,0:0:0:0:
251,143,96135,6,0,L|346:154,1,65
281,232,96498,2,0,L|371:239,1,65,8|0,0:0|0:0,0:0:0:0:
401,180,96862,2,0,B|446:238|446:238|447:238|447:238|448:238|448:238|408:288,1,130,0|8,0:0|0:0,0:0:0:0:
319,242,97589,6,0,P|239:254|186:244,1,130,0|8,0:0|0:0,0:0:0:0:
200,198,98135,1,0,0:0:0:0:
235,135,98316,2,0,P|190:133|239:158,1,130,0|8,0:0|0:0,0:0:0:0:
302,226,99044,6,0,P|365:200|369:195,1,65
406,136,99407,2,0,P|366:125|341:131,1,65,8|0,0:0|0:0,0:0:0:0:
281,122,99771,1,0,0:0:0:0:
207,168,100135,1,8,0:0:0:0:
300,227,100498,6,4,P|348:237|388:266,2,97.5
226,217,101407,1,4,0:0:0:0:
160,216,101589,2,4,P|114:204|96:188,1,65
185,116,101953,6,4,P|251:112|311:119,2,97.5
105,119,102862,1,4,0:0:0:0:
185,116,103044,2,4,B|167:155|167:155|130:185,1,65
144,230,103407,6,2,P|274:287|280:165,1,292.50001115799,6|10,0:0|0:0,0:0:0:0:
292,180,104680,2,2,B|258:162|239:189|239:189|256:202|256:202|287:180,3,97.50000371933
256,192,106316,5,4,0:0:0:0:
256,192,106317,12,0,112852,0:0:0:0:
