osu file format v14

[General]
AudioFilename: audio.mp3
AudioLeadIn: 0
PreviewTime: 28863
Countdown: 0
SampleSet: Normal
StackLeniency: 0.2
Mode: 0
LetterboxInBreaks: 0
WidescreenStoryboard: 1

[Editor]
Bookmarks: 5953,17589,29225,52498,64135,88862,100498
DistanceSpacing: 1
BeatDivisor: 4
GridSize: 8
TimelineZoom: 1

[Metadata]
Title:Patrick Zone
TitleUnicode:Patrick Zone
Artist:Tachin1994
ArtistUnicode:Tachin1994
Creator:Satou Kazuma01
Version:NO!!!, THIS IS PATRICK!!!
Source:Spongebob Squarepants
Tags:Youtube Red ZONE Nico Nico Douga Calling Bikini Bottom Is This The Krusty Krabs Tatsh & Naoki
BeatmapID:1675065
BeatmapSetID:797581

[Difficulty]
HPDrainRate:8
CircleSize:5
OverallDifficulty:9
ApproachRate:10
SliderMultiplier:2
SliderTickRate:1

[Events]
//Background and Video events
Video,-120,"【レッドゾーン】PATRICK ZONE.mp4"
0,0,"Patrick BG.jpg",0,0
//Break Periods
//Storyboard Layer 0 (Background)
//Storyboard Layer 1 (Fail)
//Storyboard Layer 2 (Pass)
//Storyboard Layer 3 (Foreground)
//Storyboard Sound Samples

[TimingPoints]
135,363.636363636364,4,1,0,80,1,0
17589,-133.333333333333,4,1,0,80,0,0
29225,-100,4,1,0,80,0,1
40498,-100,4,1,0,80,0,0
40862,-100,4,1,0,80,0,1
52498,-100,4,1,0,80,0,0
64135,-100,4,1,0,80,0,1
75407,-100,4,1,0,80,0,0
75771,-100,4,1,0,80,0,1
87407,-100,4,1,0,40,0,0
88862,-100,4,1,0,80,0,1
100135,-100,4,1,0,80,0,0
100498,-100,4,1,0,80,0,1
103407,-133.333333333333,4,1,0,80,0,0
104680,-133.333333333333,4,1,0,5,0,0
105407,-200,4,1,0,5,0,0
106316,-66.6666666666667,4,1,0,80,0,1
106407,-100,4,1,0,5,0,0

[HitObjects]
352,160,4498,5,2,0:0:0:0:
320,136,4589,1,2,0:0:0:0:
288,120,4680,1,2,0:0:0:0:
240,120,4771,2,2,L|168:128,1,50
96,184,5044,2,2,L|168:208,1,50
176,288,5225,2,2,P|208:296|232:288,1,50
288,216,5407,2,2,P|360:216|384:208,1,50
448,192,5589,2,2,L|456:144,3,50
384,48,5953,5,6,0:0:0:0:
344,48,6044,1,0,0:0:0:0:
320,72,6135,1,0,0:0:0:0:
280,72,6225,1,0,0:0:0:0:
240,48,6316,1,8,0:0:0:0:
208,64,6407,1,0,0:0:0:0:
184,88,6498,1,0,0:0:0:0:
166,122,6589,1,0,0:0:0:0:
164,161,6680,5,2,0:0:0:0:
182,192,6771,1,0,0:0:0:0:
225,201,6862,1,0,0:0:0:0:
264,184,6953,1,0,0:0:0:0:
288,200,7044,2,0,P|344:208|368:224,2,50,8|0|0,0:0|0:0|0:0,0:0:0:0:
320,272,7407,5,2,0:0:0:0:
280,280,7498,1,0,0:0:0:0:
248,280,7589,1,0,0:0:0:0:
224,272,7680,1,0,0:0:0:0:
193,255,7771,1,8,0:0:0:0:
173,227,7862,1,0,0:0:0:0:
157,205,7953,1,0,0:0:0:0:
152,168,8044,1,0,0:0:0:0:
153,128,8135,5,2,0:0:0:0:
192,112,8225,1,0,0:0:0:0:
224,96,8316,1,0,0:0:0:0:
256,104,8407,1,0,0:0:0:0:
288,112,8498,2,0,P|352:128|408:120,1,100,8|0,0:0|0:0,0:0:0:0:
328,264,8862,5,2,0:0:0:0:
280,288,8953,1,0,0:0:0:0:
240,288,9044,1,0,0:0:0:0:
192,288,9135,1,0,0:0:0:0:
152,272,9225,1,8,0:0:0:0:
128,240,9316,1,0,0:0:0:0:
136,208,9407,1,0,0:0:0:0:
153,175,9498,1,0,0:0:0:0:
180,156,9589,6,0,L|228:132,1,50,2|0,0:0|0:0,0:0:0:0:
321,247,9771,2,0,L|385:215,1,50
336,112,9953,2,0,P|376:112|416:136,2,50,8|0|0,0:0|0:0|0:0,0:0:0:0:
462,199,10316,6,0,L|454:287,1,50,2|0,0:0|0:0,0:0:0:0:
342,289,10498,2,0,L|342:361,1,50
47,79,10680,2,0,L|47:15,1,50,8|0,0:0|0:0,0:0:0:0:
163,133,10862,2,0,L|163:77,1,50
256,192,11044,5,10,0:0:0:0:
256,192,11225,1,10,0:0:0:0:
224,144,11407,2,10,P|312:136|344:144,2,66.6666666666667
88,48,11771,6,0,L|152:80,1,50,6|0,0:0|0:0,0:0:0:0:
208,32,11953,2,0,L|248:72,1,50
368,32,12135,2,0,L|320:72,1,50,8|0,0:0|0:0,0:0:0:0:
464,48,12316,2,0,L|416:96,1,50
256,192,12498,6,0,L|192:192,1,50,2|0,0:0|0:0,0:0:0:0:
152,192,12680,2,0,L|88:192,1,50
296,192,12862,2,0,L|360:192,1,50,8|0,0:0|0:0,0:0:0:0:
416,188,13044,1,0,0:0:0:0:
440,344,13225,6,0,L|352:344,1,50,2|0,0:0|0:0,0:0:0:0:
328,280,13407,2,0,L|400:280,1,50
320,200,13589,2,0,L|264:200,1,50,8|0,0:0|0:0,0:0:0:0:
232,136,13771,2,0,L|320:136,1,50
288,136,13953,6,0,L|216:136,1,50,2|0,0:0|0:0,0:0:0:0:
184,200,14135,2,0,L|248:200,1,50
184,272,14316,2,0,L|104:272,1,50,8|0,0:0|0:0,0:0:0:0:
72,336,14498,2,0,L|152:336,1,50
400,144,14680,6,0,P|384:112|400:80,1,50,2|0,0:0|0:0,0:0:0:0:
274,287,14862,2,0,P|242:279|210:287,1,50
123,154,15044,2,0,P|139:122|123:98,1,50,8|0,0:0|0:0,0:0:0:0:
266,50,15225,2,0,P|298:66|330:50,1,50
398,239,15407,6,0,P|398:207|414:191,1,50,2|0,0:0|0:0,0:0:0:0:
227,295,15589,2,0,P|203:271|179:263,1,50
116,111,15771,2,0,P|148:87|156:71,1,50,8|0,0:0|0:0,0:0:0:0:
301,47,15953,2,0,P|339:76|374:83,1,50
360,232,16135,5,10,0:0:0:0:
184,232,16498,1,10,0:0:0:0:
168,88,16680,1,10,0:0:0:0:
336,120,16862,1,10,0:0:0:0:
320,240,16983,1,10,0:0:0:0:
256,176,17135,6,10,L|256:120,4,50
256,176,17589,6,0,P|304:136|344:128,1,75.0000028610231,6|0,0:0|0:0,0:0:0:0:
256,176,17953,2,0,P|312:184|352:208,1,75.0000028610231,8|0,0:0|0:0,0:0:0:0:
256,176,18316,2,0,P|304:224|312:256,1,75.0000028610231
256,176,18680,2,0,L|256:272,1,75.0000028610231,8|0,0:0|0:0,0:0:0:0:
256,176,19044,6,0,P|232:216|192:224,1,75.0000028610231
256,176,19407,2,0,P|200:176|168:152,1,75.0000028610231,8|0,0:0|0:0,0:0:0:0:
256,176,19771,2,0,P|208:136|200:104,1,75.0000028610231
256,176,20135,2,0,L|256:88,1,75.0000028610231,8|0,0:0|0:0,0:0:0:0:
192,40,20498,5,2,0:0:0:0:
160,56,20589,1,0,0:0:0:0:
119,71,20680,1,0,0:0:0:0:
86,106,20771,1,0,0:0:0:0:
78,146,20862,1,8,0:0:0:0:
81,199,20953,1,0,0:0:0:0:
104,234,21044,1,0,0:0:0:0:
139,256,21135,1,0,0:0:0:0:
175,268,21225,5,2,0:0:0:0:
207,280,21316,1,0,0:0:0:0:
240,283,21407,1,0,0:0:0:0:
268,285,21498,1,0,0:0:0:0:
290,285,21589,1,8,0:0:0:0:
316,286,21680,1,0,0:0:0:0:
342,285,21771,1,0,0:0:0:0:
400,272,21953,5,2,0:0:0:0:
416,240,22044,1,0,0:0:0:0:
431,210,22135,1,0,0:0:0:0:
427,176,22225,1,0,0:0:0:0:
409,148,22316,1,8,0:0:0:0:
379,130,22407,1,0,0:0:0:0:
357,111,22498,1,0,0:0:0:0:
334,101,22589,1,0,0:0:0:0:
303,87,22680,5,2,0:0:0:0:
266,77,22771,1,0,0:0:0:0:
224,84,22862,1,0,0:0:0:0:
180,100,22953,1,0,0:0:0:0:
131,128,23044,1,8,0:0:0:0:
96,162,23135,1,0,0:0:0:0:
98,207,23225,1,0,0:0:0:0:
125,235,23316,1,0,0:0:0:0:
256,176,23407,6,0,P|208:136|168:128,1,75.0000028610231,6|0,0:0|0:0,0:0:0:0:
256,176,23771,2,0,P|200:184|160:208,1,75.0000028610231,8|0,0:0|0:0,0:0:0:0:
256,176,24134,2,0,P|208:224|200:256,1,75.0000028610231
256,176,24498,2,0,L|256:272,1,75.0000028610231,8|0,0:0|0:0,0:0:0:0:
256,176,24862,6,0,P|280:216|320:224,1,75.0000028610231
256,176,25225,2,0,P|312:176|344:152,1,75.0000028610231,8|0,0:0|0:0,0:0:0:0:
256,176,25589,2,0,P|304:136|312:104,1,75.0000028610231
256,176,25953,2,0,L|256:88,1,75.0000028610231,8|0,0:0|0:0,0:0:0:0:
58,130,26316,6,0,L|130:130,1,37.5000014305115,2|0,0:0|0:0,0:0:0:0:
50,266,26498,2,0,L|114:266,1,37.5000014305115
261,190,26680,2,0,L|189:190,1,37.5000014305115,8|0,0:0|0:0,0:0:0:0:
261,326,26862,2,0,L|213:326,1,37.5000014305115
476,273,27044,6,0,L|420:273,1,37.5000014305115,2|0,0:0|0:0,0:0:0:0:
476,129,27225,2,0,L|404:129,1,37.5000014305115
230,202,27407,2,0,L|286:202,1,37.5000014305115,8|0,0:0|0:0,0:0:0:0:
222,74,27589,2,0,L|278:74,1,37.5000014305115
256,192,27771,5,2,0:0:0:0:
256,192,28135,1,0,0:0:0:0:
256,192,28498,1,2,0:0:0:0:
160,104,28862,5,10,0:0:0:0:
352,104,28953,1,10,0:0:0:0:
160,272,29044,1,10,0:0:0:0:
352,280,29135,1,10,0:0:0:0:
170,46,29225,6,0,P|234:70|274:70,1,100,4|0,0:0|0:0,0:0:0:0:
384,64,29589,2,0,P|408:120|416:168,1,100,10|0,0:0|0:0,0:0:0:0:
344,224,29953,1,0,0:0:0:0:
320,216,30044,1,0,0:0:0:0:
296,208,30225,1,0,0:0:0:0:
326,149,30316,1,10,0:0:0:0:
256,160,30407,2,0,L|200:168,2,50
358,90,30680,6,0,L|406:106,2,50
206,78,31044,2,0,P|118:78|94:78,1,100,10|0,0:0|0:0,0:0:0:0:
160,160,31407,1,0,0:0:0:0:
192,168,31498,1,0,0:0:0:0:
224,184,31589,1,0,0:0:0:0:
272,192,31680,1,0,0:0:0:0:
325,193,31771,1,10,0:0:0:0:
368,192,31862,2,0,P|392:192|432:208,2,50
360,64,32135,6,0,P|304:56|232:64,1,100,4|0,0:0|0:0,0:0:0:0:
207,173,32498,2,0,P|207:237|223:261,2,50,10|0|0,0:0|0:0|0:0,0:0:0:0:
144,56,32862,1,0,0:0:0:0:
120,80,32953,1,0,0:0:0:0:
112,152,33135,1,0,0:0:0:0:
96,192,33225,2,0,P|168:224|192:224,1,100,10|0,0:0|0:0,0:0:0:0:
336,256,33589,6,0,P|376:216|384:200,3,50
400,40,33953,2,0,P|392:112|344:160,1,100,10|0,0:0|0:0,0:0:0:0:
247,40,34316,1,0,0:0:0:0:
249,303,34407,1,0,0:0:0:0:
116,159,34498,1,0,0:0:0:0:
402,164,34589,1,0,0:0:0:0:
248,160,34680,2,0,L|248:216,2,50,10|0|0,0:0|0:0|0:0,0:0:0:0:
184,88,35044,6,0,P|240:88|304:104,1,100,4|0,0:0|0:0,0:0:0:0:
336,144,35407,2,0,P|352:208|360:264,1,100,10|0,0:0|0:0,0:0:0:0:
388,298,35771,1,0,0:0:0:0:
314,327,35862,1,0,0:0:0:0:
230,347,35953,1,0,0:0:0:0:
148,286,36044,1,0,0:0:0:0:
240,248,36135,6,0,P|184:224|144:176,1,100,10|0,0:0|0:0,0:0:0:0:
156,196,36407,1,2,0:0:0:0:
200,96,36498,6,0,P|256:104|304:120,1,100
192,192,36862,2,0,P|264:200|312:176,1,100,10|0,0:0|0:0,0:0:0:0:
384,192,37225,1,0,0:0:0:0:
452,197,37316,1,0,0:0:0:0:
449,108,37407,1,0,0:0:0:0:
454,302,37498,1,0,0:0:0:0:
384,192,37589,2,0,L|240:192,1,100,10|0,0:0|0:0,0:0:0:0:
216,56,37953,6,0,P|256:112|272:160,1,100
360,240,38316,2,0,P|264:232|240:240,2,100,10|0|0,0:0|0:0|0:0,0:0:0:0:
360,240,38771,1,0,0:0:0:0:
360,240,38862,2,0,P|336:296|320:296,2,50,0|0|10,0:0|0:0|0:0,0:0:0:0:
336,128,39225,1,0,0:0:0:0:
264,72,39407,5,0,0:0:0:0:
248,80,39498,1,0,0:0:0:0:
232,88,39589,1,0,0:0:0:0:
216,96,39680,1,0,0:0:0:0:
192,96,39771,2,0,L|192:200,2,100,10|0|0,0:0|0:0|0:0,0:0:0:0:
192,96,40225,1,0,0:0:0:0:
192,96,40316,6,0,P|112:112|48:224,1,200,10|0,0:0|0:0,0:0:0:0:
344,120,40862,6,0,P|352:176|352:240,2,100,4|0|10,0:0|0:0|0:0,0:0:0:0:
344,120,41498,1,0,0:0:0:0:
240,88,41589,2,0,P|128:88|120:96,1,100
120,248,41953,2,0,B|208:248|208:248|240:224,1,100,10|0,0:0|0:0,0:0:0:0:
256,160,42316,5,0,0:0:0:0:
384,168,42498,1,0,0:0:0:0:
384,168,42680,1,10,0:0:0:0:
384,168,42771,2,0,L|384:104,2,50
280,168,43044,2,0,P|240:200|176:288,2,150,0|10|0,0:0|0:0|0:0,0:0:0:0:
136,88,43771,6,0,P|216:88|264:104,1,100
232,152,44135,2,0,P|336:144|376:120,1,150,10|0,0:0|0:0,0:0:0:0:
373,121,44589,2,0,P|432:176|456:240,1,150,0|10,0:0|0:0,0:0:0:0:
456,240,45044,1,0,0:0:0:0:
368,272,45225,5,0,0:0:0:0:
320,272,45316,1,0,0:0:0:0:
288,272,45407,1,0,0:0:0:0:
248,272,45498,1,0,0:0:0:0:
248,312,45589,5,10,0:0:0:0:
208,312,45680,1,0,0:0:0:0:
176,312,45771,1,0,0:0:0:0:
136,312,45862,1,0,0:0:0:0:
136,360,45953,5,0,0:0:0:0:
96,360,46044,1,0,0:0:0:0:
56,360,46135,1,0,0:0:0:0:
8,360,46225,1,0,0:0:0:0:
32,304,46316,6,8,P|80:248|136:232,1,100
176,96,46680,6,0,P|224:104|296:160,2,100,4|0|10,0:0|0:0|0:0,0:0:0:0:
176,96,47225,2,0,P|192:144|240:168,1,100
233,167,47589,1,0,0:0:0:0:
304,176,47771,1,10,0:0:0:0:
304,176,47953,1,0,0:0:0:0:
328,192,48044,1,0,0:0:0:0:
304,240,48135,6,0,P|216:280|144:296,2,150,0|10|0,0:0|0:0|0:0,0:0:0:0:
352,184,48862,2,0,L|344:120,1,50
480,109,49044,2,0,L|472:45,1,50
360,32,49225,2,0,L|288:40,1,50,10|0,0:0|0:0,0:0:0:0:
309,180,49407,2,0,L|253:188,1,50
200,80,49589,6,0,P|128:112|64:224,1,200,4|10,0:0|0:0,0:0:0:0:
65,212,50135,1,0,0:0:0:0:
279,228,50316,2,0,L|391:236,1,100
307,348,50680,2,0,L|195:364,1,100,10|0,0:0|0:0,0:0:0:0:
256,192,51044,5,2,0:0:0:0:
256,192,51407,1,0,0:0:0:0:
256,192,51771,1,10,0:0:0:0:
176,168,52135,2,10,L|176:240,3,50
248,248,52498,6,0,P|328:240|424:168,1,200,4|8,0:0|0:0,0:0:0:0:
368,96,53225,2,0,P|288:104|256:96,2,100,2|0|8,0:0|0:0|0:0,0:0:0:0:
440,112,53771,2,0,P|480:184|480:216,1,100,0|2,0:0|0:0,0:0:0:0:
344,224,54135,5,0,0:0:0:0:
168,224,54316,1,8,0:0:0:0:
256,72,54498,1,0,0:0:0:0:
344,224,54680,5,2,0:0:0:0:
168,224,54862,1,0,0:0:0:0:
256,72,55044,1,8,0:0:0:0:
344,224,55225,1,0,0:0:0:0:
144,128,55407,6,0,P|256:152|376:136,1,200,2|8,0:0|0:0,0:0:0:0:
184,248,56135,2,0,L|304:248,2,100,2|0|8,0:0|0:0|0:0,0:0:0:0:
184,248,56680,1,0,0:0:0:0:
184,80,56862,5,2,0:0:0:0:
384,80,57044,1,0,0:0:0:0:
272,264,57225,1,8,0:0:0:0:
184,80,57407,1,0,0:0:0:0:
384,80,57589,5,2,0:0:0:0:
272,264,57771,1,0,0:0:0:0:
184,80,57953,1,8,0:0:0:0:
384,80,58135,1,0,0:0:0:0:
104,184,58316,6,0,P|192:200|312:200,1,200,6|8,0:0|0:0,0:0:0:0:
400,160,59044,2,0,P|400:248|368:280,2,100,2|0|8,0:0|0:0|0:0,0:0:0:0:
240,320,59589,2,0,B|208:272|208:272|240:200,1,100,0|2,0:0|0:0,0:0:0:0:
344,224,59953,5,0,0:0:0:0:
168,224,60134,1,8,0:0:0:0:
256,72,60316,1,0,0:0:0:0:
344,224,60498,5,2,0:0:0:0:
168,224,60680,1,0,0:0:0:0:
256,72,60862,1,8,0:0:0:0:
344,224,61043,1,0,0:0:0:0:
120,296,61225,6,0,P|96:224|144:96,1,200,2|8,0:0|0:0,0:0:0:0:
336,168,61953,2,0,L|336:280,2,100,2|0|8,0:0|0:0|0:0,0:0:0:0:
336,168,62498,1,0,0:0:0:0:
184,80,62680,5,2,0:0:0:0:
384,80,62862,1,0,0:0:0:0:
272,264,63043,1,8,0:0:0:0:
184,80,63225,1,0,0:0:0:0:
384,80,63407,5,2,0:0:0:0:
272,264,63589,1,0,0:0:0:0:
184,80,63771,1,8,0:0:0:0:
384,80,63953,1,0,0:0:0:0:
344,31,64135,6,0,P|280:55|240:55,1,100,4|0,0:0|0:0,0:0:0:0:
128,64,64499,2,0,P|104:120|96:168,1,100,10|0,0:0|0:0,0:0:0:0:
168,224,64863,1,0,0:0:0:0:
192,216,64954,1,0,0:0:0:0:
216,208,65135,1,0,0:0:0:0:
186,149,65226,1,10,0:0:0:0:
256,160,65317,2,0,L|312:168,2,50
144,72,65590,6,0,L|96:88,2,50
264,72,65954,2,0,P|352:72|376:72,1,100,10|0,0:0|0:0,0:0:0:0:
352,160,66317,1,0,0:0:0:0:
320,168,66408,1,0,0:0:0:0:
288,184,66499,1,0,0:0:0:0:
240,192,66589,1,0,0:0:0:0:
187,193,66680,1,10,0:0:0:0:
144,192,66772,2,0,P|120:192|80:208,2,50
152,64,67045,6,0,P|208:56|280:64,1,100,4|0,0:0|0:0,0:0:0:0:
329,141,67408,2,0,P|329:205|313:229,2,50,10|0|0,0:0|0:0|0:0,0:0:0:0:
368,56,67772,1,0,0:0:0:0:
392,80,67863,1,0,0:0:0:0:
400,152,68045,1,0,0:0:0:0:
416,192,68135,2,0,P|344:224|320:224,1,100,10|0,0:0|0:0,0:0:0:0:
176,256,68499,6,0,P|136:216|128:200,3,50
112,40,68863,2,0,P|120:112|168:160,1,100,10|0,0:0|0:0,0:0:0:0:
264,37,69226,1,0,0:0:0:0:
264,160,69317,1,0,0:0:0:0:
265,270,69408,1,0,0:0:0:0:
413,161,69499,1,0,0:0:0:0:
146,159,69590,2,0,L|90:159,2,50,10|0|0,0:0|0:0|0:0,0:0:0:0:
328,88,69954,6,0,P|272:88|208:104,1,100,4|0,0:0|0:0,0:0:0:0:
176,144,70317,2,0,P|160:208|152:264,1,100,10|0,0:0|0:0,0:0:0:0:
196,182,70681,1,0,0:0:0:0:
344,328,70772,1,0,0:0:0:0:
194,304,70863,1,0,0:0:0:0:
272,248,70954,1,0,0:0:0:0:
272,248,71045,6,0,P|328:224|368:176,1,100,10|0,0:0|0:0,0:0:0:0:
356,196,71317,1,2,0:0:0:0:
312,96,71408,6,0,P|256:104|208:120,1,100
320,192,71772,2,0,P|248:200|200:176,1,100,10|0,0:0|0:0,0:0:0:0:
132,53,72135,1,0,0:0:0:0:
37,193,72226,1,0,0:0:0:0:
132,344,72317,1,0,0:0:0:0:
128,192,72408,1,0,0:0:0:0:
128,192,72499,2,0,L|272:192,1,100,10|0,0:0|0:0,0:0:0:0:
296,56,72863,6,0,P|256:112|240:160,1,100
152,240,73226,2,0,P|248:232|272:240,2,100,10|0|0,0:0|0:0|0:0,0:0:0:0:
152,240,73681,1,0,0:0:0:0:
152,240,73772,2,0,P|176:296|192:296,2,50,0|0|10,0:0|0:0|0:0,0:0:0:0:
176,128,74135,1,0,0:0:0:0:
248,72,74317,5,0,0:0:0:0:
264,80,74408,1,0,0:0:0:0:
280,88,74499,1,0,0:0:0:0:
296,96,74590,1,0,0:0:0:0:
320,96,74681,2,0,L|320:200,2,100,10|0|0,0:0|0:0|0:0,0:0:0:0:
320,96,75135,5,0,0:0:0:0:
320,96,75226,6,0,P|400:112|464:224,1,200,10|0,0:0|0:0,0:0:0:0:
168,120,75771,6,0,P|160:176|160:240,2,100,4|0|10,0:0|0:0|0:0,0:0:0:0:
168,120,76407,1,0,0:0:0:0:
272,88,76498,2,0,P|384:88|392:96,1,100
392,248,76862,2,0,B|304:248|304:248|272:224,1,100,10|0,0:0|0:0,0:0:0:0:
256,160,77225,5,0,0:0:0:0:
128,168,77407,1,0,0:0:0:0:
128,168,77589,1,10,0:0:0:0:
128,168,77680,2,0,L|128:104,2,50
232,168,77953,2,0,P|272:200|336:288,2,150,0|10|0,0:0|0:0|0:0,0:0:0:0:
376,88,78680,6,0,P|296:88|248:104,1,100
280,152,79044,2,0,P|176:144|136:120,1,150,10|0,0:0|0:0,0:0:0:0:
139,121,79498,2,0,P|80:176|56:240,1,150,0|10,0:0|0:0,0:0:0:0:
56,240,79953,1,0,0:0:0:0:
144,272,80134,5,0,0:0:0:0:
192,272,80225,1,0,0:0:0:0:
224,272,80316,1,0,0:0:0:0:
264,272,80407,1,0,0:0:0:0:
264,312,80498,5,10,0:0:0:0:
304,312,80589,1,0,0:0:0:0:
336,312,80680,1,0,0:0:0:0:
376,312,80771,1,0,0:0:0:0:
376,360,80862,5,0,0:0:0:0:
416,360,80953,1,0,0:0:0:0:
456,360,81044,1,0,0:0:0:0:
504,360,81134,1,0,0:0:0:0:
480,304,81225,6,8,P|432:248|376:232,1,100
336,96,81589,6,0,P|288:104|216:160,2,100,4|0|10,0:0|0:0|0:0,0:0:0:0:
336,96,82134,2,0,P|320:144|272:168,1,100
279,167,82498,1,0,0:0:0:0:
208,176,82680,1,10,0:0:0:0:
208,176,82862,1,0,0:0:0:0:
184,192,82953,1,0,0:0:0:0:
208,240,83044,6,0,P|296:280|368:296,2,150,0|10|0,0:0|0:0|0:0,0:0:0:0:
160,184,83771,2,0,L|168:120,1,50
42,129,83953,2,0,L|50:65,1,50
152,32,84134,2,0,L|224:40,1,50,10|0,0:0|0:0,0:0:0:0:
240,154,84316,2,0,L|296:162,1,50
312,80,84498,6,0,P|384:112|448:224,1,200,4|10,0:0|0:0,0:0:0:0:
447,212,85044,1,0,0:0:0:0:
204,221,85225,2,0,L|92:229,1,100
237,346,85589,2,0,L|349:362,1,100,10|0,0:0|0:0,0:0:0:0:
256,192,85953,5,2,0:0:0:0:
256,192,86316,1,0,0:0:0:0:
256,192,86680,1,10,0:0:0:0:
336,168,87044,6,10,L|336:240,3,50
256,192,87407,6,0,L|256:232,31,25
50,29,88862,6,0,L|50:93,1,50,6|0,0:0|0:0,0:0:0:0:
122,29,89044,2,0,L|122:101,1,50
194,29,89225,2,0,L|194:109,1,50,10|0,0:0|0:0,0:0:0:0:
266,29,89407,2,0,L|266:85,1,50
330,29,89589,2,0,L|330:93,1,50,2|0,0:0|0:0,0:0:0:0:
394,37,89771,2,0,L|394:109,1,50
466,37,89953,2,0,L|466:77,7,25,10|0|0|0|0|0|0|0,0:0|0:0|0:0|0:0|0:0|0:0|0:0|0:0,0:0:0:0:
462,357,90316,6,0,L|462:293,1,50,2|0,0:0|0:0,0:0:0:0:
390,357,90498,2,0,L|390:285,1,50
318,357,90679,2,0,L|318:277,1,50,10|0,0:0|0:0,0:0:0:0:
246,357,90861,2,0,L|246:301,1,50
182,357,91043,2,0,L|182:293,1,50,2|0,0:0|0:0,0:0:0:0:
118,349,91225,2,0,L|118:277,1,50
46,349,91407,2,0,L|46:309,7,25,10|0|0|0|0|0|0|0,0:0|0:0|0:0|0:0|0:0|0:0|0:0|0:0,0:0:0:0:
376,288,91771,6,0,L|424:328,1,50
152,64,91953,2,0,L|86:9,1,50
248,296,92135,2,0,L|248:392,1,50,10|0,0:0|0:0,0:0:0:0:
256,64,92316,2,0,L|256:-8,1,50
144,280,92498,6,0,L|96:312,1,50
352,56,92680,2,0,L|392:24,1,50
112,152,92862,2,0,L|40:152,1,50,10|0,0:0|0:0,0:0:0:0:
392,152,93044,2,0,L|456:152,1,50
152,64,93225,6,0,L|96:16,1,50
376,288,93407,2,0,L|416:320,1,50
256,64,93589,2,0,L|256:8,1,50,10|0,0:0|0:0,0:0:0:0:
261,305,93771,2,0,L|261:361,1,50
352,56,93953,6,0,L|393:22,1,50
144,280,94135,2,0,L|100:311,1,50
392,152,94316,2,0,L|464:152,1,50,10|0,0:0|0:0,0:0:0:0:
112,152,94498,2,0,L|48:152,1,50
408,112,94680,5,4,0:0:0:0:
424,152,94771,1,0,0:0:0:0:
416,192,94862,1,0,0:0:0:0:
384,208,94953,1,0,0:0:0:0:
352,200,95044,1,10,0:0:0:0:
320,200,95135,1,0,0:0:0:0:
296,200,95225,1,0,0:0:0:0:
272,176,95316,1,0,0:0:0:0:
264,144,95407,5,0,0:0:0:0:
232,112,95498,1,0,0:0:0:0:
184,128,95589,1,0,0:0:0:0:
160,136,95680,1,0,0:0:0:0:
128,152,95771,1,10,0:0:0:0:
112,176,95862,1,0,0:0:0:0:
88,200,95953,1,0,0:0:0:0:
72,224,96044,1,0,0:0:0:0:
72,256,96135,5,0,0:0:0:0:
96,272,96225,1,0,0:0:0:0:
128,272,96316,1,0,0:0:0:0:
160,256,96407,1,0,0:0:0:0:
184,232,96498,1,10,0:0:0:0:
200,208,96589,1,0,0:0:0:0:
224,192,96680,1,0,0:0:0:0:
248,176,96771,1,0,0:0:0:0:
280,168,96862,5,0,0:0:0:0:
320,168,96953,1,0,0:0:0:0:
352,184,97044,1,0,0:0:0:0:
376,200,97135,1,0,0:0:0:0:
400,216,97225,1,10,0:0:0:0:
424,240,97316,1,0,0:0:0:0:
448,272,97407,1,0,0:0:0:0:
464,304,97498,1,0,0:0:0:0:
344,312,97589,6,0,L|264:312,1,50
224,312,97771,2,0,L|160:312,1,50
136,240,97953,6,0,L|200:240,1,50,10|0,0:0|0:0,0:0:0:0:
264,240,98135,2,0,L|328:240,1,50,10|0,0:0|0:0,0:0:0:0:
288,152,98316,6,0,L|216:152,1,50
168,152,98498,2,0,L|88:152,1,50
96,80,98680,6,0,L|168:80,1,50,10|0,0:0|0:0,0:0:0:0:
224,80,98862,2,0,L|296:80,1,50,10|0,0:0|0:0,0:0:0:0:
336,32,99044,5,2,0:0:0:0:
320,32,99135,1,0,0:0:0:0:
296,32,99225,1,10,0:0:0:0:
192,32,99407,1,10,0:0:0:0:
208,32,99498,1,0,0:0:0:0:
224,32,99589,1,10,0:0:0:0:
336,344,99771,5,2,0:0:0:0:
320,344,99862,1,0,0:0:0:0:
296,344,99952,1,10,0:0:0:0:
192,344,100134,1,10,0:0:0:0:
208,344,100225,1,0,0:0:0:0:
224,344,100316,1,10,0:0:0:0:
136,192,100498,6,4,P|192:192|304:176,1,150,4|6,0:0|0:0,0:0:0:0:
176,88,101044,2,4,P|304:88|392:104,1,200,4|12,0:0|0:0,0:0:0:0:
400,160,101589,2,4,L|408:280,1,100,4|14,0:0|0:0,0:0:0:0:
344,224,101953,6,4,P|248:232|200:256,1,150,4|6,0:0|0:0,0:0:0:0:
288,104,102498,2,4,P|224:104|96:144,1,200,4|12,0:0|0:0,0:0:0:0:
120,224,103044,2,4,P|184:248|224:248,1,100,4|14,0:0|0:0,0:0:0:0:
344,168,103407,6,10,B|272:168|256:144|360:88|360:88|440:144|440:144|432:184|432:184|408:208|408:208|328:128,1,450.000017166138,4|10,0:0|0:0,0:0:0:0:
256,64,104680,2,2,P|184:80|104:128,1,150.000005722046
80,176,105407,2,2,L|80:288,1,100
256,192,106316,5,4,0:0:0:0:
256,192,106317,12,0,112852,0:0:0:0:
