osu file format v14

[General]
AudioFilename: audio.mp3
AudioLeadIn: 0
PreviewTime: 2848
Countdown: 0
SampleSet: Normal
StackLeniency: 0.7
Mode: 1
LetterboxInBreaks: 0
WidescreenStoryboard: 1

[Editor]
Bookmarks: 17765,31987,46209,60431,87098,90654,104876,119098,133320,147542,154654,161765
DistanceSpacing: 0.7
BeatDivisor: 16
GridSize: 8
TimelineZoom: 3.299999

[Metadata]
Title:Nothingness
TitleUnicode:無
Artist:Tachiiri Kinshi
ArtistUnicode:立入禁止
Creator:SB Rookie
Version:Kantan
Source:
Tags:歌愛ユキ Kaai Yuki 诗岸 Shian synthesizer v synthv VOCALOID Japanese Chinese pop jpop j-pop j cpop c-pop c rock jrock j-rock crock c-rock slow sv
BeatmapID:4394834
BeatmapSetID:2084947

[Difficulty]
HPDrainRate:8
CircleSize:7
OverallDifficulty:3
ApproachRate:10
SliderMultiplier:1.4
SliderTickRate:1

[Events]
//Background and Video events
0,0,"BG.png",0,0
//Break Periods
2,60624,61307
//Storyboard Layer 0 (Background)
//Storyboard Layer 1 (Fail)
//Storyboard Layer 2 (Pass)
//Storyboard Layer 3 (Foreground)
//Storyboard Layer 4 (Overlay)
//Storyboard Sound Samples

[TimingPoints]
3535,444.444444444444,4,1,0,75,1,0
3535,-100,4,1,0,75,0,1
17757,-100,4,1,0,75,0,0
18590,-100,4,1,0,70,0,0
28396,444.444444444444,4,1,0,70,1,0
30173,444.444444444444,4,1,0,70,1,8
30202,444.444444444444,4,1,0,70,1,0
31951,-100,4,1,0,72,0,0
32173,-100,4,1,0,66,0,0
46146,-100,4,1,0,68,0,0
46257,-100,4,1,0,62,0,0
61312,-100,4,1,0,50,0,0
89979,-100,4,1,0,55,0,0
90201,-100,4,1,0,60,0,0
90424,-100,4,1,0,65,0,0
90645,-100,4,1,0,70,0,0
104840,-100,4,1,0,65,0,0
119146,-100,4,1,0,68,0,0
133313,-100,4,1,0,68,0,1
147535,-100,4,1,0,60,0,0
154979,-100,4,1,0,56,0,0
158174,444.444444444444,4,1,0,56,1,0
158632,444.444444444444,4,1,0,56,1,8
159062,444.444444444444,4,1,0,56,1,8
159979,444.444444444444,4,1,0,56,1,0
161646,-100,4,1,0,25,0,0
189757,-100,4,1,0,30,0,0
189979,-100,4,1,0,35,0,0
190200,-100,4,1,0,40,0,0

[HitObjects]
147,236,3535,5,12,0:0:0:0:
257,164,4423,1,0,0:0:0:0:
80,225,4868,1,8,0:0:0:0:
199,178,5312,1,0,0:0:0:0:
199,178,6201,1,0,0:0:0:0:
199,178,6646,1,0,0:0:0:0:
199,178,7090,1,8,0:0:0:0:
199,178,7979,1,0,0:0:0:0:
257,131,8868,1,8,0:0:0:0:
320,218,9312,1,8,0:0:0:0:
258,172,9757,1,0,0:0:0:0:
186,232,10201,1,0,0:0:0:0:
244,297,10646,5,12,0:0:0:0:
324,186,11534,1,0,0:0:0:0:
307,207,11979,1,8,0:0:0:0:
315,112,12423,1,8,0:0:0:0:
293,101,13312,1,0,0:0:0:0:
293,101,13757,1,0,0:0:0:0:
290,191,14201,1,12,0:0:0:0:
261,207,15090,1,0,0:0:0:0:
261,207,15979,1,0,0:0:0:0:
153,178,16423,1,8,0:0:0:0:
187,161,16868,1,8,0:0:0:0:
307,214,17757,5,12,0:0:0:0:
103,212,19534,1,0,0:0:0:0:
350,66,19951,1,0,0:0:0:0:
374,225,20368,1,8,0:0:0:0:
195,217,21312,1,0,0:0:0:0:
230,209,22201,1,8,0:0:0:0:
248,137,23090,1,0,0:0:0:0:
248,142,24868,1,12,0:0:0:0:
218,177,25757,1,8,0:0:0:0:
121,200,26646,1,0,0:0:0:0:
127,198,27062,1,0,0:0:0:0:
178,140,27534,1,8,0:0:0:0:
178,140,28396,1,8,0:0:0:0:
178,140,29284,1,8,0:0:0:0:
178,140,30202,1,0,0:0:0:0:
230,98,31979,1,8,0:0:0:0:
223,126,32868,1,0,0:0:0:0:
223,126,33757,1,8,0:0:0:0:
223,126,34201,1,0,0:0:0:0:
291,178,34646,1,8,0:0:0:0:
291,178,35535,1,0,0:0:0:0:
270,180,35979,1,0,0:0:0:0:
240,173,36424,1,8,0:0:0:0:
240,173,37313,1,8,0:0:0:0:
198,153,37757,1,0,0:0:0:0:
192,150,38201,1,0,0:0:0:0:
199,154,39090,1,8,0:0:0:0:
187,114,39979,1,0,0:0:0:0:
187,114,40868,1,0,0:0:0:0:
187,115,41313,1,8,0:0:0:0:
187,114,41757,1,0,0:0:0:0:
187,114,42646,1,0,0:0:0:0:
202,65,43535,1,0,0:0:0:0:
202,69,44424,1,8,0:0:0:0:
252,199,45757,1,12,0:0:0:0:
281,252,46201,1,12,0:0:0:0:
236,204,47090,1,0,0:0:0:0:
176,90,47979,1,8,0:0:0:0:
292,87,48424,1,0,0:0:0:0:
149,124,48868,1,8,0:0:0:0:
196,114,49757,1,8,0:0:0:0:
262,172,50646,1,0,0:0:0:0:
149,125,51535,1,0,0:0:0:0:
179,187,51979,1,0,0:0:0:0:
176,189,52424,1,8,0:0:0:0:
164,151,53313,1,12,0:0:0:0:
281,214,54201,1,0,0:0:0:0:
252,212,55090,1,0,0:0:0:0:
247,168,55535,1,8,0:0:0:0:
274,203,55979,1,0,0:0:0:0:
227,133,56868,1,12,0:0:0:0:
227,141,57757,1,0,0:0:0:0:
226,141,58201,1,0,0:0:0:0:
194,133,58646,1,8,0:0:0:0:
193,145,59535,1,0,0:0:0:0:
194,158,60424,1,12,0:0:0:0:
178,231,61757,5,0,0:0:0:0:
302,179,62201,1,8,0:0:0:0:
302,179,63090,1,0,0:0:0:0:
302,179,63979,1,8,0:0:0:0:
302,179,64424,1,0,0:0:0:0:
302,179,64868,1,8,0:0:0:0:
302,179,65757,1,8,0:0:0:0:
302,179,66646,1,0,0:0:0:0:
195,195,67535,1,8,0:0:0:0:
302,136,68868,1,0,0:0:0:0:
308,131,69313,1,8,0:0:0:0:
308,131,70201,1,8,0:0:0:0:
308,131,71090,1,0,0:0:0:0:
230,263,71535,1,0,0:0:0:0:
308,131,71979,1,8,0:0:0:0:
308,131,72868,1,0,0:0:0:0:
308,131,73313,1,8,0:0:0:0:
308,131,74201,1,8,0:0:0:0:
308,131,74646,1,0,0:0:0:0:
269,114,75979,1,0,0:0:0:0:
265,114,76424,1,8,0:0:0:0:
265,114,77313,1,0,0:0:0:0:
265,114,78201,1,0,0:0:0:0:
227,163,78646,1,0,0:0:0:0:
227,163,79090,1,8,0:0:0:0:
227,163,79979,1,0,0:0:0:0:
227,163,80868,1,0,0:0:0:0:
227,163,81757,1,8,0:0:0:0:
229,163,83090,1,0,0:0:0:0:
229,163,83535,1,8,0:0:0:0:
229,163,83979,1,0,0:0:0:0:
178,173,86646,1,8,0:0:0:0:
178,173,87090,1,0,0:0:0:0:
197,171,88868,1,0,0:0:0:0:
325,215,89757,1,8,0:0:0:0:
181,286,90646,5,12,0:0:0:0:
136,297,91535,1,8,0:0:0:0:
157,258,91979,1,0,0:0:0:0:
202,72,92424,1,0,0:0:0:0:
180,78,93313,1,8,0:0:0:0:
82,75,94201,1,0,0:0:0:0:
96,85,95090,1,8,0:0:0:0:
137,108,95535,1,0,0:0:0:0:
138,111,95979,1,8,0:0:0:0:
219,111,97757,1,8,0:0:0:0:
150,220,98646,1,8,0:0:0:0:
181,154,99090,1,0,0:0:0:0:
198,136,99535,1,0,0:0:0:0:
199,146,100424,1,8,0:0:0:0:
181,158,101313,1,0,0:0:0:0:
181,164,102201,1,8,0:0:0:0:
181,167,102646,1,0,0:0:0:0:
181,169,103090,1,8,0:0:0:0:
181,169,104868,1,12,0:0:0:0:
51,129,105757,1,8,0:0:0:0:
62,136,106646,1,0,0:0:0:0:
62,136,107535,1,0,0:0:0:0:
109,113,107979,1,0,0:0:0:0:
95,139,108424,1,8,0:0:0:0:
95,139,109313,1,0,0:0:0:0:
100,142,110201,1,8,0:0:0:0:
100,142,111090,1,8,0:0:0:0:
151,92,111979,1,8,0:0:0:0:
151,92,112868,1,0,0:0:0:0:
331,79,113757,1,0,0:0:0:0:
297,82,114201,1,0,0:0:0:0:
299,88,114646,1,8,0:0:0:0:
299,92,115535,1,8,0:0:0:0:
299,92,116424,1,0,0:0:0:0:
299,98,117313,1,8,0:0:0:0:
218,88,117757,1,0,0:0:0:0:
218,88,118201,1,8,0:0:0:0:
224,97,119090,1,12,0:0:0:0:
248,133,120868,1,0,0:0:0:0:
199,47,121313,1,8,0:0:0:0:
183,142,121757,1,0,0:0:0:0:
199,142,122646,1,8,0:0:0:0:
199,142,123535,1,8,0:0:0:0:
199,142,124424,1,0,0:0:0:0:
202,148,124868,1,0,0:0:0:0:
204,150,125313,1,8,0:0:0:0:
230,120,126201,1,0,0:0:0:0:
233,148,127979,1,0,0:0:0:0:
245,157,128424,1,8,0:0:0:0:
248,162,128868,1,0,0:0:0:0:
248,162,129757,1,8,0:0:0:0:
245,157,130646,1,0,0:0:0:0:
168,85,131535,1,8,0:0:0:0:
268,215,132868,1,12,0:0:0:0:
190,65,133313,1,12,0:0:0:0:
189,129,134201,1,8,0:0:0:0:
249,206,134646,1,0,0:0:0:0:
193,129,135090,1,0,0:0:0:0:
193,129,135979,1,8,0:0:0:0:
142,301,136424,1,0,0:0:0:0:
193,129,136868,1,8,0:0:0:0:
224,180,137757,1,8,0:0:0:0:
216,185,138646,1,8,0:0:0:0:
216,185,139090,1,0,0:0:0:0:
216,185,139535,1,0,0:0:0:0:
464,196,139979,1,0,0:0:0:0:
205,185,140424,1,12,0:0:0:0:
239,141,141313,1,0,0:0:0:0:
230,152,142201,1,0,0:0:0:0:
236,156,143090,1,0,0:0:0:0:
192,236,143535,1,0,0:0:0:0:
240,138,143979,1,8,0:0:0:0:
243,141,144868,1,8,0:0:0:0:
243,141,145757,1,0,0:0:0:0:
221,150,146646,1,8,0:0:0:0:
255,197,147090,1,0,0:0:0:0:
211,94,147535,1,12,0:0:0:0:
167,179,149313,1,0,0:0:0:0:
189,109,149729,1,0,0:0:0:0:
298,113,150146,1,8,0:0:0:0:
188,102,151090,1,0,0:0:0:0:
240,153,151979,1,8,0:0:0:0:
134,106,152868,1,0,0:0:0:0:
204,94,154646,1,12,0:0:0:0:
368,279,155535,1,8,0:0:0:0:
214,184,156424,1,0,0:0:0:0:
192,145,156840,1,0,0:0:0:0:
204,150,157313,1,8,0:0:0:0:
205,156,158174,1,0,0:0:0:0:
208,158,159063,1,8,0:0:0:0:
149,117,159979,1,0,0:0:0:0:
302,179,161757,1,8,0:0:0:0:
93,238,162645,1,0,0:0:0:0:
302,179,163535,1,8,0:0:0:0:
302,179,164424,1,8,0:0:0:0:
302,179,165313,1,8,0:0:0:0:
302,179,166201,1,0,0:0:0:0:
195,195,167090,1,8,0:0:0:0:
302,136,168424,1,0,0:0:0:0:
308,131,168868,1,8,0:0:0:0:
136,219,169756,1,8,0:0:0:0:
308,131,170646,1,0,0:0:0:0:
207,212,171534,1,8,0:0:0:0:
308,131,172424,1,0,0:0:0:0:
308,131,172868,1,8,0:0:0:0:
278,216,173756,1,8,0:0:0:0:
308,131,174201,1,0,0:0:0:0:
265,114,175979,1,8,0:0:0:0:
208,191,176867,1,0,0:0:0:0:
265,114,177757,1,0,0:0:0:0:
227,163,178646,1,8,0:0:0:0:
227,163,179535,1,0,0:0:0:0:
227,163,180424,1,8,0:0:0:0:
227,163,181313,1,8,0:0:0:0:
229,163,182646,1,0,0:0:0:0:
229,163,183090,1,8,0:0:0:0:
178,173,186646,1,0,0:0:0:0:
197,171,188424,1,0,0:0:0:0:
325,215,189313,1,8,0:0:0:0:
181,286,190201,5,12,0:0:0:0:
