osu file format v14

[General]
AudioFilename: audio.mp3
AudioLeadIn: 0
PreviewTime: 2848
Countdown: 0
SampleSet: Normal
StackLeniency: 0.7
Mode: 1
LetterboxInBreaks: 0
WidescreenStoryboard: 0

[Editor]
Bookmarks: 17765,31987,46209,60431,87098,90654,104876,119098,133320,147542,154654,161765
DistanceSpacing: 0.7
BeatDivisor: 8
GridSize: 8
TimelineZoom: 2.46

[Metadata]
Title:Nothingness
TitleUnicode:無
Artist:Tachiiri Kinshi
ArtistUnicode:立入禁止
Creator:SB Rookie
Version:Emptiness
Source:
Tags:歌愛ユキ Kaai Yuki 诗岸 Shian synthesizer v synthv VOCALOID Japanese Chinese pop jpop j-pop j cpop c-pop c rock jrock j-rock crock c-rock slow sv
BeatmapID:4367356
BeatmapSetID:2084947

[Difficulty]
HPDrainRate:5.5
CircleSize:7
OverallDifficulty:5.5
ApproachRate:10
SliderMultiplier:1.4
SliderTickRate:1

[Events]
//Background and Video events
0,0,"BG.png",0,0
//Break Periods
2,60624,61307
//Storyboard Layer 0 (Background)
//Storyboard Layer 1 (Fail)
//Storyboard Layer 2 (Pass)
//Storyboard Layer 3 (Foreground)
//Storyboard Layer 4 (Overlay)
//Storyboard Sound Samples

[TimingPoints]
3535,444.444444444444,4,1,0,75,1,0
3535,-100,4,1,0,75,0,1
14368,-99.502487562189,4,1,0,75,0,1
14590,-99.009900990099,4,1,0,75,0,1
14812,-98.5221674876847,4,1,0,75,0,1
15034,-98.0392156862745,4,1,0,75,0,1
15257,-97.5609756097561,4,1,0,75,0,1
15479,-97.0873786407767,4,1,0,75,0,1
15701,-96.6183574879227,4,1,0,75,0,1
15923,-96.1538461538461,4,1,0,75,0,1
16034,-95.9232613908873,4,1,0,75,0,1
16146,-95.6937799043062,4,1,0,75,0,1
16257,-95.4653937947494,4,1,0,75,0,1
16368,-95.2380952380952,4,1,0,75,0,1
16590,-94.7867298578199,4,1,0,75,0,1
16701,-94.5626477541371,4,1,0,75,0,1
16812,-94.3396226415094,4,1,0,75,0,1
17034,-93.8967136150235,4,1,0,75,0,1
17146,-93.6768149882904,4,1,0,75,0,1
17257,-93.4579439252336,4,1,0,75,0,1
17368,-93.2400932400932,4,1,0,75,0,1
17479,-93.0232558139535,4,1,0,75,0,1
17590,-92.8074245939675,4,1,0,75,0,1
17757,-88.4955752212389,4,1,0,75,0,0
18534,-105.263157894737,4,1,0,70,0,0
19423,-107.52688172043,4,1,0,70,0,0
19868,-108.621860149355,4,1,0,70,0,0
20312,-109.739368998628,4,1,0,70,0,0
21201,-112.359550561798,4,1,0,70,0,0
21479,-112.994350282486,4,1,0,70,0,0
21590,-113.314447592068,4,1,0,70,0,0
21701,-113.636363636364,4,1,0,70,0,0
22146,-114.942528735632,4,1,0,70,0,0
23034,-117.647058823529,4,1,0,70,0,0
23257,-118.343195266272,4,1,0,70,0,0
23479,-119.047619047619,4,1,0,70,0,0
23590,-119.402985074627,4,1,0,70,0,0
23701,-119.760479041916,4,1,0,70,0,0
23923,-120.481927710843,4,1,0,70,0,0
24146,-121.212121212121,4,1,0,70,0,0
24368,-121.951219512195,4,1,0,70,0,0
24479,-122.324159021407,4,1,0,70,0,0
24590,-122.699386503067,4,1,0,70,0,0
24812,-123.456790123457,4,1,0,70,0,0
25701,-126.582278481013,4,1,0,70,0,0
26590,-129.87012987013,4,1,0,70,0,0
27034,-131.470829909614,4,1,0,70,0,0
27479,-133.333333333333,4,1,0,70,0,0
28368,-131.470829909614,4,1,0,70,0,0
28396,444.444444444444,4,1,0,70,1,0
28396,-136.869118905047,4,1,0,70,0,0
28812,-138.768430182134,4,1,0,70,0,0
29257,-140.721196130167,4,1,0,70,0,0
30173,444.444444444444,4,1,0,70,1,8
30202,444.444444444444,4,1,0,70,1,0
30202,-144.927536231884,4,1,0,70,0,8
30368,-145.985401459854,4,1,0,70,0,0
30812,-148.148148148148,4,1,0,70,0,0
31034,-149.253731343284,4,1,0,70,0,0
31257,-150.375939849624,4,1,0,70,0,0
31368,-150.943396226415,4,1,0,70,0,0
31479,-151.515151515152,4,1,0,70,0,0
31590,-152.091254752852,4,1,0,70,0,0
31701,-152.671755725191,4,1,0,70,0,0
31812,-153.256704980843,4,1,0,70,0,0
31923,-153.846153846154,4,1,0,70,0,0
32396,-185.185185185185,4,1,0,68,0,0
37923,-181.818181818182,4,1,0,68,0,0
38146,-178.571428571429,4,1,0,68,0,0
38368,-175.438596491228,4,1,0,68,0,0
38590,-172.413793103448,4,1,0,68,0,0
38812,-169.491525423729,4,1,0,68,0,0
38923,-168.067226890756,4,1,0,68,0,0
39034,-166.666666666667,4,1,0,68,0,0
39479,-200,4,1,0,66,0,0
43701,-199.004975124378,4,1,0,66,0,0
43923,-198.019801980198,4,1,0,66,0,0
44034,-197.579649296122,4,1,0,66,0,0
44146,-197.044334975369,4,1,0,66,0,0
44368,-196.078431372549,4,1,0,66,0,0
44479,-195.59902200489,4,1,0,66,0,0
44590,-195.121951219512,4,1,0,66,0,0
44812,-194.174757281553,4,1,0,66,0,0
45034,-188.679245283019,4,1,0,66,0,0
45257,-183.48623853211,4,1,0,66,0,0
45479,-178.571428571429,4,1,0,66,0,0
45701,-173.913043478261,4,1,0,66,0,0
45923,-169.491525423729,4,1,0,66,0,0
46146,-165.289256198347,4,1,0,68,0,0
46812,-217.391304347826,4,1,0,62,0,0
51257,-215.05376344086,4,1,0,62,0,0
51479,-212.765957446809,4,1,0,62,0,0
51701,-210.526315789474,4,1,0,62,0,0
51923,-208.333333333333,4,1,0,62,0,0
52146,-206.185567010309,4,1,0,62,0,0
52257,-205.128205128205,4,1,0,62,0,0
52368,-204.081632653061,4,1,0,62,0,0
52590,-202.020202020202,4,1,0,62,0,0
52812,-200,4,1,0,62,0,0
52923,-199.004975124378,4,1,0,62,0,0
53034,-198.019801980198,4,1,0,62,0,0
53146,-197.044334975369,4,1,0,62,0,0
53257,-196.078431372549,4,1,0,62,0,0
53701,-238.095238095238,4,1,0,58,0,0
56812,-192.307692307692,4,1,0,58,0,0
57257,-232.558139534884,4,1,0,58,0,0
57701,-227.272727272727,4,1,0,58,0,0
58146,-222.222222222222,4,1,0,58,0,0
58590,-217.391304347826,4,1,0,58,0,0
58812,-215.05376344086,4,1,0,58,0,0
59034,-212.765957446809,4,1,0,58,0,0
59146,-211.640211640212,4,1,0,58,0,0
59257,-210.526315789474,4,1,0,58,0,0
59479,-208.333333333333,4,1,0,58,0,0
59701,-206.185567010309,4,1,0,58,0,0
59812,-205.128205128205,4,1,0,58,0,0
59923,-204.081632653061,4,1,0,58,0,0
60034,-203.045685279188,4,1,0,58,0,0
60146,-202.020202020202,4,1,0,58,0,0
60257,-201.005025125628,4,1,0,58,0,0
60368,-181.818181818182,4,1,0,58,0,0
61701,-305.343511450382,4,1,0,50,0,0
89979,-400,4,1,0,55,0,0
90201,-400,4,1,0,60,0,0
90424,-400,4,1,0,65,0,0
90646,-133.333333333333,4,1,0,70,0,0
103477,-142.857142857143,4,1,0,70,0,0
103922,-153.846153846154,4,1,0,70,0,0
104366,-166.666666666667,4,1,0,70,0,0
104812,-181.818181818182,4,1,0,65,0,0
105285,-200,4,1,0,65,0,0
117923,-198.019801980198,4,1,0,65,0,0
118146,-196.078431372549,4,1,0,65,0,0
118257,-195.121951219512,4,1,0,65,0,0
118368,-194.174757281553,4,1,0,65,0,0
118479,-193.236714975845,4,1,0,65,0,0
118590,-192.307692307692,4,1,0,65,0,0
118701,-191.387559808612,4,1,0,65,0,0
118812,-190.47619047619,4,1,0,65,0,0
118923,-189.57345971564,4,1,0,65,0,0
119034,-181.818181818182,4,1,0,65,0,0
119479,-217.391304347826,4,1,0,68,0,0
130812,-215.05376344086,4,1,0,68,0,0
131034,-212.765957446809,4,1,0,68,0,0
131257,-210.526315789474,4,1,0,68,0,0
131479,-208.333333333333,4,1,0,68,0,0
131590,-207.253886010363,4,1,0,68,0,0
131701,-206.185567010309,4,1,0,68,0,0
131923,-204.081632653061,4,1,0,68,0,0
132034,-201.005025125628,4,1,0,68,0,0
132146,-198.019801980198,4,1,0,68,0,0
132368,-192.307692307692,4,1,0,68,0,0
132479,-189.57345971564,4,1,0,68,0,0
132590,-186.915887850467,4,1,0,68,0,0
132812,-181.818181818182,4,1,0,68,0,0
133034,-176.991150442478,4,1,0,68,0,0
133313,-172.413793103448,4,1,0,72,0,1
133701,-250,4,1,0,68,0,1
144146,-246.913580246914,4,1,0,68,0,1
144368,-243.90243902439,4,1,0,68,0,1
144590,-240.963855421687,4,1,0,68,0,1
144812,-238.095238095238,4,1,0,68,0,1
145034,-235.294117647059,4,1,0,68,0,1
145257,-232.558139534884,4,1,0,68,0,1
145479,-229.885057471264,4,1,0,68,0,1
145701,-227.272727272727,4,1,0,68,0,1
145812,-225.988700564972,4,1,0,68,0,1
145923,-224.719101123595,4,1,0,68,0,1
146146,-222.222222222222,4,1,0,68,0,1
146368,-219.78021978022,4,1,0,68,0,1
146590,-217.391304347826,4,1,0,68,0,1
147034,-212.765957446809,4,1,0,68,0,1
147535,-188.679245283019,4,1,0,60,0,0
148144,-225.988700564972,4,1,0,60,0,0
148255,-226.628895184136,4,1,0,60,0,0
148368,-227.272727272727,4,1,0,60,0,0
148588,-228.571428571429,4,1,0,60,0,0
149033,-231.21387283237,4,1,0,60,0,0
149257,-232.558139534884,4,1,0,60,0,0
149477,-233.918128654971,4,1,0,60,0,0
149674,-235.120957976831,4,1,0,60,0,0
150090,-237.741456166419,4,1,0,60,0,0
150811,-242.424242424242,4,1,0,60,0,0
150922,-243.161094224924,4,1,0,60,0,0
151034,-243.90243902439,4,1,0,60,0,0
151255,-245.398773006135,4,1,0,60,0,0
151477,-246.913580246914,4,1,0,60,0,0
151923,-250,4,1,0,60,0,0
152588,-254.777070063694,4,1,0,60,0,0
152812,-256.410256410256,4,1,0,60,0,0
153033,-258.064516129032,4,1,0,60,0,0
153144,-258.899676375405,4,1,0,60,0,0
153255,-259.74025974026,4,1,0,60,0,0
153477,-261.437908496732,4,1,0,60,0,0
153701,-263.157894736842,4,1,0,60,0,0
153922,-264.900662251656,4,1,0,60,0,0
154033,-265.78073089701,4,1,0,60,0,0
154144,-266.666666666667,4,1,0,60,0,0
154255,-267.558528428094,4,1,0,60,0,0
154366,-268.456375838926,4,1,0,60,0,0
154477,-269.360269360269,4,1,0,60,0,0
154590,-270.27027027027,4,1,0,60,0,0
155033,-273.972602739726,4,1,0,60,0,0
155479,-277.777777777778,4,1,0,56,0,0
156368,-285.714285714286,4,1,0,56,0,0
156785,-289.592340861769,4,1,0,56,0,0
157035,-291.970802919708,4,1,0,56,0,0
157311,-294.117647058824,4,1,0,56,0,0
158174,444.444444444444,4,1,0,56,1,0
158174,-302.744688341036,4,1,0,56,0,0
158632,444.444444444444,4,1,0,56,1,8
158632,-307.543230242136,4,1,0,56,0,0
158852,-309.924320805385,4,1,0,56,0,0
159062,444.444444444444,4,1,0,56,1,8
159062,-312.199920369113,4,1,0,56,0,0
159979,444.444444444444,4,1,0,56,1,0
159979,-322.58064516129,4,1,0,56,0,0
160144,-325.20325203252,4,1,0,56,0,0
160366,-327.868852459016,4,1,0,56,0,0
160588,-330.578512396694,4,1,0,56,0,0
160812,-333.333333333333,4,1,0,56,0,0
161033,-336.134453781513,4,1,0,56,0,0
161144,-337.552742616034,4,1,0,56,0,0
161255,-338.983050847458,4,1,0,56,0,0
161701,-400,4,1,0,25,0,0
189757,-400,4,1,0,30,0,0
189979,-400,4,1,0,35,0,0
190200,-400,4,1,0,40,0,0

[HitObjects]
147,236,3535,5,12,0:0:0:0:
269,246,3979,1,0,0:0:0:0:
257,164,4423,1,0,0:0:0:0:
168,56,4535,1,0,0:0:0:0:
208,37,4646,1,8,0:0:0:0:
199,178,4868,1,0,0:0:0:0:
199,178,5312,1,8,0:0:0:0:
199,178,5534,1,0,0:0:0:0:
199,178,5646,1,0,0:0:0:0:
199,178,5757,1,8,0:0:0:0:
199,178,5979,1,0,0:0:0:0:
240,184,6090,1,8,0:0:0:0:
199,178,6201,1,0,0:0:0:0:
199,178,6312,1,0,0:0:0:0:
199,178,6423,1,8,0:0:0:0:
199,178,6646,1,0,0:0:0:0:
199,178,6757,1,8,0:0:0:0:
199,178,6868,1,0,0:0:0:0:
199,178,7090,1,8,0:0:0:0:
199,178,7534,1,0,0:0:0:0:
146,128,7757,1,0,0:0:0:0:
238,130,7868,1,8,0:0:0:0:
199,178,7979,1,8,0:0:0:0:
257,131,8201,1,0,0:0:0:0:
257,131,8423,1,8,0:0:0:0:
290,248,8646,1,0,0:0:0:0:
257,131,8757,1,0,0:0:0:0:
257,131,8868,1,8,0:0:0:0:
257,131,8979,1,8,0:0:0:0:
257,131,9090,1,0,0:0:0:0:
257,131,9312,1,8,0:0:0:0:
286,241,9423,1,8,0:0:0:0:
243,57,9534,1,0,0:0:0:0:
258,172,9757,1,0,0:0:0:0:
196,65,9868,1,0,0:0:0:0:
258,172,9979,1,8,0:0:0:0:
268,216,10090,1,0,0:0:0:0:
258,172,10201,1,8,0:0:0:0:
258,199,10423,1,0,0:0:0:0:
244,297,10646,5,12,0:0:0:0:
258,199,11090,1,0,0:0:0:0:
320,113,11423,1,0,0:0:0:0:
324,186,11534,1,8,0:0:0:0:
320,113,11757,1,8,0:0:0:0:
315,112,11979,1,0,0:0:0:0:
195,198,12312,1,8,0:0:0:0:
315,112,12423,1,0,0:0:0:0:
293,101,12646,1,8,0:0:0:0:
293,101,12757,1,8,0:0:0:0:
293,101,12868,1,0,0:0:0:0:
293,101,13090,1,8,0:0:0:0:
293,101,13312,1,0,0:0:0:0:
293,101,13423,1,0,0:0:0:0:
293,101,13534,1,8,0:0:0:0:
293,101,13757,1,8,0:0:0:0:
293,101,13868,1,8,0:0:0:0:
293,101,13979,1,0,0:0:0:0:
290,191,14090,1,0,0:0:0:0:
290,191,14201,1,12,0:0:0:0:
261,207,14423,1,8,0:0:0:0:
261,207,14646,1,0,0:0:0:0:
261,207,14868,1,8,0:0:0:0:
261,207,15090,1,0,0:0:0:0:
261,207,15312,1,8,0:0:0:0:
261,207,15534,1,0,0:0:0:0:
261,207,15757,1,8,0:0:0:0:
261,207,15979,1,0,0:0:0:0:
117,126,16090,1,0,0:0:0:0:
156,176,16201,1,8,0:0:0:0:
153,178,16312,1,8,0:0:0:0:
153,178,16423,1,0,0:0:0:0:
153,178,16646,1,0,0:0:0:0:
186,158,16757,1,8,0:0:0:0:
187,161,16868,1,0,0:0:0:0:
187,161,17090,1,8,0:0:0:0:
187,161,17201,1,8,0:0:0:0:
198,138,17312,1,0,0:0:0:0:
198,138,17423,1,0,0:0:0:0:
198,138,17534,1,0,0:0:0:0:
198,138,17646,1,0,0:0:0:0:
307,214,17757,5,12,0:0:0:0:
65,208,18646,1,0,0:0:0:0:
103,212,19534,1,0,0:0:0:0:
350,66,19951,1,0,0:0:0:0:
374,225,20368,1,8,0:0:0:0:
195,217,21312,1,0,0:0:0:0:
220,203,21534,1,0,0:0:0:0:
220,203,21646,1,0,0:0:0:0:
195,217,21757,1,0,0:0:0:0:
230,209,22201,1,8,0:0:0:0:
248,137,23090,1,0,0:0:0:0:
248,142,23312,1,8,0:0:0:0:
248,142,23534,1,8,0:0:0:0:
73,151,23646,1,0,0:0:0:0:
248,143,23757,1,0,0:0:0:0:
248,143,23979,1,8,0:0:0:0:
248,142,24201,1,0,0:0:0:0:
248,142,24423,1,0,0:0:0:0:
98,161,24534,1,0,0:0:0:0:
248,143,24645,1,8,0:0:0:0:
248,142,24868,1,12,0:0:0:0:
218,177,25757,1,8,0:0:0:0:
121,200,26646,1,0,0:0:0:0:
127,198,27062,1,0,0:0:0:0:
178,140,27534,1,8,0:0:0:0:
178,140,28396,1,8,0:0:0:0:
178,140,28840,1,0,0:0:0:0:
178,140,29284,1,8,0:0:0:0:
178,140,30202,1,0,0:0:0:0:
178,140,30424,1,8,0:0:0:0:
282,212,30868,1,0,0:0:0:0:
277,213,31090,1,8,0:0:0:0:
276,214,31313,1,0,0:0:0:0:
230,98,31424,1,0,0:0:0:0:
276,214,31535,1,8,0:0:0:0:
230,98,31646,1,8,0:0:0:0:
230,98,31757,1,0,0:0:0:0:
230,98,31868,1,0,0:0:0:0:
230,98,31979,1,8,0:0:0:0:
262,171,32424,1,0,0:0:0:0:
223,126,32868,1,0,0:0:0:0:
223,126,33090,1,0,0:0:0:0:
223,126,33313,1,8,0:0:0:0:
223,126,33757,1,8,0:0:0:0:
236,97,33979,1,8,0:0:0:0:
223,126,34201,1,0,0:0:0:0:
101,187,34424,1,0,0:0:0:0:
291,178,34646,1,8,0:0:0:0:
291,178,34868,1,0,0:0:0:0:
291,178,35090,1,8,0:0:0:0:
291,178,35313,1,8,0:0:0:0:
291,178,35535,1,0,0:0:0:0:
270,180,35979,1,8,0:0:0:0:
240,173,36424,1,0,0:0:0:0:
240,173,36646,1,8,0:0:0:0:
240,173,36868,1,8,0:0:0:0:
240,173,37313,1,0,0:0:0:0:
90,156,37757,1,8,0:0:0:0:
240,176,37979,1,0,0:0:0:0:
192,150,38201,1,8,0:0:0:0:
195,152,38424,1,8,0:0:0:0:
198,153,38646,1,0,0:0:0:0:
199,154,38868,1,0,0:0:0:0:
254,237,38979,1,0,0:0:0:0:
199,154,39090,1,8,0:0:0:0:
186,107,39535,1,0,0:0:0:0:
187,114,39979,1,0,0:0:0:0:
187,114,40201,1,0,0:0:0:0:
187,115,40424,1,8,0:0:0:0:
187,114,40868,1,0,0:0:0:0:
187,115,41313,1,8,0:0:0:0:
123,241,41535,1,0,0:0:0:0:
187,114,41757,1,0,0:0:0:0:
199,77,41979,1,0,0:0:0:0:
187,115,42201,1,8,0:0:0:0:
187,114,42646,1,0,0:0:0:0:
371,276,42868,1,8,0:0:0:0:
281,134,43090,1,8,0:0:0:0:
202,65,43535,1,0,0:0:0:0:
202,69,43757,1,8,0:0:0:0:
202,69,43979,1,0,0:0:0:0:
189,188,44090,1,0,0:0:0:0:
202,70,44201,1,0,0:0:0:0:
202,69,44424,1,8,0:0:0:0:
189,188,44535,1,8,0:0:0:0:
240,177,44646,1,8,0:0:0:0:
240,177,44868,1,0,0:0:0:0:
240,177,45090,1,0,0:0:0:0:
240,177,45313,1,8,0:0:0:0:
266,196,45535,1,0,0:0:0:0:
276,200,45757,1,12,0:0:0:0:
201,288,45979,1,0,0:0:0:0:
281,252,46201,1,12,0:0:0:0:
233,221,46868,1,0,0:0:0:0:
173,79,47090,1,0,0:0:0:0:
158,216,47201,1,0,0:0:0:0:
174,85,47313,1,8,0:0:0:0:
168,204,47535,1,0,0:0:0:0:
176,90,47979,1,8,0:0:0:0:
112,229,48201,1,8,0:0:0:0:
292,87,48424,1,0,0:0:0:0:
292,87,48646,1,8,0:0:0:0:
149,124,48868,1,0,0:0:0:0:
162,199,48979,1,0,0:0:0:0:
151,125,49090,1,0,0:0:0:0:
152,126,49313,1,8,0:0:0:0:
192,201,49535,1,8,0:0:0:0:
178,176,49646,1,0,0:0:0:0:
196,114,49757,1,8,0:0:0:0:
247,194,50201,1,0,0:0:0:0:
60,85,50424,1,8,0:0:0:0:
149,109,50535,1,8,0:0:0:0:
262,172,50646,1,0,0:0:0:0:
149,121,51090,1,0,0:0:0:0:
158,137,51313,1,0,0:0:0:0:
149,125,51535,1,8,0:0:0:0:
176,189,51757,1,8,0:0:0:0:
176,189,51979,1,0,0:0:0:0:
176,189,52201,1,0,0:0:0:0:
187,181,52313,1,0,0:0:0:0:
176,189,52424,1,8,0:0:0:0:
185,184,52646,1,0,0:0:0:0:
185,184,52868,1,8,0:0:0:0:
106,130,52979,1,8,0:0:0:0:
185,184,53090,1,0,0:0:0:0:
163,145,53201,1,0,0:0:0:0:
164,151,53313,1,12,0:0:0:0:
161,180,53757,1,0,0:0:0:0:
166,194,53979,1,8,0:0:0:0:
165,189,54090,1,8,0:0:0:0:
281,214,54201,1,0,0:0:0:0:
142,192,54646,1,8,0:0:0:0:
252,212,55090,1,8,0:0:0:0:
366,227,55201,1,8,0:0:0:0:
366,227,55313,1,0,0:0:0:0:
247,168,55535,1,8,0:0:0:0:
264,218,55757,1,8,0:0:0:0:
173,141,55868,1,0,0:0:0:0:
274,203,55979,1,8,0:0:0:0:
154,167,56201,1,8,0:0:0:0:
217,115,56424,1,0,0:0:0:0:
227,133,56868,1,12,0:0:0:0:
226,141,57313,1,0,0:0:0:0:
227,141,57757,1,0,0:0:0:0:
226,141,58201,1,0,0:0:0:0:
194,133,58646,1,8,0:0:0:0:
104,104,58868,1,0,0:0:0:0:
193,141,59090,1,8,0:0:0:0:
91,238,59201,1,8,0:0:0:0:
112,155,59313,1,0,0:0:0:0:
193,145,59535,1,0,0:0:0:0:
112,155,59757,1,8,0:0:0:0:
175,146,59868,1,8,0:0:0:0:
192,149,59979,1,0,0:0:0:0:
194,158,60090,1,0,0:0:0:0:
192,151,60201,1,0,0:0:0:0:
194,158,60313,1,0,0:0:0:0:
194,158,60424,1,12,0:0:0:0:
178,231,61757,5,0,0:0:0:0:
302,179,62201,1,8,0:0:0:0:
178,280,62424,1,8,0:0:0:0:
302,179,62646,1,0,0:0:0:0:
302,179,63090,1,0,0:0:0:0:
302,179,63535,1,8,0:0:0:0:
193,148,63757,1,0,0:0:0:0:
302,179,63979,1,8,0:0:0:0:
192,247,64201,1,0,0:0:0:0:
302,179,64424,1,0,0:0:0:0:
302,179,64868,1,8,0:0:0:0:
302,179,65313,1,0,0:0:0:0:
302,179,65757,1,8,0:0:0:0:
302,179,66646,1,0,0:0:0:0:
195,195,67535,1,8,0:0:0:0:
231,164,67979,1,0,0:0:0:0:
241,216,68424,1,8,0:0:0:0:
302,136,68868,1,0,0:0:0:0:
308,131,69313,1,8,0:0:0:0:
330,183,69535,1,8,0:0:0:0:
308,131,69757,1,0,0:0:0:0:
308,131,70201,1,8,0:0:0:0:
308,131,70646,1,8,0:0:0:0:
181,210,70868,1,0,0:0:0:0:
308,131,71090,1,0,0:0:0:0:
275,225,71313,1,0,0:0:0:0:
308,131,71535,1,0,0:0:0:0:
308,131,71979,1,8,0:0:0:0:
308,131,72424,1,0,0:0:0:0:
308,131,72868,1,8,0:0:0:0:
308,131,73313,1,0,0:0:0:0:
219,237,73757,1,8,0:0:0:0:
308,131,74201,1,8,0:0:0:0:
308,131,74646,1,0,0:0:0:0:
164,148,75090,1,0,0:0:0:0:
173,205,75535,1,8,0:0:0:0:
269,114,75979,1,0,0:0:0:0:
265,114,76424,1,8,0:0:0:0:
333,199,76646,1,8,0:0:0:0:
265,114,76868,1,0,0:0:0:0:
265,114,77313,1,0,0:0:0:0:
265,114,77757,1,8,0:0:0:0:
145,189,77979,1,0,0:0:0:0:
145,189,78090,1,0,0:0:0:0:
265,114,78201,1,0,0:0:0:0:
157,200,78424,1,8,0:0:0:0:
227,163,78646,1,0,0:0:0:0:
227,163,79090,1,8,0:0:0:0:
227,163,79535,1,8,0:0:0:0:
243,212,79757,1,0,0:0:0:0:
227,163,79979,1,0,0:0:0:0:
227,163,80868,1,8,0:0:0:0:
312,205,81090,1,0,0:0:0:0:
160,114,81535,1,8,0:0:0:0:
227,163,81757,1,0,0:0:0:0:
133,169,81979,1,8,0:0:0:0:
133,169,82201,1,0,0:0:0:0:
176,232,82646,1,8,0:0:0:0:
229,163,83090,1,0,0:0:0:0:
201,161,83313,1,0,0:0:0:0:
229,163,83535,1,8,0:0:0:0:
229,163,83979,1,0,0:0:0:0:
146,200,84201,1,0,0:0:0:0:
243,203,84424,1,8,0:0:0:0:
353,183,84868,1,8,0:0:0:0:
214,228,85090,1,0,0:0:0:0:
293,182,85313,1,8,0:0:0:0:
190,138,85535,1,0,0:0:0:0:
319,206,85757,1,8,0:0:0:0:
336,200,86201,1,8,0:0:0:0:
178,173,86646,1,8,0:0:0:0:
149,198,86868,1,0,0:0:0:0:
178,173,87090,1,0,0:0:0:0:
138,196,87757,1,0,0:0:0:0:
189,189,87979,1,8,0:0:0:0:
159,197,88201,1,0,0:0:0:0:
159,197,88313,1,0,0:0:0:0:
159,197,88424,1,8,0:0:0:0:
171,206,88646,1,8,0:0:0:0:
197,171,88868,5,0,0:0:0:0:
230,203,89090,1,0,0:0:0:0:
327,170,89313,1,8,0:0:0:0:
325,215,89757,1,8,0:0:0:0:
181,286,90646,5,12,0:0:0:0:
136,297,91424,1,0,0:0:0:0:
136,297,91535,1,8,0:0:0:0:
224,122,91757,1,0,0:0:0:0:
157,258,91979,1,0,0:0:0:0:
202,72,92424,1,0,0:0:0:0:
117,194,92646,1,8,0:0:0:0:
202,72,93201,1,0,0:0:0:0:
180,78,93313,1,8,0:0:0:0:
384,252,93535,1,0,0:0:0:0:
166,169,93757,1,0,0:0:0:0:
159,158,93979,1,8,0:0:0:0:
82,75,94201,1,0,0:0:0:0:
93,83,94424,1,8,0:0:0:0:
137,108,94979,1,0,0:0:0:0:
96,85,95090,1,8,0:0:0:0:
229,168,95313,1,0,0:0:0:0:
137,108,95535,1,0,0:0:0:0:
138,111,95979,1,0,0:0:0:0:
138,113,96201,1,8,0:0:0:0:
138,111,96424,1,0,0:0:0:0:
138,113,96868,1,0,0:0:0:0:
138,113,97090,1,0,0:0:0:0:
304,171,97201,1,0,0:0:0:0:
304,171,97313,1,8,0:0:0:0:
217,100,97535,1,0,0:0:0:0:
219,111,97757,1,8,0:0:0:0:
463,210,97979,1,0,0:0:0:0:
257,127,98535,1,8,0:0:0:0:
150,220,98646,1,0,0:0:0:0:
215,104,98868,1,8,0:0:0:0:
181,154,99090,1,0,0:0:0:0:
198,136,99535,1,8,0:0:0:0:
171,13,99757,1,0,0:0:0:0:
222,159,100312,1,8,0:0:0:0:
199,146,100424,1,0,0:0:0:0:
218,105,100646,1,0,0:0:0:0:
224,165,100868,1,8,0:0:0:0:
181,158,101313,1,8,0:0:0:0:
224,165,101535,1,0,0:0:0:0:
187,127,102090,1,8,0:0:0:0:
181,164,102201,1,0,0:0:0:0:
219,105,102424,1,8,0:0:0:0:
181,167,102646,1,0,0:0:0:0:
181,169,103090,1,8,0:0:0:0:
181,167,103535,1,8,0:0:0:0:
181,169,103979,1,0,0:0:0:0:
181,170,104424,1,0,0:0:0:0:
181,169,104868,1,12,0:0:0:0:
51,129,105313,1,0,0:0:0:0:
202,156,105535,1,0,0:0:0:0:
51,129,105757,1,8,0:0:0:0:
202,156,105979,1,0,0:0:0:0:
57,132,106201,1,0,0:0:0:0:
202,156,106424,1,0,0:0:0:0:
62,136,106646,1,8,0:0:0:0:
203,159,106868,1,0,0:0:0:0:
62,136,107090,1,0,0:0:0:0:
204,159,107313,1,8,0:0:0:0:
62,136,107535,1,0,0:0:0:0:
95,139,107646,1,0,0:0:0:0:
95,139,107757,1,0,0:0:0:0:
62,136,107979,1,0,0:0:0:0:
232,126,108201,1,0,0:0:0:0:
95,139,108424,1,8,0:0:0:0:
235,131,108646,1,0,0:0:0:0:
95,139,108868,1,0,0:0:0:0:
235,133,109090,1,0,0:0:0:0:
95,139,109313,1,8,0:0:0:0:
235,131,109535,1,0,0:0:0:0:
95,139,109757,1,0,0:0:0:0:
235,133,109979,1,0,0:0:0:0:
100,142,110201,1,8,0:0:0:0:
330,76,110424,1,0,0:0:0:0:
101,141,110646,1,0,0:0:0:0:
330,76,110868,1,8,0:0:0:0:
100,142,111090,1,0,0:0:0:0:
149,88,111201,1,0,0:0:0:0:
149,88,111313,1,0,0:0:0:0:
101,141,111535,1,0,0:0:0:0:
216,125,111757,1,0,0:0:0:0:
151,92,111979,1,8,0:0:0:0:
151,92,112424,1,0,0:0:0:0:
330,76,112646,1,0,0:0:0:0:
151,92,112868,1,8,0:0:0:0:
330,76,113090,1,0,0:0:0:0:
151,92,113313,1,0,0:0:0:0:
331,79,113535,1,8,0:0:0:0:
331,79,113757,1,0,0:0:0:0:
300,77,113868,1,0,0:0:0:0:
331,79,113979,1,0,0:0:0:0:
297,82,114201,1,0,0:0:0:0:
297,83,114424,1,0,0:0:0:0:
299,88,114646,1,8,0:0:0:0:
299,88,114868,1,0,0:0:0:0:
299,91,115090,1,0,0:0:0:0:
299,91,115313,1,0,0:0:0:0:
299,92,115535,1,8,0:0:0:0:
299,93,115757,1,0,0:0:0:0:
299,91,115979,1,0,0:0:0:0:
299,94,116201,1,0,0:0:0:0:
299,92,116424,1,8,0:0:0:0:
299,93,116646,1,0,0:0:0:0:
299,95,116868,1,0,0:0:0:0:
299,94,117090,1,0,0:0:0:0:
299,98,117313,1,8,0:0:0:0:
218,88,117535,1,0,0:0:0:0:
218,88,117646,1,0,0:0:0:0:
218,88,117757,1,0,0:0:0:0:
218,88,117979,1,0,0:0:0:0:
218,88,118201,1,8,0:0:0:0:
218,88,118313,1,8,0:0:0:0:
221,90,118424,1,0,0:0:0:0:
221,91,118535,1,0,0:0:0:0:
221,93,118646,1,8,0:0:0:0:
223,94,118757,1,8,0:0:0:0:
223,94,118868,1,0,0:0:0:0:
224,95,118979,1,0,0:0:0:0:
224,97,119090,1,12,0:0:0:0:
307,165,119535,1,8,0:0:0:0:
296,173,119979,1,0,0:0:0:0:
296,173,120201,1,0,0:0:0:0:
247,124,120424,1,8,0:0:0:0:
248,133,120868,1,0,0:0:0:0:
28,13,121090,1,0,0:0:0:0:
250,136,121201,1,0,0:0:0:0:
199,47,121313,1,8,0:0:0:0:
183,142,121757,1,0,0:0:0:0:
198,142,121979,1,8,0:0:0:0:
199,142,122201,1,0,0:0:0:0:
199,142,122646,1,8,0:0:0:0:
199,142,123090,1,0,0:0:0:0:
199,142,123535,1,8,0:0:0:0:
199,142,123757,1,8,0:0:0:0:
199,142,123979,1,0,0:0:0:0:
199,142,124424,1,0,0:0:0:0:
202,148,124646,1,0,0:0:0:0:
202,148,124757,1,0,0:0:0:0:
202,148,124868,1,8,0:0:0:0:
202,148,125090,1,0,0:0:0:0:
204,150,125313,1,8,0:0:0:0:
206,153,125424,1,8,0:0:0:0:
207,155,125535,1,0,0:0:0:0:
240,151,125757,1,8,0:0:0:0:
240,151,125868,1,0,0:0:0:0:
240,151,125979,1,8,0:0:0:0:
230,120,126201,1,0,0:0:0:0:
232,122,126646,1,8,0:0:0:0:
232,123,127090,1,0,0:0:0:0:
232,122,127313,1,0,0:0:0:0:
235,143,127535,1,8,0:0:0:0:
233,148,127979,1,0,0:0:0:0:
245,157,128424,1,8,0:0:0:0:
248,162,128868,1,0,0:0:0:0:
248,162,129090,1,0,0:0:0:0:
248,162,129313,1,8,0:0:0:0:
248,162,129757,1,0,0:0:0:0:
248,162,129979,1,8,0:0:0:0:
248,162,130201,1,8,0:0:0:0:
92,158,130424,1,0,0:0:0:0:
245,157,130646,1,0,0:0:0:0:
245,157,130868,1,8,0:0:0:0:
245,157,131090,1,0,0:0:0:0:
245,157,131313,1,0,0:0:0:0:
168,85,131535,1,0,0:0:0:0:
168,85,131646,1,0,0:0:0:0:
168,85,131757,1,8,0:0:0:0:
168,85,131979,1,0,0:0:0:0:
170,90,132090,1,0,0:0:0:0:
170,88,132201,1,0,0:0:0:0:
190,65,132424,1,8,0:0:0:0:
190,65,132535,1,8,0:0:0:0:
190,65,132646,1,0,0:0:0:0:
190,65,132868,1,12,0:0:0:0:
219,151,133090,1,0,0:0:0:0:
190,65,133313,1,12,0:0:0:0:
158,115,133757,1,0,0:0:0:0:
189,129,134201,1,0,0:0:0:0:
139,195,134313,1,0,0:0:0:0:
189,129,134424,1,0,0:0:0:0:
189,129,134646,1,8,0:0:0:0:
193,129,135090,1,0,0:0:0:0:
194,130,135313,1,0,0:0:0:0:
194,130,135535,1,8,0:0:0:0:
193,129,135757,1,0,0:0:0:0:
193,129,135979,1,8,0:0:0:0:
49,201,136090,1,8,0:0:0:0:
194,130,136201,1,0,0:0:0:0:
194,130,136424,1,0,0:0:0:0:
57,204,136535,1,8,0:0:0:0:
175,120,136646,1,0,0:0:0:0:
193,129,136868,1,8,0:0:0:0:
224,175,137313,1,0,0:0:0:0:
224,180,137757,1,8,0:0:0:0:
299,238,137868,1,8,0:0:0:0:
224,181,137979,1,8,0:0:0:0:
225,183,138201,1,0,0:0:0:0:
188,126,138535,1,0,0:0:0:0:
216,185,138646,1,8,0:0:0:0:
216,185,138868,1,0,0:0:0:0:
216,185,139090,1,0,0:0:0:0:
216,185,139313,1,8,0:0:0:0:
216,185,139535,1,0,0:0:0:0:
216,185,139646,1,0,0:0:0:0:
216,185,139757,1,8,0:0:0:0:
208,188,139979,1,0,0:0:0:0:
208,188,140090,1,8,0:0:0:0:
208,188,140201,1,8,0:0:0:0:
205,185,140424,1,12,0:0:0:0:
235,131,140868,1,8,0:0:0:0:
130,181,141201,1,8,0:0:0:0:
239,141,141313,1,0,0:0:0:0:
239,141,141535,1,8,0:0:0:0:
202,110,141757,1,8,0:0:0:0:
117,194,142090,1,8,0:0:0:0:
230,152,142201,1,0,0:0:0:0:
232,152,142424,1,0,0:0:0:0:
233,153,142646,1,8,0:0:0:0:
235,155,142868,1,8,0:0:0:0:
236,156,143090,1,0,0:0:0:0:
235,157,143201,1,0,0:0:0:0:
237,157,143313,1,8,0:0:0:0:
184,122,143535,1,8,0:0:0:0:
256,117,143757,1,0,0:0:0:0:
240,138,143979,1,8,0:0:0:0:
241,139,144201,1,8,0:0:0:0:
240,138,144424,1,0,0:0:0:0:
243,141,144646,1,8,0:0:0:0:
243,141,144868,1,0,0:0:0:0:
243,141,145090,1,8,0:0:0:0:
243,141,145313,1,0,0:0:0:0:
243,141,145535,1,8,0:0:0:0:
243,141,145757,1,0,0:0:0:0:
243,141,145868,1,0,0:0:0:0:
243,141,145979,1,8,0:0:0:0:
218,132,146201,1,8,0:0:0:0:
221,150,146424,1,0,0:0:0:0:
221,150,146646,1,8,0:0:0:0:
194,82,147090,1,0,0:0:0:0:
211,94,147535,1,12,0:0:0:0:
159,163,148201,1,8,0:0:0:0:
161,166,148313,1,8,0:0:0:0:
161,167,148424,1,8,0:0:0:0:
161,167,148646,1,8,0:0:0:0:
167,179,149090,1,8,0:0:0:0:
167,179,149313,1,0,0:0:0:0:
167,179,149535,1,0,0:0:0:0:
168,119,149729,1,0,0:0:0:0:
298,113,150146,1,8,0:0:0:0:
263,136,150868,1,8,0:0:0:0:
263,136,150979,1,8,0:0:0:0:
188,102,151090,1,0,0:0:0:0:
189,106,151313,1,0,0:0:0:0:
189,109,151535,1,0,0:0:0:0:
240,153,151979,1,8,0:0:0:0:
329,117,152646,1,8,0:0:0:0:
134,106,152868,1,0,0:0:0:0:
134,106,153090,1,8,0:0:0:0:
134,106,153201,1,8,0:0:0:0:
153,111,153313,1,8,0:0:0:0:
236,94,153535,1,8,0:0:0:0:
244,100,153757,1,0,0:0:0:0:
176,21,153979,1,8,0:0:0:0:
325,233,154090,1,8,0:0:0:0:
204,94,154201,1,0,0:0:0:0:
204,94,154313,1,0,0:0:0:0:
204,94,154424,1,0,0:0:0:0:
204,94,154535,1,0,0:0:0:0:
204,94,154646,1,12,0:0:0:0:
368,279,155090,1,8,0:0:0:0:
267,228,155535,1,0,0:0:0:0:
214,184,156424,1,0,0:0:0:0:
192,145,156840,1,0,0:0:0:0:
475,213,157090,1,8,0:0:0:0:
204,150,157313,1,0,0:0:0:0:
205,156,158174,1,0,0:0:0:0:
207,158,158632,1,8,0:0:0:0:
302,222,158854,1,8,0:0:0:0:
208,158,159063,1,0,0:0:0:0:
208,158,159979,1,8,0:0:0:0:
148,114,160201,1,8,0:0:0:0:
207,158,160424,1,0,0:0:0:0:
148,114,160646,1,8,0:0:0:0:
149,117,160868,1,0,0:0:0:0:
149,117,161090,1,8,0:0:0:0:
149,117,161201,1,8,0:0:0:0:
128,104,161313,1,0,0:0:0:0:
302,179,161757,1,8,0:0:0:0:
302,179,162201,1,0,0:0:0:0:
302,179,162646,1,0,0:0:0:0:
302,179,163090,1,8,0:0:0:0:
302,179,163535,1,8,0:0:0:0:
302,179,163979,1,0,0:0:0:0:
302,179,164424,1,8,0:0:0:0:
302,179,164868,1,0,0:0:0:0:
302,179,165313,1,8,0:0:0:0:
302,179,166201,1,0,0:0:0:0:
195,195,167090,1,8,0:0:0:0:
302,136,168424,1,0,0:0:0:0:
308,131,168868,1,8,0:0:0:0:
308,131,169313,1,0,0:0:0:0:
308,131,169757,1,8,0:0:0:0:
308,131,170201,1,8,0:0:0:0:
308,131,170646,1,0,0:0:0:0:
308,131,171090,1,0,0:0:0:0:
308,131,171535,1,8,0:0:0:0:
308,131,171979,1,0,0:0:0:0:
308,131,172424,1,8,0:0:0:0:
308,131,172868,1,0,0:0:0:0:
308,131,173757,1,8,0:0:0:0:
308,131,174201,1,0,0:0:0:0:
320,244,175090,1,0,0:0:0:0:
269,114,175535,1,0,0:0:0:0:
265,114,175979,1,8,0:0:0:0:
265,114,176424,1,0,0:0:0:0:
265,114,176868,1,0,0:0:0:0:
265,114,177313,1,8,0:0:0:0:
265,114,177757,1,0,0:0:0:0:
227,163,178201,1,0,0:0:0:0:
227,163,178646,1,8,0:0:0:0:
227,163,179090,1,0,0:0:0:0:
227,163,179535,1,8,0:0:0:0:
227,163,180424,1,8,0:0:0:0:
227,163,181313,1,8,0:0:0:0:
229,163,182646,1,0,0:0:0:0:
229,163,183090,1,8,0:0:0:0:
229,163,183535,1,0,0:0:0:0:
178,173,186201,1,8,0:0:0:0:
178,173,186646,1,0,0:0:0:0:
189,189,187535,1,8,0:0:0:0:
197,171,188424,1,0,0:0:0:0:
325,215,189313,1,8,0:0:0:0:
181,286,190201,5,12,0:0:0:0:
