osu file format v14

[General]
AudioFilename: marikaisbestgirl.mp3
AudioLeadIn: 500
PreviewTime: 55834
Countdown: 0
SampleSet: Soft
StackLeniency: 0.7
Mode: 0
LetterboxInBreaks: 0
WidescreenStoryboard: 0

[Editor]
DistanceSpacing: 0.9
BeatDivisor: 4
GridSize: 4
TimelineZoom: 1

[Metadata]
Title:Matador Love TVsize ver.
TitleUnicode:またどーらぶ TVsize ver.
Artist:Tachibana Marika(Asumi Kana)
ArtistUnicode:橘万里花(阿澄佳奈)
Creator:Little
Version:Very Hard
Source:ニセコイ:
Tags:Nisekoi: fake false love shaft anime second season 2 ending Momochikun Flask CloudSplash16
BeatmapID:722439
BeatmapSetID:312573

[Difficulty]
HPDrainRate:6.5
CircleSize:4
OverallDifficulty:7
ApproachRate:8
SliderMultiplier:1.6
SliderTickRate:1

[Events]
//Background and Video events
Video,845,"op.avi"
0,0,"bg.jpg",0,0
//Break Periods
//Storyboard Layer 0 (Background)
//Storyboard Layer 1 (Fail)
//Storyboard Layer 2 (Pass)
//Storyboard Layer 3 (Foreground)
//Storyboard Sound Samples

[TimingPoints]
1064,422.535211267606,4,2,1,55,1,0
7824,-100,4,2,1,60,0,0
14162,-100,4,2,1,50,0,0
15430,422.535211267606,4,2,1,60,1,0
18810,-100,4,2,1,65,0,0
19232,-83.3333333333333,4,2,1,65,0,0
19655,-100,4,2,1,65,0,0
20077,-83.3333333333333,4,2,1,65,0,0
20500,-100,4,2,1,65,0,0
22190,-100,4,2,1,60,0,0
25570,-100,4,2,1,65,0,0
28951,-100,4,2,1,70,0,0
40782,-100,4,2,1,55,0,0
41627,-100,4,2,1,65,0,0
42472,-100,4,2,1,60,0,0
52613,-100,4,2,1,65,0,0
54303,-100,4,2,1,70,0,0
55993,-100,4,2,1,75,0,1
67824,-100,4,2,1,80,0,1
69091,-100,4,2,1,75,0,0
69514,-100,4,2,1,75,0,1
81345,-100,4,2,1,80,0,1
83035,-133.333333333333,4,2,1,75,0,0
84725,-133.333333333333,4,2,1,70,0,0
85570,-100,4,2,1,65,0,0
87260,-100,4,2,1,70,0,0

[Colours]
Combo1 : 255,128,255
Combo2 : 255,255,128
Combo3 : 128,255,255
Combo4 : 255,191,128
Combo5 : 128,255,191

[HitObjects]
352,144,1064,5,4,3:2:0:0:
352,144,1697,2,0,L|431:136,1,80,2|8,3:2|3:2,0:0:0:0:
180,159,2331,2,0,P|191:85|265:73,1,160,8|0,3:2|3:0,0:0:0:0:
276,232,2965,1,8,3:2:0:0:
276,232,3387,2,0,L|268:311,1,80,0|8,3:0|3:2,0:0:0:0:
100,260,4021,2,0,L|92:180,1,80,8|2,3:2|0:0,0:0:0:0:
84,72,4444,5,4,3:2:0:0:
84,72,5078,2,0,P|122:82|160:73,1,80,2|8,3:2|3:2,0:0:0:0:
408,124,5711,2,0,L|384:282,1,160,8|0,3:2|3:0,0:0:0:0:
256,188,6345,1,8,3:2:0:0:
256,188,6768,2,0,P|218:178|180:187,1,80,0|8,3:0|3:2,0:0:0:0:
112,328,7296,1,0,0:0:0:0:
112,328,7402,2,0,L|150:337,3,40,8|0|0|0,3:2|0:0|0:0|0:0,0:0:0:0:
192,344,7824,6,0,L|311:329,1,120,4|0,3:2|3:0,0:0:0:0:
348,312,8247,2,0,P|364:275|360:236,1,80,8|2,3:2|0:0,0:0:0:0:
188,124,8669,2,0,P|155:172|169:229,1,120,0|0,3:0|3:0,0:0:0:0:
204,252,9092,2,0,L|283:263,1,80,8|2,3:2|0:0,0:0:0:0:
416,176,9514,6,0,L|427:96,1,80,0|0,3:0|0:0,0:0:0:0:
424,56,9831,1,0,3:0:0:0:
424,56,9937,2,0,P|387:39|348:43,1,80,8|0,3:2|0:0,0:0:0:0:
188,124,10359,1,0,3:0:0:0:
188,124,10465,2,0,P|148:127|112:111,1,80,0|0,3:0|3:0,0:0:0:0:
76,132,10782,2,0,L|87:211,1,80,8|0,3:2|0:0,0:0:0:0:
196,328,11204,6,0,P|265:297|268:221,1,160,0|8,3:0|0:0,0:0:0:0:
112,296,11838,1,0,3:0:0:0:
112,296,12049,2,0,L|33:285,1,80,0|0,3:0|0:0,0:0:0:0:
268,221,12472,2,0,L|347:210,1,80,8|0,0:0|0:0,0:0:0:0:
128,72,12894,5,8,3:2:0:0:
112,296,13317,2,0,B|127:269|127:237|127:237|159:277|148:330,2,160,8|8|4,3:2|3:2|0:0,0:0:0:0:
344,136,14902,5,8,0:0:0:0:
344,136,15007,1,8,0:0:0:0:
412,220,15218,1,8,0:0:0:0:
351,308,15430,6,0,P|315:323|275:321,1,80,4|2,3:2|0:0,0:0:0:0:
160,184,15852,2,0,P|196:168|236:170,1,80,8|2,3:2|0:0,0:0:0:0:
140,312,16275,2,0,L|21:290,1,120,0|0,3:0|3:0,0:0:0:0:
56,268,16697,2,0,P|71:304|69:344,1,80,8|2,3:2|3:2,0:0:0:0:
20,184,17120,6,0,L|27:104,1,80,0|2,3:0|0:0,0:0:0:0:
32,76,17437,1,0,3:0:0:0:
32,76,17542,1,8,3:2:0:0:
172,156,17753,1,2,0:0:0:0:
312,76,17965,2,0,B|324:116|324:116|311:193,2,120,0|0|2,3:0|3:0|3:2,0:0:0:0:
232,212,18810,6,0,P|263:261|320:273,1,120,0|0,3:0|3:0,0:0:0:0:
364,268,19232,2,0,L|348:362,1,95.9999970703126,12|2,3:2|0:0,0:0:0:0:
444,249,19655,2,0,P|412:199|355:187,1,120,0|0,3:0|0:0,0:0:0:0:
312,193,20077,2,0,L|327:98,1,95.9999970703126,12|2,3:2|3:2,0:0:0:0:
452,48,20500,5,0,3:0:0:0:
344,112,20711,1,0,0:0:0:0:
228,44,20922,1,8,3:2:0:0:
344,112,21134,1,0,0:0:0:0:
232,212,21345,2,0,L|219:291,1,80,0|8,3:0|0:0,0:0:0:0:
214,320,21662,1,0,3:0:0:0:
214,320,21768,1,8,3:2:0:0:
372,340,21979,1,2,3:2:0:0:
372,340,22085,1,8,0:0:0:0:
372,340,22190,6,0,P|387:304|385:264,1,80,4|2,3:2|0:0,0:0:0:0:
244,135,22613,2,0,P|229:172|232:212,1,80,8|2,3:2|0:0,0:0:0:0:
400,154,23035,2,0,P|414:97|381:50,1,120,0|0,3:0|0:0,0:0:0:0:
340,56,23458,2,0,L|260:52,1,80,8|0,3:2|0:0,0:0:0:0:
144,96,23880,5,0,3:0:0:0:
216,236,24091,1,0,0:0:0:0:
244,136,24303,1,8,3:2:0:0:
112,208,24514,1,2,0:0:0:0:
216,332,24725,1,0,3:0:0:0:
308,208,24937,1,0,0:0:0:0:
132,292,25148,2,0,L|52:288,1,80,8|2,3:2|3:2,0:0:0:0:
64,79,25570,6,0,P|100:64|139:70,1,80,0|0,3:0|0:0,0:0:0:0:
337,137,25993,2,0,P|332:176|308:208,1,80,8|2,3:2|0:0,0:0:0:0:
150,345,26415,2,0,P|118:321|103:284,1,80,0|0,3:0|0:0,0:0:0:0:
184,188,26838,1,8,3:2:0:0:
256,192,27260,12,4,28951,3:2:0:0:
375,76,29584,6,0,P|355:131|376:186,1,120,0|0,3:0|0:0,0:0:0:0:
416,212,30007,2,0,L|495:201,2,80,0|8|0,0:0|3:2|0:0,0:0:0:0:
272,272,30641,6,0,L|132:260,1,120,4|2,3:2|3:2,0:0:0:0:
124,256,31063,1,8,3:2:0:0:
68,136,31275,2,0,L|79:56,1,80,0|0,3:0|0:0,0:0:0:0:
200,112,31697,1,2,0:0:0:0:
200,112,31803,1,0,0:0:0:0:
200,112,31908,2,0,P|236:127|276:125,1,80,8|2,3:2|3:2,0:0:0:0:
420,84,32331,6,0,L|404:202,1,120,4|2,3:2|3:2,0:0:0:0:
400,232,32753,1,8,3:2:0:0:
280,288,32965,2,0,P|241:279|202:289,1,80,0|0,3:0|3:0,0:0:0:0:
64,344,33387,2,0,P|102:352|141:342,1,80,0|8,0:0|3:2,0:0:0:0:
176,208,33810,1,0,0:0:0:0:
176,208,33915,1,0,0:0:0:0:
176,208,34021,6,0,L|183:88,1,120,4|2,3:2|3:2,0:0:0:0:
187,59,34444,1,8,3:2:0:0:
352,132,34655,2,0,L|424:96,1,80,0|0,3:0|3:0,0:0:0:0:
288,232,35077,2,0,L|283:312,2,80,2|8|2,0:0|3:2|3:2,0:0:0:0:
187,59,35711,6,0,P|129:48|82:83,1,120,4|2,3:2|3:2,0:0:0:0:
72,111,36134,1,8,3:2:0:0:
176,208,36345,2,0,L|171:288,1,80,0|0,3:0|3:0,0:0:0:0:
52,332,36768,1,0,0:0:0:0:
52,332,36873,1,0,0:0:0:0:
52,332,36979,2,0,L|56:251,1,80,8|0,3:2|0:0,0:0:0:0:
212,288,37401,6,0,P|266:309|319:285,1,120,4|2,3:2|3:2,0:0:0:0:
340,264,37824,1,8,3:2:0:0:
213,125,38035,2,0,P|174:116|135:126,1,80,0|0,3:0|3:0,0:0:0:0:
56,252,38458,2,0,P|94:260|133:250,1,80,2|8,0:0|3:2,0:0:0:0:
268,204,38880,1,2,3:2:0:0:
268,204,38986,1,0,0:0:0:0:
268,204,39091,6,0,L|263:284,1,80,4|0,3:2|0:0,0:0:0:0:
108,140,39514,2,0,L|112:59,1,80,8|0,3:2|0:0,0:0:0:0:
152,244,39937,2,0,L|147:324,1,80,0|0,3:0|0:0,0:0:0:0:
224,100,40359,2,0,L|228:19,1,80,8|0,3:2|0:0,0:0:0:0:
28,172,40782,5,4,3:2:0:0:
152,244,40993,2,0,L|155:283,2,40,2|2|8,0:0|0:0|3:2,0:0:0:0:
224,100,41415,2,0,L|227:60,2,40,2|2|0,0:0|0:0|3:0,0:0:0:0:
300,256,41838,1,0,0:0:0:0:
300,256,41944,1,0,0:0:0:0:
300,256,42049,2,0,P|338:261|374:245,1,80,8|8,3:2|0:0,0:0:0:0:
468,168,42472,5,12,3:2:0:0:
468,168,43106,2,0,L|460:247,1,80,2|8,3:2|3:2,0:0:0:0:
280,88,43739,2,0,P|334:34|409:51,1,160,8|0,3:2|3:0,0:0:0:0:
340,196,44373,5,10,3:2:0:0:
196,268,44796,1,2,3:2:0:0:
196,268,44901,1,2,0:0:0:0:
196,268,45007,2,0,L|76:256,1,120,8|0,3:2|0:0,0:0:0:0:
108,284,45430,2,0,P|123:248|121:208,1,80,8|2,3:2|0:0,0:0:0:0:
92,92,45852,5,0,3:0:0:0:
92,92,46486,2,0,L|171:84,1,80,2|8,3:2|3:2,0:0:0:0:
336,256,47120,2,0,P|300:271|260:269,1,80,8|2,3:2|0:0,0:0:0:0:
144,240,47542,5,0,3:0:0:0:
272,144,47753,1,10,3:2:0:0:
420,204,48176,1,2,3:2:0:0:
420,204,48387,2,0,B|424:240|424:240|408:322,1,120,8|8,3:2|0:0,0:0:0:0:
312,352,48810,2,0,L|268:356,3,40,8|8|2|2,3:2|0:0|0:0|0:0,0:0:0:0:
232,360,49232,5,4,3:2:0:0:
120,264,49444,1,0,0:0:0:0:
120,264,49549,1,0,0:0:0:0:
120,264,49655,1,8,3:2:0:0:
272,204,49866,1,2,0:0:0:0:
272,204,49972,1,2,3:2:0:0:
272,204,50077,1,0,3:0:0:0:
84,100,50289,1,2,0:0:0:0:
180,188,50500,1,8,3:2:0:0:
276,92,50711,1,2,0:0:0:0:
384,208,50922,6,0,P|450:200|417:142,1,160,4|8,3:2|3:2,0:0:0:0:
272,204,51556,1,0,0:0:0:0:
272,204,51662,1,2,0:0:0:0:
272,204,51768,2,0,P|194:221|116:205,1,160,4|8,3:2|3:2,0:0:0:0:
24,152,52401,1,0,0:0:0:0:
132,32,52613,5,4,3:2:0:0:
260,92,52824,1,0,0:0:0:0:
260,92,52930,1,8,3:2:0:0:
260,92,53035,2,0,P|298:99|338:92,1,80,0|8,0:0|3:2,0:0:0:0:
452,48,53458,2,0,L|448:87,3,40,0|0|8|0,3:0|0:0|0:0|0:0,0:0:0:0:
387,168,53880,2,0,L|384:208,3,40,8|0|0|0,0:0|3:0|3:0|3:0,0:0:0:0:
344,300,54303,6,0,P|274:335|201:311,1,160,8|8,3:2|3:2,0:0:0:0:
56,72,55148,2,0,P|125:36|198:60,1,160,8|8,3:2|3:2,0:0:0:0:
96,236,55993,6,0,P|87:274|89:314,1,80,4|2,3:2|0:0,0:0:0:0:
228,224,56415,2,0,P|236:185|234:145,1,80,8|0,3:2|0:0,0:0:0:0:
84,112,56838,2,0,L|48:131,2,40,0|0|0,3:0|0:0|0:0,0:0:0:0:
216,56,57260,2,0,L|316:64,1,80,8|0,3:2|0:0,0:0:0:0:
384,113,57683,6,0,B|400:144|400:144|360:200|378:262,1,160,0|8,3:0|3:2,0:0:0:0:
440,340,58317,1,0,0:0:0:0:
292,284,58528,1,8,3:2:0:0:
292,284,58634,2,0,P|254:276|214:277,1,80,2|0,0:0|3:0,0:0:0:0:
172,308,58951,2,0,L|92:296,1,80,8|0,3:2|0:0,0:0:0:0:
19,183,59373,6,0,P|15:144|26:106,1,80,0|0,3:0|0:0,0:0:0:0:
200,48,59796,2,0,P|204:87|193:125,1,80,8|0,3:2|0:0,0:0:0:0:
172,164,60113,1,0,3:0:0:0:
172,164,60218,2,0,P|200:204|280:200,1,120,0|2,3:0|3:2,0:0:0:0:
312,188,60641,2,0,L|300:312,1,120,8|0,3:2|3:0,0:0:0:0:
296,344,61063,5,0,3:0:0:0:
424,284,61275,1,0,0:0:0:0:
424,284,61380,1,2,3:2:0:0:
424,284,61486,2,0,L|432:204,1,80,8|0,3:2|0:0,0:0:0:0:
440,108,61908,1,4,3:2:0:0:
300,76,62120,1,4,3:2:0:0:
440,108,62331,1,12,3:2:0:0:
300,220,62542,1,2,0:0:0:0:
300,220,62648,1,2,0:0:0:0:
300,220,62753,6,0,L|220:216,1,80,4|2,3:2|0:0,0:0:0:0:
96,336,63176,2,0,L|176:340,1,80,8|0,3:2|0:0,0:0:0:0:
100,224,63599,2,0,L|92:184,2,40,0|8|0,3:0|0:0|0:0,0:0:0:0:
264,308,64021,2,0,L|344:312,1,80,8|2,3:2|0:0,0:0:0:0:
440,239,64444,6,0,P|451:182|420:133,1,120,0|2,3:0|3:2,0:0:0:0:
375,116,64866,2,0,P|336:120|298:109,1,80,8|0,3:2|0:0,0:0:0:0:
188,60,65289,2,0,L|192:140,1,80,0|0,3:0|0:0,0:0:0:0:
212,176,65606,1,2,3:2:0:0:
212,176,65711,2,0,L|208:256,1,80,8|0,3:2|0:0,0:0:0:0:
112,324,66134,6,0,L|68:316,1,40,4|0,3:2|0:0,0:0:0:0:
208,255,66451,2,0,P|247:251|283:266,2,80,0|0|0,3:0|0:0|3:0,0:0:0:0:
168,248,66979,2,0,L|124:240,1,40,4|0,3:2|0:0,0:0:0:0:
48,144,67296,2,0,P|44:104|59:68,2,80,0|0|0,3:0|0:0|3:0,0:0:0:0:
60,184,67824,5,4,3:2:0:0:
360,96,68246,1,4,3:2:0:0:
284,344,68669,1,4,3:2:0:0:
244,228,68880,1,0,3:0:0:0:
368,256,69091,2,0,B|392:248|392:248|416:260|444:260,1,80,8|0,3:2|3:0,0:0:0:0:
360,96,69514,6,0,L|353:16,1,80,4|2,3:2|0:0,0:0:0:0:
243,228,69937,2,0,P|209:247|169:251,1,80,8|0,3:2|0:0,0:0:0:0:
48,184,70359,2,0,L|44:144,1,40,0|0,3:0|0:0,0:0:0:0:
128,140,70570,2,0,L|144:103,1,40,0|2,0:0|3:2,0:0:0:0:
220,140,70782,2,0,P|258:149|297:143,1,80,8|0,3:2|0:0,0:0:0:0:
412,108,71204,6,0,L|408:240,1,120,0|2,3:0|3:2,0:0:0:0:
396,268,71627,2,0,P|357:277|318:271,1,80,8|0,3:2|0:0,0:0:0:0:
144,216,72049,2,0,P|95:247|88:305,1,120,0|2,3:0|3:2,0:0:0:0:
116,340,72472,2,0,L|195:336,1,80,8|0,3:2|0:0,0:0:0:0:
268,192,72894,6,0,P|274:152|264:114,1,80,0|0,3:0|0:0,0:0:0:0:
88,52,73317,2,0,P|81:91|91:129,1,80,8|0,3:2|0:0,0:0:0:0:
104,168,73634,1,0,3:0:0:0:
104,168,73739,2,0,L|96:247,1,80,0|0,3:0|0:0,0:0:0:0:
224,352,74162,2,0,L|231:272,1,80,8|0,3:2|0:0,0:0:0:0:
264,123,74584,6,0,P|315:96|372:110,1,120,0|2,3:0|3:2,0:0:0:0:
404,144,75007,2,0,L|400:263,1,120,8|0,3:2|3:0,0:0:0:0:
400,308,75430,1,4,3:2:0:0:
224,352,75641,1,4,3:2:0:0:
400,308,75852,1,12,3:2:0:0:
264,160,76063,1,2,0:0:0:0:
264,160,76169,1,2,0:0:0:0:
264,160,76275,6,0,P|226:152|186:159,1,80,4|2,3:2|0:0,0:0:0:0:
52,312,76697,2,0,P|90:320|130:313,1,80,8|2,3:2|0:0,0:0:0:0:
228,252,77120,2,0,L|252:284,3,40,0|8|0|2,3:0|0:0|0:0|3:2,0:0:0:0:
344,280,77542,2,0,L|338:319,3,40,8|0|2|0,3:2|0:0|0:0|3:0,0:0:0:0:
420,303,77965,6,0,P|418:245|376:204,1,120,0|2,3:0|3:2,0:0:0:0:
344,180,78387,2,0,L|336:100,1,80,8|0,3:2|0:0,0:0:0:0:
228,72,78810,2,0,L|224:192,1,120,0|2,3:0|3:2,0:0:0:0:
200,228,79232,2,0,P|163:242|123:242,1,80,8|0,3:2|0:0,0:0:0:0:
32,136,79655,6,0,L|38:96,1,40,4|8,3:2|0:0,0:0:0:0:
228,72,79972,2,0,P|265:83|305:78,2,80,0|0|0,3:0|0:0|3:0,0:0:0:0:
180,88,80500,2,0,L|173:127,1,40,4|8,3:2|0:0,0:0:0:0:
100,256,80817,2,0,P|62:267|22:262,2,80,0|0|0,3:0|0:0|3:0,0:0:0:0:
144,236,81345,5,4,3:2:0:0:
400,200,81768,1,4,3:2:0:0:
228,352,82190,1,4,3:2:0:0:
276,236,82401,1,0,3:0:0:0:
196,140,82613,1,8,3:2:0:0:
196,140,82718,1,8,0:0:0:0:
196,140,82824,1,2,3:2:0:0:
196,140,82930,1,0,3:0:0:0:
196,140,83035,5,4,3:2:0:0:
448,196,83669,2,0,L|451:136,1,60.0000022888184,0|0,0:0|3:0,0:0:0:0:
100,236,84725,6,0,L|103:295,1,60.0000022888184,4|0,3:2|0:0,0:0:0:0:
164,188,85148,2,0,L|167:128,1,60.0000022888184,0|0,3:0|0:0,0:0:0:0:
212,252,85570,6,0,L|233:328,1,80,0|0,3:0|3:0,0:0:0:0:
244,176,85993,2,0,L|265:99,1,80,8|8,3:2|3:2,0:0:0:0:
352,248,86415,5,8,3:2:0:0:
352,248,86627,1,8,3:2:0:0:
448,72,86944,2,0,L|440:191,1,120,8|8,3:2|3:2,0:0:0:0:
440,228,87366,1,8,0:0:0:0:
440,228,87472,1,8,0:0:0:0:
