osu file format v14

[General]
AudioFilename: marikaisbestgirl.mp3
AudioLeadIn: 500
PreviewTime: 55834
Countdown: 0
SampleSet: Soft
StackLeniency: 0.7
Mode: 0
LetterboxInBreaks: 0
WidescreenStoryboard: 0

[Editor]
DistanceSpacing: 0.9
BeatDivisor: 4
GridSize: 4
TimelineZoom: 1

[Metadata]
Title:Matador Love TVsize ver.
TitleUnicode:またどーらぶ TVsize ver.
Artist:Tachibana Marika(Asumi Kana)
ArtistUnicode:橘万里花(阿澄佳奈)
Creator:Little
Version:Insane
Source:ニセコイ:
Tags:Nisekoi: fake false love shaft anime second season 2 ending Momochikun Flask CloudSplash16
BeatmapID:697710
BeatmapSetID:312573

[Difficulty]
HPDrainRate:7
CircleSize:4
OverallDifficulty:8
ApproachRate:8
SliderMultiplier:1.8
SliderTickRate:1

[Events]
//Background and Video events
Video,845,"op.avi"
0,0,"bg.jpg",0,0
//Break Periods
//Storyboard Layer 0 (Background)
//Storyboard Layer 1 (Fail)
//Storyboard Layer 2 (Pass)
//Storyboard Layer 3 (Foreground)
//Storyboard Sound Samples

[TimingPoints]
1064,422.535211267606,4,2,1,55,1,0
7824,-100,4,2,1,60,0,0
14162,-100,4,2,1,50,0,0
15430,422.535211267606,4,2,1,60,1,0
18810,-100,4,2,1,65,0,0
22190,-100,4,2,1,60,0,0
25570,-100,4,2,1,65,0,0
28951,-100,4,2,1,70,0,0
40782,-100,4,2,1,55,0,0
41627,-100,4,2,1,65,0,0
42472,-100,4,2,1,60,0,0
52613,-100,4,2,1,65,0,0
54303,-100,4,2,1,70,0,0
55993,-100,4,2,1,75,0,1
67824,-100,4,2,1,80,0,1
69091,-100,4,2,1,75,0,0
69514,-100,4,2,1,75,0,1
81345,-100,4,2,1,80,0,1
83035,-200,4,2,1,75,0,0
84725,-133.333333333333,4,2,1,70,0,0
85570,-100,4,2,1,65,0,0
87260,-100,4,2,1,70,0,0

[Colours]
Combo1 : 255,128,255
Combo2 : 255,255,128
Combo3 : 128,255,255
Combo4 : 255,191,128
Combo5 : 128,255,191

[HitObjects]
164,168,1064,6,0,P|208:163|253:163,1,90,4|2,3:2|0:0,0:0:0:0:
320,204,1380,2,0,L|330:224,2,22.5,2|2|2,0:0|0:0|0:0,0:0:0:0:
388,52,1697,2,0,L|400:24,2,30,2|2|2,3:2|0:0|0:0,0:0:0:0:
352,128,1909,2,0,L|363:262,1,135,8|0,3:2|0:0,0:0:0:0:
408,328,2331,2,0,P|451:335|493:320,1,90,8|2,3:2|0:0,0:0:0:0:
320,204,2754,6,0,P|275:198|233:213,1,90,0|8,3:0|3:2,0:0:0:0:
234,213,3387,1,0,3:0:0:0:
76,100,3599,2,0,P|119:51|184:58,1,135,8|0,3:2|0:0,0:0:0:0:
226,124,4021,2,0,L|234:213,1,90,8|2,3:2|0:0,0:0:0:0:
56,312,4444,6,0,L|67:178,1,135,4|0,3:2|0:0,0:0:0:0:
76,100,4866,1,0,0:0:0:0:
304,257,5078,2,0,L|316:285,2,30,2|2|2,3:2|0:0|0:0,0:0:0:0:
234,213,5289,2,0,L|100:202,1,135,8|0,3:2|0:0,0:0:0:0:
25,227,5711,2,0,L|56:312,1,90,8|2,3:2|0:0,0:0:0:0:
234,213,6134,6,0,L|265:128,1,90,0|8,3:0|3:2,0:0:0:0:
265,128,6768,1,0,3:0:0:0:
124,48,6979,2,0,P|71:86|72:151,1,135,8|0,3:2|0:0,0:0:0:0:
145,205,7401,1,8,3:2:0:0:
167,207,7506,1,8,0:0:0:0:
189,209,7612,1,0,3:0:0:0:
212,211,7717,1,2,0:0:0:0:
234,213,7824,6,0,B|262:221|290:209|290:209|310:217|310:217|338:205|364:212,1,135,4|0,3:2|3:0,0:0:0:0:
440,240,8247,1,8,3:2:0:0:
384,64,8458,2,0,L|372:36,2,30,2|2|2,0:0|0:0|0:0,0:0:0:0:
420,140,8669,6,0,B|409:167|409:167|419:196|409:215|418:244|418:244|409:269,1,135,0|0,3:0|3:0,0:0:0:0:
364,340,9092,2,0,P|321:347|279:332,1,90,8|2,3:2|0:0,0:0:0:0:
145,205,9514,6,0,L|152:249,1,45,0|0,3:0|0:0,0:0:0:0:
320,224,9831,1,0,3:0:0:0:
320,224,9937,2,0,L|335:135,1,90,8|0,3:2|0:0,0:0:0:0:
130,116,10359,1,0,3:0:0:0:
130,116,10465,2,0,L|145:205,1,90,0|0,3:0|3:0,0:0:0:0:
212,272,10782,2,0,P|255:275|295:256,1,90,8|2,3:2|0:0,0:0:0:0:
249,111,11204,5,0,3:0:0:0:
231,149,11309,1,0,0:0:0:0:
241,192,11415,1,0,0:0:0:0:
275,220,11520,1,0,0:0:0:0:
320,224,11626,1,8,0:0:0:0:
358,200,11732,1,0,0:0:0:0:
376,160,11837,1,0,3:0:0:0:
364,117,11943,1,0,0:0:0:0:
330,85,12049,5,0,3:0:0:0:
317,127,12154,1,0,0:0:0:0:
327,170,12260,1,0,0:0:0:0:
358,200,12365,1,0,0:0:0:0:
402,210,12471,1,8,0:0:0:0:
443,194,12577,1,0,0:0:0:0:
470,159,12682,1,0,3:0:0:0:
474,114,12788,1,0,0:0:0:0:
453,75,12894,5,8,3:2:0:0:
248,252,13317,2,0,B|256:284|256:284|204:264|156:274,1,135,8|0,3:2|0:0,0:0:0:0:
115,343,13740,2,0,P|75:268|126:200,1,180,8|4,3:2|0:0,0:0:0:0:
328,248,14373,6,0,L|335:277,2,30
332,152,14585,2,0,L|344:104,2,45
248,196,14902,1,8,0:0:0:0:
248,196,15007,1,8,0:0:0:0:
48,176,15218,1,8,0:0:0:0:
115,343,15430,5,4,3:2:0:0:
328,248,15641,2,0,L|356:236,2,30,2|2|2,0:0|0:0|0:0,0:0:0:0:
252,284,15852,2,0,L|162:276,1,90,8|2,3:2|0:0,0:0:0:0:
80,312,16169,2,0,L|59:321,2,22.5,2|2|0,0:0|0:0|3:0,0:0:0:0:
152,144,16486,1,0,0:0:0:0:
152,144,16591,1,0,3:0:0:0:
152,144,16697,1,8,3:2:0:0:
328,248,16908,5,2,3:2:0:0:
328,248,17014,1,0,0:0:0:0:
328,248,17120,1,0,3:0:0:0:
252,56,17331,1,2,0:0:0:0:
252,56,17437,1,0,3:0:0:0:
252,56,17542,2,0,L|241:145,1,90,8|2,3:2|0:0,0:0:0:0:
204,304,17965,2,0,L|193:214,1,90,0|0,3:0|0:0,0:0:0:0:
152,144,18282,1,0,3:0:0:0:
152,144,18387,2,0,P|110:128|66:135,1,90,8|2,3:2|3:2,0:0:0:0:
40,304,18810,6,0,L|174:290,1,135,0|0,3:0|3:0,0:0:0:0:
259,264,19232,2,0,P|275:222|268:178,1,90,12|2,3:2|0:0,0:0:0:0:
67,134,19655,1,0,3:0:0:0:
193,214,19866,1,8,0:0:0:0:
332,100,20077,2,0,L|343:11,1,90,12|2,3:2|3:2,0:0:0:0:
104,216,20500,6,0,L|115:305,1,90,0|0,3:0|0:0,0:0:0:0:
269,178,20922,1,8,3:2:0:0:
332,328,21134,1,0,0:0:0:0:
115,305,21345,1,0,3:0:0:0:
168,116,21556,1,8,0:0:0:0:
168,116,21662,1,0,3:0:0:0:
168,116,21768,1,8,3:2:0:0:
364,196,21979,5,2,3:2:0:0:
364,196,22085,1,8,0:0:0:0:
364,196,22191,1,4,3:2:0:0:
224,308,22401,2,0,L|216:352,2,45,2|2|8,0:0|3:2|3:2,0:0:0:0:
163,86,22824,2,0,L|168:116,3,30,2|2|2|0,0:0|0:0|0:0|3:0,0:0:0:0:
115,305,23246,1,0,0:0:0:0:
0,196,23458,2,0,P|54:159|115:183,1,135,8|0,3:2|0:0,0:0:0:0:
196,224,23880,6,0,L|285:216,1,90,0|0,3:0|0:0,0:0:0:0:
416,92,24303,2,0,L|327:84,1,90,8|2,3:2|0:0,0:0:0:0:
168,116,24725,1,0,3:0:0:0:
224,308,24937,1,0,0:0:0:0:
362,163,25148,1,8,3:2:0:0:
196,224,25359,5,2,3:2:0:0:
196,224,25465,1,2,0:0:0:0:
196,224,25570,2,0,L|107:216,1,90,0|0,3:0|0:0,0:0:0:0:
362,163,25993,2,0,L|451:171,1,90,8|2,3:2|0:0,0:0:0:0:
224,308,26415,2,0,L|135:300,1,90,0|0,3:0|0:0,0:0:0:0:
334,79,26838,2,0,L|423:87,1,90,8|2,3:2|0:0,0:0:0:0:
356,329,27260,5,4,3:2:0:0:
312,335,27365,1,0,0:0:0:0:
270,319,27471,1,2,0:0:0:0:
241,285,27576,1,0,3:0:0:0:
232,241,27682,1,8,3:2:0:0:
244,199,27788,1,0,0:0:0:0:
275,167,27893,1,2,0:0:0:0:
318,154,27999,1,2,0:0:0:0:
361,162,28106,6,0,L|356:207,1,45,0|0,3:0|0:0,0:0:0:0:
312,335,28317,2,0,L|307:290,2,45,2|8|8,0:0|0:0|3:2,0:0:0:0:
456,144,28739,2,0,L|451:188,1,45,8|0,0:0|3:0,0:0:0:0:
318,154,28951,6,0,P|250:146|183:152,1,135,4|2,3:2|3:2,0:0:0:0:
106,163,29373,1,8,3:2:0:0:
312,335,29584,2,0,P|348:286|295:257,1,135,0|0,3:0|0:0,0:0:0:0:
211,320,30007,2,0,P|168:329|124:320,1,90,0|8,0:0|3:2,0:0:0:0:
3,103,30430,5,0,0:0:0:0:
3,103,30535,1,0,0:0:0:0:
3,103,30641,2,0,P|57:66|118:90,1,135,4|2,3:2|3:2,0:0:0:0:
140,164,31063,1,8,3:2:0:0:
20,316,31275,2,0,L|9:182,1,135,0|0,3:0|0:0,0:0:0:0:
3,103,31697,1,2,0:0:0:0:
140,252,31908,2,0,P|183:261|227:251,1,90,8|2,3:2|3:2,0:0:0:0:
308,252,32225,5,0,0:0:0:0:
308,252,32331,2,0,P|366:280|376:344,1,135,4|2,3:2|3:2,0:0:0:0:
376,345,32753,1,8,3:2:0:0:
227,251,32965,2,0,L|231:161,1,90,0|0,3:0|3:0,0:0:0:0:
300,68,33387,1,0,0:0:0:0:
140,252,33599,2,0,L|144:342,1,90,8|0,3:2|0:0,0:0:0:0:
128,164,34021,6,0,P|74:127|13:151,1,135,4|2,3:2|3:2,0:0:0:0:
14,150,34444,1,8,3:2:0:0:
140,252,34655,1,0,3:0:0:0:
300,68,34866,1,0,3:0:0:0:
312,240,35077,1,2,0:0:0:0:
164,144,35289,1,8,3:2:0:0:
384,178,35500,5,2,3:2:0:0:
384,178,35606,1,0,0:0:0:0:
384,178,35711,2,0,P|408:239|384:301,1,135,4|2,3:2|3:2,0:0:0:0:
312,356,36134,2,0,P|267:353|222:355,1,90,8|0,3:2|3:0,0:0:0:0:
56,360,36556,1,0,3:0:0:0:
168,244,36768,1,0,0:0:0:0:
168,244,36873,1,0,0:0:0:0:
168,244,36979,1,8,3:2:0:0:
36,128,37190,2,0,L|48:172,1,45,0|0,0:0|3:0,0:0:0:0:
167,156,37401,6,0,P|235:150|302:154,1,135,4|2,3:2|3:2,0:0:0:0:
392,144,37824,2,0,P|403:186|393:230,1,90,8|0,3:2|3:0,0:0:0:0:
312,356,38246,1,0,3:0:0:0:
84,196,38458,1,2,0:0:0:0:
84,196,38563,1,2,0:0:0:0:
84,196,38669,2,0,L|88:286,1,90,8|2,3:2|3:2,0:0:0:0:
167,156,39091,5,4,3:2:0:0:
344,256,39303,2,0,L|348:285,2,30
364,212,39514,1,8,3:2:0:0:
168,244,39725,2,0,L|150:268,2,30
213,227,39936,1,0,3:0:0:0:
28,140,40148,1,0,0:0:0:0:
28,140,40253,1,0,0:0:0:0:
28,140,40359,1,8,3:2:0:0:
108,32,40570,1,0,0:0:0:0:
252,92,40782,6,0,P|256:114|256:136,1,45,4|0,3:2|0:0,0:0:0:0:
351,184,40993,2,0,P|329:188|307:188,1,45,2|2,0:0|0:0,0:0:0:0:
259,283,41204,2,0,P|255:261|255:239,1,45,8|0,3:2|0:0,0:0:0:0:
160,191,41415,2,0,P|182:187|204:187,1,45,2|2,0:0|0:0,0:0:0:0:
330,261,41627,6,0,P|344:278|355:297,1,45,0|0,3:0|0:0,0:0:0:0:
183,262,41838,2,0,P|165:276|146:287,1,45
182,115,42049,2,0,P|167:97|156:78,1,45,8|0,3:2|0:0,0:0:0:0:
329,114,42260,2,0,P|346:99|365:88,1,45,8|0,0:0|0:0,0:0:0:0:
256,188,42472,5,12,3:2:0:0:
256,188,43106,2,0,P|213:180|169:188,1,90,2|8,3:2|3:2,0:0:0:0:
168,188,43739,1,8,3:2:0:0:
88,296,43951,2,0,L|93:325,2,30,2|2|2,0:0|0:0|0:0,0:0:0:0:
64,216,44162,6,0,L|67:126,1,90,0|10,3:0|3:2,0:0:0:0:
354,146,44796,1,2,3:2:0:0:
354,146,44901,1,2,0:0:0:0:
354,146,45007,2,0,P|300:183|239:159,1,135,8|0,3:2|0:0,0:0:0:0:
157,118,45429,2,0,L|68:126,1,90,8|2,3:2|0:0,0:0:0:0:
208,304,45852,5,0,3:0:0:0:
208,304,46486,2,0,L|297:312,1,90,2|8,3:2|3:2,0:0:0:0:
297,312,47120,1,8,3:2:0:0:
428,344,47331,6,0,L|433:373,2,30,2|2|2,0:0|0:0|0:0,0:0:0:0:
404,264,47542,2,0,L|412:175,1,90,0|10,3:0|3:2,0:0:0:0:
236,44,48176,1,2,3:2:0:0:
157,118,48387,2,0,L|168:252,1,135,8|8,3:2|0:0,0:0:0:0:
136,328,48810,2,0,P|117:339|96:348,2,45,8|8|2,3:2|0:0|0:0,0:0:0:0:
240,296,49127,6,0,P|250:298|261:302,2,22.5,2|2|4,0:0|0:0|3:2,0:0:0:0:
136,328,49444,1,0,0:0:0:0:
288,196,49655,1,8,3:2:0:0:
88,180,49866,1,2,0:0:0:0:
88,180,49972,1,2,3:2:0:0:
88,180,50077,1,0,3:0:0:0:
292,60,50289,1,2,0:0:0:0:
288,196,50500,1,8,3:2:0:0:
157,118,50711,1,2,0:0:0:0:
350,142,50922,6,0,P|369:205|336:262,1,135,4|0,3:2|3:0,0:0:0:0:
226,249,51345,2,0,P|206:186|239:129,1,135,8|2,3:2|0:0,0:0:0:0:
368,180,51768,6,0,P|353:244|296:277,1,135,4|2,3:2|3:2,0:0:0:0:
207,210,52191,2,0,P|221:146|278:113,1,135,8|2,3:2|0:0,0:0:0:0:
288,196,52613,5,4,3:2:0:0:
116,262,52824,1,0,0:0:0:0:
116,262,52930,2,0,L|122:306,1,45,8|0,3:2|0:0,0:0:0:0:
36,192,53246,2,0,L|42:147,1,45,8|0,3:2|0:0,0:0:0:0:
176,68,53458,5,0,3:0:0:0:
192,97,53563,1,0,0:0:0:0:
195,130,53669,1,8,0:0:0:0:
184,162,53774,1,0,0:0:0:0:
161,187,53880,1,8,0:0:0:0:
120,201,53985,1,0,3:0:0:0:
76,193,54091,1,0,3:0:0:0:
44,162,54196,1,0,3:0:0:0:
32,119,54302,5,8,3:2:0:0:
296,52,54514,1,2,0:0:0:0:
296,52,54620,1,2,0:0:0:0:
296,52,54725,1,8,3:2:0:0:
256,264,54937,1,2,0:0:0:0:
256,264,55043,1,0,0:0:0:0:
256,264,55148,1,8,3:2:0:0:
115,122,55359,1,0,0:0:0:0:
115,122,55465,1,0,3:0:0:0:
115,122,55570,1,8,3:2:0:0:
320,168,55782,2,0,L|359:146,1,45,2|2,0:0|0:0,0:0:0:0:
472,148,55993,6,0,P|484:190|474:234,1,90,4|2,3:2|0:0,0:0:0:0:
440,308,56310,2,0,L|447:352,1,45,2|8,3:2|3:2,0:0:0:0:
320,168,56627,2,0,L|327:124,2,45,0|0|0,0:0|0:0|3:0,0:0:0:0:
212,312,57049,1,0,0:0:0:0:
100,148,57260,2,0,P|139:127|182:134,1,90,8|0,3:2|0:0,0:0:0:0:
240,192,57577,5,0,3:0:0:0:
240,192,57683,2,0,L|247:236,1,45,0|0,3:0|0:0,0:0:0:0:
344,332,57894,2,0,L|351:288,1,45,0|2,0:0|3:2,0:0:0:0:
216,212,58106,2,0,L|223:256,1,45,8|0,3:2|0:0,0:0:0:0:
320,352,58317,2,0,L|327:308,1,45,0|2,0:0|3:2,0:0:0:0:
285,132,58528,1,8,3:2:0:0:
285,132,58634,2,0,P|243:115|200:126,1,90,2|0,0:0|3:0,0:0:0:0:
132,184,58951,2,0,L|42:176,1,90,8|0,3:2|0:0,0:0:0:0:
231,360,59373,6,0,L|320:352,1,90,0|0,3:0|0:0,0:0:0:0:
459,168,59796,2,0,P|417:151|374:162,1,90,8|0,3:2|0:0,0:0:0:0:
306,220,60113,1,0,3:0:0:0:
306,220,60218,2,0,L|312:268,2,45,0|8|0,3:0|0:0|0:0,0:0:0:0:
240,128,60535,1,2,3:2:0:0:
240,128,60640,2,0,L|246:80,1,45,8|0,3:2|0:0,0:0:0:0:
364,44,60852,2,0,L|370:92,1,45,0|0,0:0|3:0,0:0:0:0:
306,220,61063,6,0,L|171:208,1,135,0|2,3:0|3:2,0:0:0:0:
92,228,61486,2,0,P|76:269|80:314,1,90,8|0,3:2|0:0,0:0:0:0:
388,176,61908,1,4,3:2:0:0:
100,75,62120,1,4,3:2:0:0:
156,374,62331,1,12,3:2:0:0:
240,127,62542,5,2,0:0:0:0:
240,127,62648,1,2,0:0:0:0:
240,127,62753,1,4,3:2:0:0:
288,316,62965,1,2,0:0:0:0:
92,228,63176,1,8,3:2:0:0:
306,220,63387,1,0,0:0:0:0:
306,220,63493,1,0,3:0:0:0:
306,220,63599,2,0,L|350:217,1,45,0|8,3:0|0:0,0:0:0:0:
460,212,63810,2,0,L|439:251,1,45,0|8,0:0|3:2,0:0:0:0:
389,349,64021,2,0,L|364:311,1,45,8|0,3:2|0:0,0:0:0:0:
400,148,64232,2,0,L|420:108,1,45,2|0,0:0|3:0,0:0:0:0:
306,220,64444,6,0,B|314:252|314:252|262:232|214:242,1,135,0|2,3:0|3:2,0:0:0:0:
148,288,64866,2,0,L|164:376,1,90,8|0,3:2|0:0,0:0:0:0:
252,152,65289,2,0,L|268:64,1,90,0|0,3:0|0:0,0:0:0:0:
164,108,65606,1,2,3:2:0:0:
164,108,65711,2,0,P|121:115|79:101,1,90,8|0,3:2|0:0,0:0:0:0:
103,283,66134,5,4,3:2:0:0:
103,283,66239,2,0,L|148:288,1,45
284,304,66451,2,0,L|265:262,1,45,0|8,3:0|3:2,0:0:0:0:
211,136,66662,2,0,L|184:172,2,45,0|0|0,0:0|0:0|3:0,0:0:0:0:
348,153,66979,5,4,3:2:0:0:
348,153,67084,2,0,L|321:189,1,45
239,299,67296,2,0,L|284:304,1,45,0|8,3:0|3:2,0:0:0:0:
421,320,67507,2,0,L|402:278,2,45,0|0|0,0:0|0:0|3:0,0:0:0:0:
248,220,67824,5,4,3:2:0:0:
103,283,68035,2,0,L|148:288,1,45,2|0,0:0|0:0,0:0:0:0:
348,153,68246,5,4,3:2:0:0:
203,215,68457,2,0,L|248:220,1,45,2|2,0:0|0:0,0:0:0:0:
448,85,68669,5,4,3:2:0:0:
303,148,68880,2,0,L|348:153,1,45,0|0,3:0|0:0,0:0:0:0:
452,196,69091,6,0,B|480:196|508:184|508:184|504:216,1,90,8|0,3:2|3:0,0:0:0:0:
448,288,69408,5,2,3:2:0:0:
448,288,69514,2,0,P|406:299|362:289,1,90,4|2,3:2|0:0,0:0:0:0:
104,112,69937,2,0,L|110:160,1,45,8|0,3:2|0:0,0:0:0:0:
197,260,70148,2,0,L|203:216,1,45,0|0,0:0|3:0,0:0:0:0:
256,89,70359,2,0,P|296:72|340:82,1,90,0|0,3:0|0:0,0:0:0:0:
412,136,70676,1,2,3:2:0:0:
412,136,70782,2,0,L|404:225,1,90,8|0,3:2|0:0,0:0:0:0:
328,324,71099,5,0,3:0:0:0:
328,324,71204,2,0,P|306:330|284:331,1,45,0|0,3:0|0:0,0:0:0:0:
190,303,71415,2,0,P|190:281|197:260,1,45,0|2,0:0|3:2,0:0:0:0:
251,179,71627,2,0,P|272:186|290:199,1,45,8|0,3:2|0:0,0:0:0:0:
380,240,71838,2,0,P|402:235|422:226,1,45,0|2,0:0|3:2,0:0:0:0:
512,180,72049,2,0,L|504:269,1,90,0|0,3:0|0:0,0:0:0:0:
414,334,72366,1,2,3:2:0:0:
414,334,72472,2,0,P|372:318|328:324,1,90,8|0,3:2|0:0,0:0:0:0:
231,322,72789,6,0,L|190:303,1,45,0|0,3:0|3:0,0:0:0:0:
44,312,73106,1,0,0:0:0:0:
164,128,73317,2,0,L|156:217,1,90,8|0,3:2|0:0,0:0:0:0:
44,204,73634,1,0,3:0:0:0:
44,204,73739,2,0,L|40:159,1,45,0|8,3:0|0:0,0:0:0:0:
304,156,74056,1,2,3:2:0:0:
304,156,74162,2,0,L|296:245,1,90,8|0,3:2|0:0,0:0:0:0:
200,360,74479,5,0,3:0:0:0:
200,360,74584,2,0,P|165:311|219:286,1,135,0|2,3:0|3:2,0:0:0:0:
348,328,75007,1,8,3:2:0:0:
385,351,75112,1,0,0:0:0:0:
430,356,75218,1,0,3:0:0:0:
471,341,75323,1,0,3:0:0:0:
502,309,75429,1,4,3:2:0:0:
341,50,75641,1,4,3:2:0:0:
208,322,75852,1,12,3:2:0:0:
424,233,76063,5,2,0:0:0:0:
424,233,76169,1,2,0:0:0:0:
424,233,76275,1,4,3:2:0:0:
200,184,76486,1,2,0:0:0:0:
380,108,76697,1,8,3:2:0:0:
208,322,76908,1,2,0:0:0:0:
208,322,77014,1,0,3:0:0:0:
208,322,77120,2,0,L|164:328,1,45,0|8,3:0|0:0,0:0:0:0:
16,240,77331,2,0,L|60:234,1,45,0|2,0:0|3:2,0:0:0:0:
220,292,77542,2,0,L|184:265,1,45,8|0,3:2|0:0,0:0:0:0:
142,98,77753,2,0,L|177:124,1,45,2|0,0:0|3:0,0:0:0:0:
312,292,77965,6,0,L|356:298,1,45,0|8,3:0|0:0,0:0:0:0:
504,210,78176,2,0,L|460:204,1,45,0|2,0:0|3:2,0:0:0:0:
300,262,78387,2,0,L|336:235,1,45,8|0,3:2|0:0,0:0:0:0:
378,68,78598,2,0,L|343:94,1,45,0|2,0:0|0:0,0:0:0:0:
270,248,78810,2,0,L|276:203,1,45,0|8,3:0|0:0,0:0:0:0:
188,56,79021,2,0,L|181:99,1,45,0|2,0:0|3:2,0:0:0:0:
189,264,79232,2,0,P|233:270|271:247,1,90,8|0,3:2|0:0,0:0:0:0:
366,148,79549,5,0,3:0:0:0:
366,148,79655,1,4,3:2:0:0:
366,148,79760,1,8,0:0:0:0:
101,162,79972,2,0,L|107:206,1,45,0|8,3:0|3:2,0:0:0:0:
271,248,80183,2,0,L|277:204,1,45
188,55,80394,1,0,3:0:0:0:
188,55,80500,1,4,3:2:0:0:
188,55,80606,1,8,0:0:0:0:
189,264,80817,2,0,L|183:220,1,45,0|8,3:0|3:2,0:0:0:0:
113,37,81028,2,0,L|105:89,1,45
276,159,81239,1,0,3:0:0:0:
276,159,81345,6,0,L|366:148,1,90,4|2,3:2|0:0,0:0:0:0:
12,150,81768,2,0,L|102:162,1,90,4|2,3:2|0:0,0:0:0:0:
261,26,82190,1,4,3:2:0:0:
189,264,82401,1,0,3:0:0:0:
435,218,82613,1,8,3:2:0:0:
458,181,82718,1,8,0:0:0:0:
463,136,82824,1,2,3:2:0:0:
448,95,82929,1,0,3:0:0:0:
416,64,83035,5,4,3:2:0:0:
42,204,83669,1,0,0:0:0:0:
220,318,83880,2,0,L|313:313,1,90,0|0,3:0|0:0,0:0:0:0:
292,80,84514,5,0,0:0:0:0:
292,80,84620,1,0,3:0:0:0:
292,80,84725,1,4,3:2:0:0:
176,152,84937,1,0,0:0:0:0:
344,240,85148,2,0,L|354:173,1,67.5000025749208,0|0,3:0|0:0,0:0:0:0:
255,250,85465,5,0,3:0:0:0:
255,250,85570,2,0,L|259:294,1,45,0|0,3:0|0:0,0:0:0:0:
162,249,85782,2,0,L|126:275,1,45,0|0,3:0|0:0,0:0:0:0:
251,98,85993,2,0,L|292:80,1,45,8|0,3:2|0:0,0:0:0:0:
112,104,86204,2,0,L|68:96,1,45,8|0,3:2|0:0,0:0:0:0:
255,250,86415,5,8,3:2:0:0:
255,250,86627,1,8,3:2:0:0:
255,250,86944,6,0,L|345:241,1,90,8|0,3:2|0:0,0:0:0:0:
440,264,87260,1,8,3:2:0:0:
376,316,87366,1,8,0:0:0:0:
408,184,87472,1,8,0:0:0:0:
