osu file format v14

[General]
AudioFilename: audio.mp3
AudioLeadIn: 0
PreviewTime: 57579
Countdown: 0
SampleSet: Soft
StackLeniency: 0.7
Mode: 1
LetterboxInBreaks: 0
WidescreenStoryboard: 0

[Editor]
Bookmarks: 21363,38660
DistanceSpacing: 0.4
BeatDivisor: 4
GridSize: 8
TimelineZoom: 1

[Metadata]
Title:Hanagonomi (TV Size)
TitleUnicode:はなごのみ (TV Size)
Artist:Tachibana Marika (Asumi Kana)
ArtistUnicode:橘万里花 (阿澄佳奈)
Creator:Faputa
Version:leo16834's Kantan
Source:ニセコイ
Tags:nisekoi shaft false fake love ending ed4 tachibana marika hana gonomi leo16834
BeatmapID:1554190
BeatmapSetID:734809

[Difficulty]
HPDrainRate:8
CircleSize:7
OverallDifficulty:2
ApproachRate:10
SliderMultiplier:1.4
SliderTickRate:1

[Events]
//Background and Video events
Video,1647,"Video.mp4"
0,0,"BG.jpg",0,0
//Break Periods
//Storyboard Layer 0 (Background)
//Storyboard Layer 1 (Fail)
//Storyboard Layer 2 (Pass)
//Storyboard Layer 3 (Foreground)
//Storyboard Sound Samples

[TimingPoints]
1904,540.540540540541,4,2,0,70,1,0
58120,-100,4,2,0,85,0,1
75417,-100,4,2,0,60,0,0

[HitObjects]
256,192,1904,5,8,0:0:0:0:
256,192,2985,1,0,0:0:0:0:
256,192,3525,1,0,0:0:0:0:
256,192,4066,1,8,0:0:0:0:
256,192,5147,1,0,0:0:0:0:
247,133,5687,1,2,0:0:0:0:
256,192,6228,1,8,0:0:0:0:
211,89,7309,1,0,0:0:0:0:
256,192,8390,1,8,0:0:0:0:
256,192,9471,1,8,0:0:0:0:
256,192,10012,1,2,0:0:0:0:
256,192,10552,1,12,0:0:0:0:
256,192,11633,1,8,0:0:0:0:
256,192,12174,1,0,0:0:0:0:
256,192,12714,1,8,0:0:0:0:
256,192,13795,1,0,0:0:0:0:
265,140,14336,1,8,0:0:0:0:
256,192,14876,1,0,0:0:0:0:
264,192,15958,1,0,0:0:0:0:
264,192,16498,1,0,0:0:0:0:
256,192,17039,1,12,0:0:0:0:
256,192,19201,12,0,20282,0:0:0:0:
256,192,21363,5,8,0:0:0:0:
264,200,22444,1,0,0:0:0:0:
264,200,22985,1,8,0:0:0:0:
264,200,23525,1,0,0:0:0:0:
256,192,24606,1,8,0:0:0:0:
264,200,25687,1,0,0:0:0:0:
264,200,26228,1,8,0:0:0:0:
264,200,26768,1,0,0:0:0:0:
264,200,27849,1,8,0:0:0:0:
256,200,28931,1,0,0:0:0:0:
264,200,30012,1,8,0:0:0:0:
264,200,30552,1,8,0:0:0:0:
264,200,31093,1,0,0:0:0:0:
264,200,32174,1,0,0:0:0:0:
264,200,32714,1,8,0:0:0:0:
264,200,33255,1,0,0:0:0:0:
264,200,34336,1,0,0:0:0:0:
264,200,34876,1,8,0:0:0:0:
256,192,35417,1,0,0:0:0:0:
256,200,35958,1,2,0:0:0:0:
256,200,36498,1,0,0:0:0:0:
272,200,38660,1,12,0:0:0:0:
272,200,39741,1,0,0:0:0:0:
272,200,40282,1,8,0:0:0:0:
288,192,40822,1,0,0:0:0:0:
288,192,41904,1,8,0:0:0:0:
288,192,42985,1,4,0:0:0:0:
288,192,44066,1,8,0:0:0:0:
280,192,44606,1,0,0:0:0:0:
280,192,45147,1,12,0:0:0:0:
288,184,46228,1,8,0:0:0:0:
296,192,47309,1,4,0:0:0:0:
296,192,47849,1,0,0:0:0:0:
296,192,48390,1,2,0:0:0:0:
296,192,48931,1,2,0:0:0:0:
296,192,49471,1,0,0:0:0:0:
255,116,50012,1,2,0:0:0:0:
183,126,50552,1,0,0:0:0:0:
288,200,51633,1,12,0:0:0:0:
288,192,52174,1,8,0:0:0:0:
288,200,52714,1,0,0:0:0:0:
288,200,53255,1,0,0:0:0:0:
288,200,53795,1,12,0:0:0:0:
256,192,54876,1,4,0:0:0:0:
256,192,57579,1,8,0:0:0:0:
256,192,58120,1,4,0:0:0:0:
256,192,58660,1,0,0:0:0:0:
256,192,59201,1,2,0:0:0:0:
256,192,60282,1,8,0:0:0:0:
256,192,60822,1,8,0:0:0:0:
248,192,61363,1,0,0:0:0:0:
248,192,62444,1,0,0:0:0:0:
248,192,62985,1,0,0:0:0:0:
248,192,63525,1,8,0:0:0:0:
224,124,64606,1,0,0:0:0:0:
248,192,65147,1,8,0:0:0:0:
248,192,65687,1,8,0:0:0:0:
256,192,66768,1,0,0:0:0:0:
256,192,67308,1,0,0:0:0:0:
256,192,67849,1,2,0:0:0:0:
256,192,68930,1,8,0:0:0:0:
248,200,69471,1,8,0:0:0:0:
248,192,70011,1,0,0:0:0:0:
248,192,71092,1,8,0:0:0:0:
248,192,71633,1,0,0:0:0:0:
248,192,72173,1,8,0:0:0:0:
248,192,73254,1,4,0:0:0:0:
248,192,74335,1,0,0:0:0:0:
248,192,74876,1,8,0:0:0:0:
248,192,75417,1,0,0:0:0:0:
248,192,76498,1,0,0:0:0:0:
248,192,77579,1,0,0:0:0:0:
248,192,79741,1,8,0:0:0:0:
248,192,80822,1,0,0:0:0:0:
248,192,81904,1,8,0:0:0:0:
256,192,84066,1,12,0:0:0:0:
256,192,84336,12,8,88390,0:0:0:0:
