osu file format v14

[General]
AudioFilename: audio.mp3
AudioLeadIn: 0
PreviewTime: 32002
Countdown: 0
SampleSet: Soft
StackLeniency: 0.7
Mode: 0
LetterboxInBreaks: 0
WidescreenStoryboard: 1

[Editor]
Bookmarks: 30028
DistanceSpacing: 1
BeatDivisor: 8
GridSize: 4
TimelineZoom: 2.899999

[Metadata]
Title:in fact
TitleUnicode:in fact
Artist:Tachibana Arisu (CV: Satou Amina)
ArtistUnicode:橘ありす (CV: 佐藤亜美菜)
Creator:S o a p
Version:Normal
Source:アイドルマスターシンデレラガールズ
Tags:佐藤亜美菜 satou amina the idolmaster idolm@ster cinderella girls Suzuki_1112 1112deng s_o_a_p
BeatmapID:1392536
BeatmapSetID:655495

[Difficulty]
HPDrainRate:5
CircleSize:3
OverallDifficulty:3.7
ApproachRate:4.5
SliderMultiplier:2.2
SliderTickRate:1

[Events]
//Background and Video events
0,0,"1.jpg",0,0
//Break Periods
//Storyboard Layer 0 (Background)
//Storyboard Layer 1 (Fail)
//Storyboard Layer 2 (Pass)
//Storyboard Layer 3 (Foreground)
//Storyboard Sound Samples

[TimingPoints]
2917,731.707317073171,4,2,1,75,1,0
4380,-100,4,2,1,34,0,0
8770,-100,4,2,1,20,0,0
8953,-100,4,2,1,40,0,0
10234,738.461538461538,4,2,1,75,1,0
10234,-100,4,2,1,75,0,0
10603,736.196319018405,4,2,1,75,1,0
10971,747.663551401869,4,2,1,75,1,0
13213,745.341614906832,4,2,1,75,1,0
13958,731.707317073171,4,2,1,75,1,0
14666,731.707317073171,4,2,1,75,1,0
15397,774.193548387097,4,2,1,75,1,0
15995,731.707317073171,4,2,1,75,1,0
16177,731.707317073171,4,2,1,75,1,0
17551,-100,4,2,1,18,0,0
17642,-100,4,2,1,57,0,0
17914,731.707317073171,4,2,1,57,1,0
18282,-100,4,2,1,66,0,0
19012,731.707317073171,4,2,1,75,1,0
31451,-100,4,2,1,30,0,0
32182,-100,4,2,1,30,0,0
43890,-100,4,2,1,40,0,0
55597,-100,4,2,1,31,0,0
55689,-100,4,2,1,49,0,0
64378,-100,4,2,1,30,0,0
66573,-100,4,2,1,54,0,0
67304,-100,4,2,1,54,0,1
67487,-100,4,2,1,54,0,0
92182,-100,4,2,1,47,0,0
100599,-100,4,2,1,31,0,0
100963,-100,4,2,1,21,0,0

[Colours]
Combo1 : 133,194,197
Combo2 : 204,147,147
Combo3 : 130,119,230

[HitObjects]
200,188,4380,5,2,0:0:0:0:
104,132,4746,2,0,P|144:88|204:76,1,110
292,124,5477,1,0,0:0:0:0:
396,162,5843,2,0,P|364:206|316:232,1,110,2|0,0:0|0:0,0:0:0:0:
208,200,6575,2,0,L|252:320,1,110
136,308,7307,6,0,B|104:212|104:212|100:136|168:104,1,220,2|0,0:0|0:0,0:0:0:0:
264,120,8404,1,0,0:0:0:0:
284,228,8770,2,0,P|336:200|368:148,1,110,4|0,0:0|0:0,0:0:0:0:
440,76,9502,2,0,L|468:192,1,110
432,288,10234,6,0,P|359:303|323:335,1,110,2|0,0:0|0:0,0:0:0:0:
224,315,10971,2,0,P|148:323|104:311,1,110
57,224,11718,2,0,L|109:128,1,110,2|0,0:0|0:0,0:0:0:0:
218,113,12466,2,0,L|166:209,1,110
264,208,13213,6,0,B|256:272|204:292|204:292|224:348|312:320,1,220,2|0,0:0|0:0,0:0:0:0:
489,231,14666,2,0,B|496:183|452:143|452:143|480:95|444:27,1,220
325,163,15995,1,0,0:0:0:0:
376,48,17914,6,0,L|316:96,1,55
276,100,18280,2,0,L|208:80,1,55
168,96,18646,2,0,L|136:160,1,55
180,188,19012,6,0,P|192:244|240:284,1,110,2|0,0:0|0:0,0:0:0:0:
340,276,19743,2,0,P|328:220|280:180,1,110,8|0,0:0|0:0,0:0:0:0:
324,80,20475,2,0,L|448:120,2,110,2|0|8,0:0|0:0|0:0,0:0:0:0:
220,120,21572,1,0,0:0:0:0:
160,28,21938,6,0,P|128:64|120:144,1,110,2|0,0:0|0:0,0:0:0:0:
176,215,22670,2,0,P|208:179|216:99,1,110,8|0,0:0|0:0,0:0:0:0:
296,40,23402,2,0,L|412:64,2,110,2|0|8,0:0|0:0|0:0,0:0:0:0:
219,119,24499,1,0,0:0:0:0:
324,148,24865,6,0,L|400:164,1,55,2|0,0:0|0:0,0:0:0:0:
432,172,25231,2,0,P|452:204|444:276,1,110,0|8,0:0|0:0,0:0:0:0:
344,236,25963,2,0,B|240:288|228:295,1,110
148,332,26694,1,0,0:0:0:0:
104,300,26877,2,0,L|44:260,1,55,0|8,0:0|0:0,0:0:0:0:
56,160,27426,1,0,0:0:0:0:
164,140,27792,6,0,P|136:88|84:56,1,110,2|0,0:0|0:0,0:0:0:0:
48,92,28341,2,0,L|24:152,1,55,0|8,0:0|0:0,0:0:0:0:
104,224,28890,2,0,P|152:244|224:224,1,110,0|2,0:0|0:0,0:0:0:0:
308,280,29621,2,0,P|284:316|212:344,1,110,0|8,0:0|0:0,0:0:0:0:
115,331,30353,1,0,0:0:0:0:
53,240,30719,2,0,B|141:127|153:235|252:176,1,220,2|0,0:0|0:0,0:0:0:0:
426,28,32182,5,2,0:0:0:0:
464,249,33646,5,0,0:0:0:0:
208,300,35109,5,2,0:0:0:0:
256,80,36572,5,2,0:0:0:0:
342,147,36938,1,0,0:0:0:0:
342,147,37121,2,0,L|362:271,1,110,2|0,0:0|0:0,0:0:0:0:
168,292,38036,6,0,P|88:280|64:252,1,110,2|0,0:0|0:0,0:0:0:0:
68,206,38585,1,2,0:0:0:0:
308,68,39499,5,2,0:0:0:0:
384,148,39865,2,0,L|376:212,1,55,0|2,0:0|0:0,0:0:0:0:
104,196,40963,5,2,0:0:0:0:
84,88,41329,2,0,L|124:28,1,55,0|2,0:0|0:0,0:0:0:0:
442,226,42426,5,2,0:0:0:0:
335,203,42792,2,0,L|288:176,1,55
205,251,43341,2,0,L|251:279,1,55,0|2,0:0|0:0,0:0:0:0:
360,304,43890,6,0,P|304:376|280:380,1,110,2|0,0:0|0:0,0:0:0:0:
184,348,44621,1,0,0:0:0:0:
296,160,45353,6,0,P|340:116|392:108,1,110,2|0,0:0|0:0,0:0:0:0:
396,216,46085,1,0,0:0:0:0:
184,276,46816,6,0,P|144:228|140:160,1,110,2|0,0:0|0:0,0:0:0:0:
248,188,47548,2,0,P|288:236|292:304,1,110
216,360,48280,5,2,0:0:0:0:
112,328,48646,2,0,L|48:288,1,55,0|2,0:0|0:0,0:0:0:0:
40,192,49194,1,2,0:0:0:0:
136,60,49743,6,0,B|227:127|243:8|348:49,1,220,2|0,0:0|0:0,0:0:0:0:
452,92,50841,1,0,0:0:0:0:
388,180,51207,2,0,P|388:280|404:308,1,110,2|0,0:0|0:0,0:0:0:0:
280,276,51938,2,0,P|232:304|168:292,1,110
108,216,52670,5,2,0:0:0:0:
188,140,53036,2,0,L|259:161,1,55
335,98,53585,2,0,L|281:84,1,55
179,42,54133,1,0,0:0:0:0:
92,244,54865,2,0,B|204:300,1,110
300,294,55597,6,0,P|316:238|292:186,1,110,2|0,0:0|0:0,0:0:0:0:
204,132,56329,2,0,P|260:76|292:68,1,110
386,46,57060,2,0,P|405:97|403:152,1,110,2|0,0:0|0:0,0:0:0:0:
388,261,57792,1,0,0:0:0:0:
298,190,58158,1,0,0:0:0:0:
187,192,58524,6,0,P|163:116|175:72,1,110,2|0,0:0|0:0,0:0:0:0:
76,40,59255,2,0,L|52:148,1,110
84,252,59987,2,0,L|40:292,2,55,2|0|0,0:0|0:0|0:0,0:0:0:0:
187,289,60719,1,2,0:0:0:0:
288,248,61085,2,0,L|344:216,1,55
324,168,61451,6,0,P|316:120|272:64,1,110,2|0,0:0|0:0,0:0:0:0:
212,156,62182,2,0,P|148:152|96:156,1,110
164,244,62914,2,0,P|240:252|292:244,2,110,2|0|0,0:0|0:0|0:0,0:0:0:0:
88,324,64011,2,0,L|48:272,1,55
20,240,64377,6,0,L|32:116,1,110,2|0,0:0|0:0,0:0:0:0:
124,72,65109,1,0,0:0:0:0:
224,116,65475,2,0,P|288:120|328:100,1,110,0|2,0:0|0:0,0:0:0:0:
164,248,66572,1,2,0:0:0:0:
344,384,67304,6,0,B|324:352|360:324|360:324|316:304|288:244|325:185,1,220,4|8,0:0|0:0,0:0:0:0:
408,132,68402,1,0,0:0:0:0:
352,36,68768,2,0,P|312:12|236:12,1,110,2|0,0:0|0:0,0:0:0:0:
232,128,69499,2,0,P|272:152|348:152,1,110,8|0,0:0|0:0,0:0:0:0:
444,140,70231,6,0,L|392:256,1,110,2|0,0:0|0:0,0:0:0:0:
292,272,70963,1,8,0:0:0:0:
208,340,71329,2,0,L|160:388,1,55
128,340,71694,2,0,P|56:352|8:320,1,110,2|0,0:0|0:0,0:0:0:0:
12,228,72426,1,8,0:0:0:0:
67,129,72792,2,0,L|137:112,1,55
173,99,73158,6,0,P|225:87|293:111,1,110,2|0,0:0|0:0,0:0:0:0:
270,211,73890,1,8,0:0:0:0:
376,164,74255,2,0,L|424:124,1,55
388,84,74621,2,0,P|360:40|304:16,1,110,2|0,0:0|0:0,0:0:0:0:
212,72,75353,1,8,0:0:0:0:
104,48,75719,2,0,L|48:84,1,55
96,116,76085,6,0,L|84:240,1,110,2|0,0:0|0:0,0:0:0:0:
44,328,76816,2,0,L|96:356,1,55,8|0,0:0|0:0,0:0:0:0:
128,312,77182,2,0,P|180:292|248:292,1,110,0|2,0:0|0:0,0:0:0:0:
340,320,77914,1,0,0:0:0:0:
340,320,78280,2,0,P|380:256|396:216,1,110,8|0,0:0|0:0,0:0:0:0:
488,168,79011,6,0,P|448:132|380:120,1,110,2|0,0:0|0:0,0:0:0:0:
300,176,79743,2,0,P|247:163|206:126,1,110,8|0,0:0|0:0,0:0:0:0:
196,16,80475,1,0,0:0:0:0:
296,64,80841,1,2,0:0:0:0:
206,126,81207,2,0,L|158:230,1,110,8|0,0:0|0:0,0:0:0:0:
268,212,81938,6,0,B|244:272|244:272|244:328|324:352,1,165,2|0,0:0|0:0,0:0:0:0:
356,328,82670,1,8,0:0:0:0:
412,232,83036,2,0,L|428:180,1,55
376,160,83402,2,0,P|344:116|280:92,1,110,2|0,0:0|0:0,0:0:0:0:
208,164,84133,2,0,L|188:44,1,110,8|0,0:0|0:0,0:0:0:0:
104,124,84865,6,0,P|96:184|64:240,1,110,2|0,0:0|0:0,0:0:0:0:
128,324,85597,2,0,P|184:284|240:284,1,110,8|0,0:0|0:0,0:0:0:0:
328,316,86329,2,0,L|376:368,2,55,2|0|0,0:0|0:0|0:0,0:0:0:0:
340,264,86877,2,0,P|360:220|344:96,1,165
244,136,87792,6,0,P|216:96|148:64,1,110,2|0,0:0|0:0,0:0:0:0:
92,152,88524,2,0,P|120:192|188:224,1,110,8|0,0:0|0:0,0:0:0:0:
280,244,89255,2,0,L|244:372,1,110,2|0,0:0|0:0,0:0:0:0:
360,332,89987,2,0,L|389:226,1,110,8|0,0:0|0:0,0:0:0:0:
356,120,90719,5,4,0:0:0:0:
148,196,91451,1,0,0:0:0:0:
148,196,91816,6,0,P|201:186|254:199,1,110,0|2,0:0|0:0,0:0:0:0:
348,260,92548,2,0,L|384:144,1,110,0|8,0:0|0:0,0:0:0:0:
320,64,93280,1,0,0:0:0:0:
214,96,93646,2,0,P|156:94|95:119,1,110,2|0,0:0|0:0,0:0:0:0:
153,210,94377,2,0,P|155:283|171:331,1,110,8|0,0:0|0:0,0:0:0:0:
272,332,95109,6,0,L|324:352,1,55,2|0,0:0|0:0,0:0:0:0:
360,312,95475,2,0,L|420:276,1,55
372,240,95841,2,0,L|400:112,2,110,8|0|2,0:0|0:0|0:0,0:0:0:0:
261,237,96938,1,0,0:0:0:0:
156,224,97304,2,0,P|200:148|224:136,1,110,8|0,0:0|0:0,0:0:0:0:
313,85,98036,6,0,P|270:143|395:85,1,440,0|2,0:0|0:0,0:0:0:0:
76,111,100597,6,0,P|70:166|80:220,1,110,0|4,0:0|0:0,0:0:0:0:
