osu file format v14

[General]
AudioFilename: audio.mp3
AudioLeadIn: 0
PreviewTime: 32002
Countdown: 0
SampleSet: Soft
StackLeniency: 0.7
Mode: 0
LetterboxInBreaks: 0
WidescreenStoryboard: 1

[Editor]
Bookmarks: 30028
DistanceSpacing: 1.6
BeatDivisor: 8
GridSize: 4
TimelineZoom: 2

[Metadata]
Title:in fact
TitleUnicode:in fact
Artist:Tachibana Arisu (CV: Satou Amina)
ArtistUnicode:橘ありす (CV: 佐藤亜美菜)
Creator:S o a p
Version:Insane
Source:アイドルマスターシンデレラガールズ
Tags:佐藤亜美菜 satou amina the idolmaster idolm@ster cinderella girls Suzuki_1112 1112deng s_o_a_p
BeatmapID:1389087
BeatmapSetID:655495

[Difficulty]
HPDrainRate:7
CircleSize:5
OverallDifficulty:7.5
ApproachRate:8
SliderMultiplier:3.2
SliderTickRate:1

[Events]
//Background and Video events
0,0,"1.jpg",0,0
//Break Periods
//Storyboard Layer 0 (Background)
//Storyboard Layer 1 (Fail)
//Storyboard Layer 2 (Pass)
//Storyboard Layer 3 (Foreground)
//Storyboard Sound Samples

[TimingPoints]
2917,731.707317073171,4,2,1,75,1,0
4380,-133.333333333333,4,2,1,34,0,0
8770,-133.333333333333,4,2,1,20,0,0
8953,-133.333333333333,4,2,1,40,0,0
10234,738.461538461538,4,2,1,75,1,0
10234,-133.333333333333,4,2,1,75,0,0
10603,736.196319018405,4,2,1,75,1,0
10971,747.663551401869,4,2,1,75,1,0
13213,745.341614906832,4,2,1,75,1,0
13213,-133.333333333333,4,2,1,75,0,0
13958,731.707317073171,4,2,1,75,1,0
13958,-153.846153846153,4,2,1,75,0,0
14666,731.707317073171,4,2,1,75,1,0
14666,-166.666666666667,4,2,1,75,0,0
15397,774.193548387097,4,2,1,75,1,0
15397,-200,4,2,1,75,0,0
15995,731.707317073171,4,2,1,75,1,0
16177,731.707317073171,4,2,1,75,1,0
17551,-100,4,2,1,18,0,0
17642,-100,4,2,1,57,0,0
17914,731.707317073171,4,2,1,57,1,0
18280,-100,4,2,1,66,0,0
19012,731.707317073171,4,2,1,75,1,0
19012,-100,4,2,1,75,0,0
27060,-100,4,2,1,66,0,0
29347,-100,4,2,1,22,0,0
29621,-100,4,2,1,66,0,0
29713,-100,4,2,1,23,0,0
29987,-100,4,2,1,65,0,0
31725,-100,4,2,1,24,0,0
32182,-133.333333333333,4,2,1,30,0,0
43890,-133.333333333333,4,2,1,40,0,0
55597,-133.333333333333,4,2,1,31,0,0
55688,-133.333333333333,4,2,1,49,0,0
64377,-133.333333333333,4,2,1,30,0,0
66572,-133.333333333333,4,2,1,54,0,0
67304,-100,4,2,1,54,0,1
67487,-100,4,2,1,54,0,0
92182,-100,4,2,1,47,0,0
100597,-133.333333333333,4,2,1,31,0,0
100963,-133.333333333333,4,2,1,21,0,0

[Colours]
Combo1 : 133,194,197
Combo2 : 204,147,147
Combo3 : 130,119,230

[HitObjects]
96,192,4380,5,0,0:0:0:0:
160,272,4746,2,0,B|208:244|224:248|224:248|248:268|296:272,1,120.000004577637,2|0,0:0|0:0,0:0:0:0:
368,88,5477,1,0,0:0:0:0:
421,178,5843,6,0,B|445:254|419:312,1,120.000004577637,2|0,0:0|0:0,0:0:0:0:
265,174,6575,2,0,P|256:132|262:51,1,120.000004577637
360,216,7307,6,0,P|296:276|248:272,2,120.000004577637,2|0|2,0:0|0:0|0:0,0:0:0:0:
262,114,8404,2,0,P|266:166|258:194,1,60.0000022888184
180,212,8770,6,0,P|164:164|176:96,1,120.000004577637,4|0,0:0|0:0,0:0:0:0:
312,44,9502,1,2,0:0:0:0:
328,200,9685,1,0,0:0:0:0:
376,112,9868,1,2,0:0:0:0:
232,80,10051,1,0,0:0:0:0:
424,200,10234,6,0,P|408:252|336:304,1,120.000004577637,2|0,0:0|0:0,0:0:0:0:
180,304,10971,6,0,P|196:252|284:184,1,160,2|0,0:0|0:0,0:0:0:0:
342,261,11718,6,0,P|330:319|248:368,1,160,2|0,0:0|0:0,0:0:0:0:
156,212,12466,2,0,P|156:164|188:120,1,80
408,88,12840,1,2,0:0:0:0:
428,196,13027,1,0,0:0:0:0:
268,151,13213,6,0,P|272:92|312:40,1,120.000004577637,4|0,0:0|0:0,0:0:0:0:
190,174,13958,6,0,P|179:123|192:64,1,103.999995239258,2|0,0:0|0:0,0:0:0:0:
125,244,14666,6,0,P|96:208|96:140,1,95.9999970703126
134,333,15397,6,0,P|94:331|56:300,1,80,2|0,0:0|0:0,0:0:0:0:
304,104,15995,6,0,L|320:152,2,40,2|0|0,0:0|0:0|0:0,0:0:0:0:
256,192,16268,12,0,17640,0:0:0:0:
125,224,17914,5,0,0:0:0:0:
171,281,18097,1,0,0:0:0:0:
246,304,18280,1,2,0:0:0:0:
318,286,18463,1,0,0:0:0:0:
370,235,18646,1,2,0:0:0:0:
376,148,18829,1,0,0:0:0:0:
388,152,18920,1,0,0:0:0:0:
396,160,19012,6,0,L|368:244,1,80,12|0,0:3|0:0,0:0:0:0:
272,132,19377,2,0,L|304:52,1,80,2|0,0:0|0:0,0:0:0:0:
464,152,19743,1,8,0:0:0:0:
320,268,19926,1,0,0:0:0:0:
368,120,20109,2,0,L|408:20,1,80,2|0,0:0|0:0,0:0:0:0:
424,224,20475,5,8,0:3:0:0:
260,168,20658,2,0,P|204:156|156:160,1,80,0|8,0:0|0:3,0:0:0:0:
92,220,21024,1,2,0:0:0:0:
216,256,21207,2,0,P|232:312|228:360,1,80,8|8,0:0|0:3,0:0:0:0:
32,292,21572,1,2,0:0:0:0:
124,356,21755,1,0,0:0:0:0:
92,220,21938,6,0,L|44:64,1,160,8|0,0:3|0:0,0:0:0:0:
44,67,22487,1,0,0:0:0:0:
148,112,22670,1,8,0:0:0:0:
248,44,22853,1,0,0:0:0:0:
336,108,23036,2,0,P|384:116|428:136,1,80,2|0,0:0|0:0,0:0:0:0:
340,320,23402,5,8,0:3:0:0:
296,196,23585,2,0,P|256:164|240:136,1,80,0|8,0:0|3:0,0:0:0:0:
266,291,23951,2,0,P|305:300|340:320,1,80,2|8,0:0|0:3,0:0:0:0:
132,312,24316,1,8,0:3:0:0:
266,292,24499,1,2,0:0:0:0:
132,312,24682,1,0,0:0:0:0:
266,292,24865,6,0,L|290:208,1,80,8|0,0:3|0:0,0:0:0:0:
104,152,25231,1,2,0:0:0:0:
228,128,25414,2,0,L|252:44,1,80,0|8,0:0|0:0,0:0:0:0:
172,216,25780,1,0,0:0:0:0:
312,196,25963,2,0,L|340:116,1,80,2|8,0:0|0:3,0:0:0:0:
148,48,26329,5,8,0:3:0:0:
68,120,26511,2,0,P|72:176|80:216,1,80,2|8,0:0|0:3,0:0:0:0:
312,196,26877,1,0,0:0:0:0:
184,144,27060,2,0,B|184:208|200:264|200:264|240:312,1,160,2|8,0:0|0:3,0:0:0:0:
360,112,27609,1,0,0:0:0:0:
320,76,27701,1,0,0:0:0:0:
272,48,27792,6,0,P|204:32|180:24,1,80,8|0,0:3|0:0,0:0:0:0:
176,120,28158,1,10,0:3:0:0:
96,56,28341,1,0,0:0:0:0:
192,200,28524,2,0,P|208:268|212:292,1,80,8|0,0:0|0:0,0:0:0:0:
324,216,28890,1,10,0:3:0:0:
168,116,29072,1,0,0:0:0:0:
124,296,29255,6,0,L|144:332,1,40,10|0,2:3|0:0,0:0:0:0:
304,116,29621,2,0,L|315:77,1,40,10|0,0:3|0:0,0:0:0:0:
144,216,29987,1,2,0:0:0:0:
256,192,30079,12,0,31816,0:0:0:0:
148,61,32182,5,2,0:0:0:0:
350,157,33646,5,2,0:0:0:0:
159,280,35109,5,2,0:0:0:0:
124,180,36572,1,2,0:0:0:0:
248,120,36938,2,0,L|228:184,1,60.0000022888184,2|0,0:0|0:0,0:0:0:0:
160,280,37487,1,2,0:0:0:0:
160,280,38036,5,2,0:0:0:0:
360,208,38402,1,0,0:0:0:0:
352,296,38585,1,2,0:0:0:0:
176,188,39499,1,2,0:0:0:0:
176,96,39865,2,0,L|200:28,1,60.0000022888184,0|2,0:0|0:0,0:0:0:0:
388,168,40963,5,2,0:0:0:0:
296,220,41329,2,0,L|240:196,1,60.0000022888184,0|2,0:0|0:0,0:0:0:0:
140,260,42426,5,2,0:0:0:0:
72,176,42792,2,0,L|56:108,1,60.0000022888184,0|2,0:0|0:0,0:0:0:0:
186,222,43341,2,0,L|140:260,1,60.0000022888184,0|2,0:0|0:0,0:0:0:0:
204,324,43890,6,0,L|457:305,1,240.000009155274,2|0,0:0|0:0,0:0:0:0:
104,168,45353,2,0,P|196:136|164:248,1,240.000009155274
256,92,46816,1,2,0:0:0:0:
256,92,47548,5,0,0:0:0:0:
128,48,48280,1,2,0:0:0:0:
60,132,48646,2,0,L|80:196,1,60.0000022888184,0|2,0:0|0:0,0:0:0:0:
308,76,49194,5,2,0:0:0:0:
308,76,49743,2,0,P|348:144|252:112,1,240.000009155274,2|0,0:0|0:0,0:0:0:0:
250,117,51207,1,2,0:0:0:0:
250,117,51938,1,0,0:0:0:0:
250,117,52670,1,0,0:0:0:0:
164,312,53036,6,0,P|208:336|288:308,1,120.000004577637,2|0,0:0|0:0,0:0:0:0:
232,240,53585,1,0,0:0:0:0:
328,244,53768,1,2,0:0:0:0:
376,84,54133,6,0,P|342:147|296:169,1,120.000004577637,2|0,0:0|0:0,0:0:0:0:
184,128,54865,1,0,0:0:0:0:
272,304,55597,2,0,P|332:288|404:300,1,120.000004577637,4|0,0:0|0:0,0:0:0:0:
464,232,56146,1,2,0:0:0:0:
396,120,56329,6,0,L|364:200,1,60.0000022888184,8|0,0:0|0:0,0:0:0:0:
260,212,56694,2,0,P|212:192|164:136,1,120.000004577637,2|0,0:0|0:0,0:0:0:0:
264,116,57243,1,0,0:0:0:0:
174,273,57426,2,0,L|190:345,1,60.0000022888184,2|0,0:0|0:0,0:0:0:0:
188,332,57792,5,8,0:0:0:0:
275,176,58158,2,0,P|259:120|267:48,1,120.000004577637,2|2,0:0|0:0,0:0:0:0:
398,102,58890,2,0,P|414:158|406:230,1,120.000004577637,0|8,0:0|0:0,0:0:0:0:
314,319,59621,1,0,0:0:0:0:
191,158,59987,1,2,0:0:0:0:
180,252,60170,2,0,L|240:280,1,60.0000022888184,0|2,0:0|0:0,0:0:0:0:
389,118,60719,5,8,0:0:0:0:
304,176,61268,1,0,0:0:0:0:
304,176,61359,1,0,0:0:0:0:
304,176,61451,2,0,L|292:256,1,60.0000022888184,2|0,0:0|0:0,0:0:0:0:
168,340,61816,2,0,L|188:256,1,60.0000022888184,2|0,0:0|0:0,0:0:0:0:
84,224,62182,1,8,0:0:0:0:
216,48,62548,6,0,L|260:100,1,60.0000022888184,2|0,0:0|0:0,0:0:0:0:
192,224,62914,2,0,L|204:144,1,60.0000022888184
328,36,63280,1,2,0:0:0:0:
292,184,63463,1,0,0:0:0:0:
114,90,63646,6,0,P|162:48|221:49,1,120.000004577637,8|0,0:0|0:0,0:0:0:0:
297,190,64194,1,0,0:0:0:0:
297,190,64286,1,0,0:0:0:0:
297,190,64377,1,4,0:0:0:0:
256,276,65475,6,0,P|268:248|275:207,1,60.0000022888184,2|0,0:0|0:0,0:0:0:0:
256,276,65841,1,10,0:0:0:0:
116,176,66572,6,0,P|136:120|120:48,1,120.000004577637,0|2,0:0|0:0,0:0:0:0:
20,112,67121,1,0,0:0:0:0:
80,272,67304,6,0,L|236:232,1,160,4|2,0:0|0:0,0:0:0:0:
288,128,67853,1,0,0:0:0:0:
320,240,68036,2,0,P|312:308|304:336,1,80,8|0,0:0|0:0,0:0:0:0:
412,280,68402,2,0,B|436:208|416:116,1,160,0|2,0:0|0:0,0:0:0:0:
220,112,69133,6,0,P|180:164|164:168,1,80
160,264,69499,2,0,P|84:212|80:128,1,160,8|0,0:0|0:0,0:0:0:0:
256,232,70048,1,0,0:0:0:0:
220,328,70231,2,0,B|124:380|128:312|44:336,1,160,2|0,0:0|0:0,0:0:0:0:
256,232,70780,2,0,P|276:252|328:268,1,80,2|8,0:0|0:0,0:0:0:0:
320,64,71329,1,2,0:0:0:0:
344,160,71511,1,0,0:0:0:0:
256,200,71694,6,0,P|280:232|288:288,1,80,2|0,0:0|0:0,0:0:0:0:
160,340,72060,2,0,P|180:292|208:268,1,80
272,356,72426,1,8,0:0:0:0:
128,224,72792,2,0,P|160:168|164:144,1,80,2|0,0:0|0:0,0:0:0:0:
132,64,73158,5,2,0:0:0:0:
256,200,73341,1,0,0:0:0:0:
296,37,73524,2,0,P|270:66|256:104,1,80
243,295,73890,2,0,P|318:284|347:213,1,160,8|0,0:0|0:0,0:0:0:0:
464,180,74438,1,0,0:0:0:0:
256,200,74621,5,2,0:0:0:0:
356,355,74804,2,0,L|428:320,1,80
485,201,75170,2,0,L|412:232,1,80,2|8,0:0|0:0,0:0:0:0:
408,128,75536,1,0,0:0:0:0:
312,188,75719,1,2,0:0:0:0:
312,88,75902,1,0,0:0:0:0:
312,188,76085,6,0,L|240:224,1,80,2|0,0:0|0:0,0:0:0:0:
176,148,76451,1,2,0:0:0:0:
80,136,76633,1,0,0:0:0:0:
288,40,76816,2,0,P|280:128|311:181,1,120,8|0,0:0|0:0,0:0:0:0:
396,100,77274,1,0,0:0:0:0:
227,208,77548,6,0,P|236:272|192:359,1,160,2|0,0:0|0:0,0:0:0:0:
133,266,78097,1,2,0:0:0:0:
227,208,78280,1,8,0:0:0:0:
314,297,78463,2,0,P|350:273|350:144,1,160
172,124,79011,6,0,P|224:199|294:209,1,160,2|0,0:0|0:0,0:0:0:0:
288,85,79560,1,0,0:0:0:0:
390,135,79743,2,0,L|426:213,1,80,8|0,0:0|0:0,0:0:0:0:
357,305,80109,6,0,P|265:283|185:292,1,160,2|2,0:0|0:0,0:0:0:0:
176,176,80658,1,0,0:0:0:0:
95,252,80841,2,0,L|38:194,1,80
176,176,81207,2,0,B|260:216|256:156|344:192,1,160,8|0,0:0|0:0,0:0:0:0:
228,92,81755,1,0,0:0:0:0:
294,267,81938,6,0,P|371:275|420:216,1,160,2|0,0:0|0:0,0:0:0:0:
304,120,82487,2,0,P|272:80|272:36,1,80,0|8,0:0|0:0,0:0:0:0:
480,96,83036,1,0,0:0:0:0:
392,44,83219,1,0,0:0:0:0:
476,192,83402,6,0,L|416:244,1,80,2|0,0:0|0:0,0:0:0:0:
260,164,83768,2,0,L|192:220,1,80
272,300,84133,1,8,0:0:0:0:
272,300,84499,1,0,0:0:0:0:
388,252,84682,1,0,0:0:0:0:
272,300,84865,6,0,P|160:284|100:252,1,160,2|0,0:0|0:0,0:0:0:0:
56,172,85414,1,0,0:0:0:0:
128,64,85597,2,0,P|180:92|172:188,1,160,8|0,0:0|0:0,0:0:0:0:
56,172,86146,1,0,0:0:0:0:
118,264,86329,6,0,L|170:272,2,40,2|0|0,0:0|0:0|0:0,0:0:0:0:
120,136,86694,1,2,0:0:0:0:
40,320,86877,1,0,0:0:0:0:
176,348,87060,2,0,P|216:312|196:208,1,160,8|0,0:0|0:0,0:0:0:0:
192,112,87609,1,0,0:0:0:0:
280,152,87792,6,0,P|320:192|416:180,1,160,2|0,0:0|0:0,0:0:0:0:
298,71,88341,1,0,0:0:0:0:
322,233,88524,2,0,P|358:193|342:109,2,120,8|0|0,0:0|0:0|0:0,0:0:0:0:
424,220,89255,6,0,P|372:164|272:164,1,160,2|0,0:0|0:0,0:0:0:0:
384,308,89804,1,0,0:0:0:0:
444,132,89987,2,0,P|372:152|340:252,1,160,8|0,0:0|0:0,0:0:0:0:
228,336,90536,1,2,0:0:0:0:
228,336,90627,1,0,0:0:0:0:
228,336,90719,6,0,L|188:168,1,160,2|0,0:0|0:0,0:0:0:0:
90,332,91451,1,0,0:0:0:0:
170,268,91816,2,0,B|214:268|246:248,1,80
371,178,92182,6,0,P|424:108|436:65,2,120,2|0|0,0:0|0:0|0:0,0:0:0:0:
165,144,92914,1,8,0:0:0:0:
200,244,93097,2,0,L|284:268,2,80,2|0|0,0:0|0:0|0:0,0:0:0:0:
376,192,93646,6,0,P|284:176|240:160,2,120,2|0|0,0:0|0:0|0:0,0:0:0:0:
460,136,94377,2,0,P|484:180|404:280,1,160,2|0,0:0|0:0,0:0:0:0:
216,216,94926,1,0,0:0:0:0:
363,233,95109,6,0,P|376:192|384:148,1,80,2|0,0:0|0:0,0:0:0:0:
236,138,95475,2,0,P|223:179|215:223,1,80,2|0,0:0|0:0,0:0:0:0:
312,280,95841,1,8,0:0:0:0:
116,248,96024,1,0,0:0:0:0:
192,364,96207,1,0,0:0:0:0:
215,215,96390,1,0,0:0:0:0:
144,60,96572,6,0,B|112:52|72:72|40:104|52:180,1,160,2|0,0:0|0:0,0:0:0:0:
156,156,97121,1,0,0:0:0:0:
208,240,97304,2,0,P|280:212|360:172,1,160,2|0,0:0|0:0,0:0:0:0:
256,192,97761,12,0,99499,0:0:0:0:
244,248,100597,6,0,B|252:224|236:208|236:208|264:160|240:116,1,120.000004577637,0|4,0:0|0:0,0:0:0:0:
