osu file format v14

[General]
AudioFilename: audio.mp3
AudioLeadIn: 0
PreviewTime: 56539
Countdown: 0
SampleSet: Soft
StackLeniency: 0.4
Mode: 0
LetterboxInBreaks: 0
WidescreenStoryboard: 0

[Editor]
DistanceSpacing: 0.8
BeatDivisor: 4
GridSize: 32
TimelineZoom: 2.3

[Metadata]
Title:Yorimichi Little Star Tachibana Arisu Solo Remix
TitleUnicode:よりみちリトルスター 橘ありすソロ・リミックス
Artist:Tachibana Arisu (CV: Satou Amina)
ArtistUnicode:橘ありす (CV: 佐藤亜美菜)
Creator:_kotachi_
Version:Starry Sky Tachibana
Source:アイドルマスター シンデレラガールズ U149
Tags:the idolm@ster imas idolmaster im@s cinderella girls u149 anime ending ed japanese pop jpop j-pop idol project Sato Ayesha Altugle Shikibe Mayu Kazato Asa Shizuku Brethia
BeatmapID:4562776
BeatmapSetID:2163458

[Difficulty]
HPDrainRate:5
CircleSize:3.8
OverallDifficulty:8.7
ApproachRate:9.3
SliderMultiplier:1.76
SliderTickRate:1

[Events]
//Background and Video events
0,0,"akfgoaiopj.jpg",0,0
//Break Periods
//Storyboard Layer 0 (Background)
//Storyboard Layer 1 (Fail)
//Storyboard Layer 2 (Pass)
//Storyboard Layer 3 (Foreground)
//Storyboard Layer 4 (Overlay)
//Storyboard Sound Samples

[TimingPoints]
736,317.460317460317,4,2,1,50,1,0
736,-133.333333333333,4,2,1,50,0,0
5815,-200,4,2,1,50,0,0
7085,-166.666666666667,4,2,1,50,0,0
7878,-100,4,2,1,70,0,0
9466,-100,4,2,2,70,0,0
9783,-100,4,2,1,70,0,0
12005,-100,4,2,2,70,0,0
12323,-100,4,2,1,70,0,0
13434,-90.9090909090909,4,2,2,70,0,0
13751,-90.9090909090909,4,2,1,70,0,0
14386,-90.9090909090909,4,2,2,70,0,0
14545,-90.9090909090909,4,2,1,70,0,0
15497,-90.9090909090909,4,2,1,50,0,0
15656,-90.9090909090909,4,2,2,70,0,0
15974,-111.111111111111,4,2,1,60,0,0
17878,-111.111111111111,4,2,22,60,0,0
18037,-111.111111111111,4,2,1,60,0,0
25101,-111.111111111111,4,2,1,5,0,0
25180,-111.111111111111,4,2,1,60,0,0
26132,-111.111111111111,4,2,2,60,0,0
26450,-111.111111111111,4,2,1,60,0,0
31847,-111.111111111111,4,2,22,60,0,0
32005,-111.111111111111,4,2,1,60,0,0
33751,-90.9090909090908,4,2,1,70,0,0
34862,-90.9090909090908,4,2,2,70,0,0
35180,-90.9090909090908,4,2,1,70,0,0
36291,-133.333333333333,4,2,1,60,0,0
42561,-133.333333333333,4,2,1,5,0,0
42640,-133.333333333333,4,2,1,60,0,0
44704,-133.333333333333,4,2,22,60,0,0
44862,-133.333333333333,4,2,1,60,0,0
50180,-133.333333333333,4,2,1,5,0,0
50259,-133.333333333333,4,2,1,60,0,0
51053,-133.333333333333,4,2,22,60,0,0
51212,-133.333333333333,4,2,1,60,0,0
52482,-111.111111111111,4,2,1,60,0,0
54069,-270.27027027027,4,2,1,60,0,0
55339,-200,4,2,1,40,0,0
56609,-303.030303030303,4,2,1,70,0,0
57243,-166.666666666667,4,2,2,70,0,0
57878,-100,4,2,1,70,0,0
58513,-100,4,2,2,70,0,0
59148,-95.2380952380952,4,2,1,75,0,1
59386,-95.2380952380952,4,2,1,5,0,1
59466,-95.2380952380952,4,2,1,75,0,1
64466,-95.2380952380952,4,2,1,5,0,1
64545,-95.2380952380952,4,2,1,75,0,1
66291,-95.2380952380952,4,2,22,75,0,1
66370,-95.2380952380952,4,2,1,5,0,1
66450,-95.2380952380952,4,2,1,75,0,1
69545,-95.2380952380952,4,2,1,5,0,1
69624,-95.2380952380952,4,2,1,75,0,1
73355,-95.2380952380952,4,2,1,5,0,1
73434,-95.2380952380952,4,2,1,75,0,1
77561,-95.2380952380952,4,2,2,75,0,1
77720,-95.2380952380952,4,2,1,75,0,1
78196,-95.2380952380952,4,2,2,75,0,1
79466,-95.2380952380952,4,2,1,75,0,1
81291,-95.2380952380952,4,2,1,5,0,1
81370,-95.2380952380952,4,2,1,75,0,1
84783,-95.2380952380952,4,2,1,5,0,1
84862,-95.2380952380952,4,2,1,75,0,1
86609,-95.2380952380952,4,2,22,75,0,1
86688,-95.2380952380952,4,2,1,5,0,1
86767,-95.2380952380952,4,2,1,75,0,1
88196,-86.9565217391304,4,2,2,75,0,1
88513,-86.9565217391304,4,2,1,75,0,1
89624,-95.2380952380952,4,2,1,75,0,1
89862,-95.2380952380952,4,2,1,5,0,1
89942,-95.2380952380952,4,2,1,75,0,1
91132,-95.2380952380952,4,2,1,5,0,1
91212,-95.2380952380952,4,2,1,75,0,1
93275,-95.2380952380952,4,2,2,75,0,1
93593,-95.2380952380952,4,2,1,75,0,1
95974,-95.2380952380952,4,2,2,75,0,1
96291,-95.2380952380952,4,2,1,75,0,1
98355,-200,4,2,2,75,0,1
99148,-200,4,2,1,60,0,1
99783,-200,4,2,1,75,0,1
102005,-200,4,2,1,50,0,1
102323,-133.333333333333,4,2,1,50,0,0
107402,-133.333333333333,4,2,1,55,0,0
107720,-100,4,2,1,65,0,0
108513,-100,4,2,1,70,0,0
109942,-105.263157894737,4,2,1,65,0,0
116926,-105.263157894737,4,2,22,65,0,0
117085,-105.263157894737,4,2,1,65,0,0
123275,-105.263157894737,4,2,22,65,0,0
123434,-105.263157894737,4,2,1,65,0,0
125180,-133.333333333333,4,2,1,65,0,0
125815,-117.647058823529,4,2,1,65,0,0
126450,-105.263157894737,4,2,1,65,0,0
127085,-95.2380952380951,4,2,1,65,0,0
128037,-105.263157894737,4,2,1,65,0,0
128831,-105.263157894737,4,2,2,65,0,0
129466,-105.263157894737,4,2,1,65,0,0
137243,-105.263157894737,4,2,22,65,0,0
137402,-105.263157894737,4,2,1,65,0,0
139148,-111.111111111111,4,2,1,65,0,0
139783,-100,4,2,1,65,0,0
140418,-105.263157894737,4,2,1,65,0,0
143434,-105.263157894737,4,2,2,65,0,0
143751,-95.2380952380954,4,2,1,65,0,0
143910,-95.2380952380954,4,2,2,65,0,0
144228,-105.263157894737,4,2,1,65,0,0
150577,-100,4,2,1,70,0,0
151688,-100,4,2,2,70,0,0
152005,-100,4,2,1,70,0,0
154228,-133.333333333333,4,2,1,70,0,0
155656,-166.666666666667,4,2,1,50,0,0
164545,-100,4,2,1,70,0,0
165180,-100,4,2,2,70,0,0
165339,-100,4,2,1,70,0,0
165815,-111.111111111111,4,2,1,60,0,0
166370,-111.111111111111,4,2,1,5,0,0
166450,-111.111111111111,4,2,1,60,0,0
170259,-111.111111111111,4,2,22,60,0,0
170418,-111.111111111111,4,2,1,60,0,0
171529,-111.111111111111,4,2,22,60,0,0
171688,-111.111111111111,4,2,1,60,0,0
173434,-90.9090909090909,4,2,1,70,0,0
174545,-90.9090909090909,4,2,2,70,0,0
174783,-90.9090909090909,4,2,1,5,0,0
174862,-90.9090909090909,4,2,1,70,0,0
175974,-111.111111111111,4,2,1,65,0,0
182958,-100,4,2,1,65,0,0
183593,-111.111111111111,4,2,1,65,0,0
188196,-111.111111111111,4,2,22,65,0,0
188355,-111.111111111111,4,2,1,65,0,0
193751,-95.2380952380952,4,2,1,70,0,0
196926,-95.2380952380952,4,2,2,70,0,0
197085,-95.2380952380952,4,2,1,70,0,0
205418,-95.2380952380952,4,2,1,5,0,0
205497,-95.2380952380952,4,2,1,70,0,0
209228,-95.2380952380952,4,2,1,5,0,0
209307,-95.2380952380952,4,2,1,70,0,0
210815,-95.2380952380952,4,2,1,5,0,0
210894,-95.2380952380952,4,2,1,70,0,0
211688,-95.2380952380952,4,2,22,70,0,0
211847,-95.2380952380952,4,2,1,70,0,0
214069,-95.2380952380952,4,2,2,70,0,0
214228,-95.2380952380952,4,2,1,70,0,0
215339,-95.2380952380952,4,2,1,70,0,0
215418,-95.2380952380952,4,2,1,5,0,0
215497,-95.2380952380952,4,2,1,70,0,0
215577,-95.2380952380952,4,2,1,5,0,0
215656,-95.2380952380952,4,2,1,70,0,0
215735,-95.2380952380952,4,2,1,5,0,0
215815,-95.2380952380952,4,2,1,70,0,0
217085,-95.2380952380952,4,2,2,70,0,0
217243,-95.2380952380952,4,2,1,70,0,0
218037,-95.2380952380952,4,2,2,70,0,0
218196,-95.2380952380952,4,2,1,70,0,0
219148,-95.2380952380952,4,2,2,70,0,0
219307,-95.2380952380952,4,2,1,70,0,0
219624,-95.2380952380952,4,2,2,70,0,0
219783,-95.2380952380952,4,2,1,70,0,0
221688,-111.111111111111,4,2,1,70,0,0
223275,-200,4,2,1,50,0,0
224069,-200,4,2,1,60,0,0
224228,-133.333333333333,4,2,1,70,0,0
225656,-200,4,2,1,70,0,0
226767,-133.333333333333,4,2,1,70,0,0
228196,-200,4,2,1,60,0,0
229307,-100,4,2,2,70,0,0
229466,-100,4,2,1,70,0,0
229783,-100,4,2,2,70,0,0
229942,-100,4,2,1,70,0,0
230418,-90.9090909090909,4,2,1,70,0,0
231847,-95.2380952380952,4,2,1,75,0,1
232085,-95.2380952380952,4,2,1,5,0,1
232164,-95.2380952380952,4,2,1,75,0,1
235894,-95.2380952380952,4,2,1,5,0,1
235974,-95.2380952380952,4,2,1,75,0,1
240101,-95.2380952380952,4,2,2,75,0,1
240259,-95.2380952380952,4,2,1,75,0,1
241370,-95.2380952380952,4,2,2,75,0,1
241450,-95.2380952380952,4,2,1,75,0,1
243831,-95.2380952380952,4,2,1,5,0,1
243910,-95.2380952380952,4,2,1,75,0,1
247323,-95.2380952380952,4,2,1,5,0,1
247402,-95.2380952380952,4,2,1,75,0,1
250735,-86.9565217391304,4,2,2,75,0,1
251053,-86.9565217391304,4,2,1,75,0,1
252164,-95.2380952380952,4,2,1,70,0,1
252402,-95.2380952380952,4,2,1,5,0,1
252482,-95.2380952380952,4,2,1,70,0,1
255815,-95.2380952380952,4,2,2,70,0,1
256132,-95.2380952380952,4,2,1,70,0,1
258513,-95.2380952380952,4,2,2,70,0,1
258831,-95.2380952380952,4,2,1,70,0,1
264069,-95.2380952380952,4,2,2,70,0,1
264386,-95.2380952380952,4,2,1,70,0,1
265974,-95.2380952380952,4,2,1,70,0,0
266053,-95.2380952380952,4,2,1,5,0,0
269466,-95.2380952380952,4,2,1,50,0,0
269942,-100,4,2,1,70,0,0
271053,-100,4,2,2,70,0,0
271370,-100,4,2,1,70,0,0
273593,-100,4,2,2,70,0,0
273910,-100,4,2,1,70,0,0
275021,-90.9090909090909,4,2,1,70,0,0
275497,-90.9090909090909,4,2,2,70,0,0
275735,-90.9090909090909,4,2,2,5,0,0
275815,-90.9090909090909,4,2,1,70,0,0
276291,-90.9090909090909,4,2,1,70,0,0
276370,-90.9090909090909,4,2,1,5,0,0
276450,-90.9090909090909,4,2,1,70,0,0
276529,-90.9090909090909,4,2,1,5,0,0
276609,-90.9090909090909,4,2,1,70,0,0
276688,-90.9090909090909,4,2,1,5,0,0
276767,-90.9090909090909,4,2,2,70,0,0
277085,-90.9090909090909,4,2,1,70,0,0
277243,-111.111111111111,4,2,1,70,0,0
277561,-140.845070422535,4,2,1,70,0,0
283196,-135.135135135135,4,2,1,5,0,0

[Colours]
Combo1 : 255,153,204
Combo2 : 137,201,152
Combo3 : 111,175,255
Combo4 : 203,151,255

[HitObjects]
217,216,736,6,0,P|151:205|88:188,1,132.000005035401,2|0,0:0|0:0,0:0:0:0:
20,222,1212,2,0,P|49:207|81:200,1,66.0000025177003,0|2,0:0|0:0,0:0:0:0:
161,286,1529,5,2,0:0:0:0:
217,216,1688,5,2,0:0:0:0:
200,121,1847,5,2,0:0:0:0:
125,44,2005,6,0,P|112:74|103:106,1,66.0000025177003,2|0,0:0|0:0,0:0:0:0:
229,221,2323,2,0,P|241:251|250:283,1,66.0000025177003
148,375,2640,5,2,0:0:0:0:
161,286,2799,5,2,0:0:0:0:
229,208,2958,5,2,0:0:0:0:
331,206,3116,5,2,0:0:0:0:
422,262,3275,6,0,P|457:207|458:142,1,132.000005035401,2|0,0:0|0:0,0:0:0:0:
352,62,3751,2,0,P|364:94|372:127,1,66.0000025177003,2|0,0:0|0:0,0:0:0:0:
336,299,4069,1,2,0:0:0:0:
331,206,4228,1,2,0:0:0:0:
410,254,4386,1,0,0:0:0:0:
492,249,4545,2,0,P|461:243|427:235,1,66.0000025177003,2|0,0:0|0:0,0:0:0:0:
255,256,4862,5,0,0:0:0:0:
177,292,5021,5,0,0:0:0:0:
146,377,5180,5,2,0:0:0:0:
198,298,5339,5,2,0:0:0:0:
181,200,5497,5,0,0:0:0:0:
108,153,5656,5,0,0:0:0:0:
26,145,5815,6,0,L|115:164,1,88,2|2,0:0|0:0,0:0:0:0:
476,248,6450,6,0,L|389:266,1,88,2|2,0:0|0:0,0:0:0:0:
242,378,7085,6,0,B|220:254|295:298|268:174,1,211.199993554688,2|2,0:0|0:0,0:0:0:0:
196,88,7878,1,8,0:1:0:0:
268,175,8037,5,14,0:0:0:0:
300,184,8116,1,2,0:0:0:0:
332,181,8195,1,2,0:0:0:0:
361,165,8275,1,2,0:0:0:0:
381,139,8355,6,0,P|368:91|352:44,1,88,12|0,0:1|0:0,0:0:0:0:
352,301,8672,2,0,P|395:310|437:322,1,88,8|0,0:0|0:0,0:0:0:0:
496,249,8989,1,8,0:1:0:0:
358,334,9148,1,8,0:1:0:0:
268,273,9307,1,8,0:0:0:0:
203,363,9466,6,0,P|134:348|29:331,1,176,12|8,0:1|0:1,0:0:0:0:
183,238,9942,1,8,0:0:0:0:
131,314,10101,1,2,0:0:0:0:
6,201,10259,1,8,0:1:0:0:
6,201,10418,1,8,0:1:0:0:
96,231,10577,2,0,P|105:188|114:144,1,88,8|2,0:0|0:0,0:0:0:0:
259,157,10894,6,0,P|264:73|213:-3,2,176,8|8|8,0:1|0:0|0:1,0:0:0:0:
318,89,11688,1,8,0:1:0:0:
417,210,11847,1,8,0:0:0:0:
259,157,12005,6,0,B|158:137|188:196|84:177,1,176,12|8,0:1|0:1,0:0:0:0:
16,229,12482,1,8,0:0:0:0:
189,302,12640,1,8,0:1:0:0:
89,370,12799,6,0,P|87:326|113:281,1,88,8|8,0:3|0:3,0:0:0:0:
156,227,13037,5,8,0:3:0:0:
156,227,13116,2,0,P|171:186|161:142,1,88,4|4,0:3|0:3,0:0:0:0:
111,84,13355,5,4,0:3:0:0:
111,84,13434,2,0,P|131:27|257:50,1,193.600005908203,12|8,0:0|0:1,0:0:0:0:
411,187,13910,6,0,P|456:217|508:220,1,96.8000029541017,12|0,0:0|0:0,0:0:0:0:
486,129,14228,1,8,0:1:0:0:
297,271,14386,6,0,L|318:385,1,96.8000029541017,12|0,0:0|0:0,0:0:0:0:
314,366,14704,1,8,0:1:0:0:
101,186,14862,5,12,0:0:0:0:
195,236,15021,1,0,3:0:0:0:
106,296,15180,1,8,0:1:0:0:
267,169,15339,5,4,1:3:0:0:
13,262,15497,1,8,0:0:0:0:
13,262,15577,1,8,0:0:0:0:
13,262,15656,1,10,0:0:0:0:
13,262,15974,6,0,B|96:247|84:292|168:280,1,158.399995166016,12|8,0:1|0:0,0:0:0:0:
265,249,16450,1,2,0:0:0:0:
338,350,16609,2,0,P|352:315|364:271,1,79.1999975830079,10|8,0:1|0:1,0:0:0:0:
290,167,16926,2,0,P|276:202|264:246,1,79.1999975830079,8|0,0:0|0:0,0:0:0:0:
470,144,17243,6,0,P|466:68|400:31,1,158.399995166016,10|8,0:1|0:0,0:0:0:0:
306,75,17720,2,0,B|224:82|239:48|149:60,1,158.399995166016,2|8,0:0|0:1,0:0:0:0:
69,120,18196,2,0,P|50:84|49:38,1,79.1999975830079,8|2,0:0|0:0,0:0:0:0:
150,59,18513,6,0,B|240:47|225:81|307:74,1,158.399995166016,8|8,0:1|0:0,0:0:0:0:
306,75,18989,1,2,0:0:0:0:
306,75,19148,2,0,P|338:102|384:108,1,79.1999975830079,10|8,0:1|0:1,0:0:0:0:
473,87,19466,2,0,L|460:180,1,79.1999975830079,8|0,0:0|0:0,0:0:0:0:
356,361,19783,6,0,P|348:291|408:201,1,158.399995166016,10|8,0:1|0:0,0:0:0:0:
512,255,20259,2,0,P|468:284|425:280,1,79.1999975830079,2|8,0:0|0:1,0:0:0:0:
287,219,20577,1,10,0:1:0:0:
207,245,20735,2,0,L|292:224,1,79.1999975830079,8|2,0:0|0:0,0:0:0:0:
375,33,21053,5,8,0:1:0:0:
375,33,21370,1,8,0:0:0:0:
375,33,21529,1,2,0:0:0:0:
299,99,21688,2,0,P|256:88|217:79,1,79.1999975830079,10|8,0:1|0:1,0:0:0:0:
128,96,22005,2,0,P|130:56|145:20,1,79.1999975830079,8|0,0:0|0:0,0:0:0:0:
233,169,22323,6,0,P|226:248|188:316,1,158.399995166016,10|8,0:1|0:0,0:0:0:0:
113,384,22799,2,0,P|104:345|94:307,1,79.1999975830079,2|8,0:0|0:1,0:0:0:0:
273,264,23116,1,10,0:1:0:0:
275,365,23275,1,8,0:0:0:0:
188,316,23434,1,2,0:0:0:0:
233,169,23593,6,0,B|322:152|305:198|395:185,1,158.399995166016,10|8,0:1|0:0,0:0:0:0:
465,145,24069,1,2,0:0:0:0:
225,177,24228,2,0,P|186:183|129:193,2,79.1999975830079,10|8|8,0:1|0:1|0:0,0:0:0:0:
386,374,24862,6,0,P|379:315|403:262,1,118.799996374512,10|0,0:1|0:0,0:0:0:0:
402,262,25180,2,0,B|382:172,1,79.1999975830079,8|2,0:0|0:0,0:0:0:0:
442,44,25497,1,10,0:1:0:0:
306,175,25656,1,8,0:0:0:0:
306,175,25815,1,8,0:0:0:0:
487,223,25974,1,8,0:1:0:0:
411,144,26132,5,12,0:1:0:0:
411,144,26450,1,8,0:0:0:0:
372,296,26609,1,2,0:0:0:0:
411,144,26767,2,0,P|398:195|391:237,1,79.1999975830079,10|8,0:1|0:1,0:0:0:0:
280,286,27085,2,0,P|290:324|297:363,1,79.1999975830079,8|0,0:0|0:0,0:0:0:0:
185,311,27402,6,0,P|185:271|205:230,1,79.1999975830079,10|0,0:1|0:0,0:0:0:0:
294,189,27720,1,8,0:0:0:0:
199,98,27878,1,2,0:0:0:0:
336,50,28037,1,10,0:1:0:0:
193,107,28196,2,0,P|153:105|114:72,1,79.1999975830079,10|8,0:1|0:0,0:0:0:0:
84,14,28513,1,2,0:0:0:0:
40,148,28672,6,0,P|112:127|198:105,1,158.399995166016,8|8,0:1|0:0,0:0:0:0:
192,106,29148,1,2,0:0:0:0:
192,106,29307,2,0,P|207:148|223:186,1,79.1999975830079,10|8,0:1|0:1,0:0:0:0:
169,309,29624,2,0,P|154:267|138:229,1,79.1999975830079,8|0,0:0|0:0,0:0:0:0:
296,120,29942,6,0,B|382:91|344:62|426:33,1,158.399995166016,10|8,0:1|0:0,0:0:0:0:
512,168,30418,2,0,P|474:141|432:135,1,79.1999975830079,10|8,0:3|0:1,0:0:0:0:
358,202,30735,1,4,0:3:0:0:
436,311,30894,2,0,B|430:270|430:270|445:229,1,79.1999975830079,8|2,0:0|0:0,0:0:0:0:
255,113,31212,6,0,P|209:177|205:255,1,158.399995166016,10|8,0:1|0:0,0:0:0:0:
281,372,31688,2,0,P|326:308|330:230,1,158.399995166016,2|8,0:0|0:1,0:0:0:0:
168,153,32164,1,8,0:0:0:0:
330,230,32323,1,2,0:0:0:0:
273,114,32482,6,0,P|254:154|244:196,1,79.1999975830079,10|0,0:1|0:0,0:0:0:0:
287,384,32799,1,8,0:0:0:0:
287,384,32958,2,0,P|306:344|316:302,1,79.1999975830079,2|8,0:0|0:1,0:0:0:0:
168,153,33275,2,0,L|78:169,1,79.1999975830079,10|8,0:1|0:0,0:0:0:0:
14,230,33593,1,2,0:0:0:0:
25,108,33751,6,0,B|132:113|96:180|195:186,1,193.600005908203,12|8,0:1|0:0,0:0:0:0:
395,134,34228,1,0,3:0:0:0:
395,134,34307,1,0,3:0:0:0:
395,134,34386,1,8,0:1:0:0:
324,293,34545,2,0,B|310:244|310:244|325:191,1,96.8000029541017,8|8,0:1|0:0,0:0:0:0:
98,59,34862,6,0,B|155:11|155:11|139:129,1,193.600005908203,12|8,0:1|0:1,0:0:0:0:
109,264,35339,5,8,0:0:0:0:
322,199,35497,1,8,0:1:0:0:
230,153,35656,5,8,0:3:0:0:
297,281,35815,1,8,0:3:0:0:
416,228,35974,1,4,0:3:0:0:
483,310,36132,1,8,0:1:0:0:
323,187,36291,6,0,L|305:50,1,132.000005035401,12|2,0:1|0:0,0:0:0:0:
305,56,36767,1,8,0:1:0:0:
305,56,36926,2,0,P|357:68|383:73,1,66.0000025177003,2|0,0:0|0:1,0:0:0:0:
480,127,37243,2,0,P|447:133|415:141,1,66.0000025177003,10|0,0:0|0:0,0:0:0:0:
328,183,37482,5,0,0:0:0:0:
323,187,37561,2,0,B|260:170|254:203|188:186,1,132.000005035401,10|2,0:1|0:0,0:0:0:0:
94,332,38037,2,0,P|131:280|195:275,1,132.000005035401,10|0,0:1|0:0,0:0:0:0:
273,319,38513,2,0,P|273:353|267:385,1,66.0000025177003,8|2,0:0|0:0,0:0:0:0:
109,232,38831,6,0,P|111:166|130:103,1,132.000005035401,8|2,0:1|0:0,0:0:0:0:
130,103,39307,1,8,0:1:0:0:
130,103,39466,2,0,L|46:123,1,66.0000025177003,2|0,0:0|0:1,0:0:0:0:
193,3,39783,2,0,P|207:36|214:66,1,66.0000025177003,8|0,0:0|0:0,0:0:0:0:
323,187,40101,6,0,B|386:170|392:203|458:186,1,132.000005035401,10|2,0:1|0:0,0:0:0:0:
262,129,40577,2,0,P|233:187|230:252,1,132.000005035401,10|8,0:1|0:1,0:0:0:0:
280,380,41053,1,8,0:0:0:0:
230,253,41212,1,0,3:0:0:0:
338,325,41370,6,0,B|290:334|290:334|262:327|262:327|195:340,1,132.000005035401,8|2,0:1|0:0,0:0:0:0:
208,337,41847,1,8,0:1:0:0:
208,337,42005,2,0,P|172:324|131:318,1,66.0000025177003,2|0,0:0|0:0,0:0:0:0:
22,364,42323,2,0,P|28:296|64:264,1,99.0000037765504,8|0,0:0|0:0,0:0:0:0:
55,270,42640,6,0,L|29:131,1,132.000005035401,10|2,0:1|0:0,0:0:0:0:
72,63,43116,1,8,0:1:0:0:
152,210,43275,2,0,P|114:201|78:197,1,66.0000025177003,2|8,0:0|0:1,0:0:0:0:
256,97,43593,1,8,0:0:0:0:
256,97,43910,6,0,P|300:130|376:131,1,132.000005035401,10|0,0:1|0:0,0:0:0:0:
432,81,44386,1,8,0:1:0:0:
306,179,44545,2,0,B|237:180|254:218|170:219,1,132.000005035401,2|8,0:0|0:0,0:0:0:0:
110,283,45021,2,0,P|93:317|94:346,1,66.0000025177003,2|8,0:0|0:1,0:0:0:0:
239,378,45339,5,8,0:0:0:0:
182,218,45497,1,10,0:1:0:0:
190,306,45656,1,8,0:1:0:0:
260,179,45815,5,8,0:0:0:0:
142,138,45974,1,8,0:3:0:0:
94,245,46132,1,4,0:3:0:0:
8,218,46291,1,8,0:1:0:0:
74,88,46450,5,12,0:1:0:0:
182,218,46609,1,2,0:0:0:0:
182,218,46767,2,0,P|175:182|165:144,1,66.0000025177003,2|8,0:0|0:1,0:0:0:0:
250,76,47085,2,0,P|257:112|267:150,1,66.0000025177003,2|0,0:0|0:0,0:0:0:0:
362,178,47402,2,0,L|431:189,1,66.0000025177003,8|0,0:0|0:0,0:0:0:0:
506,172,47640,5,0,0:0:0:0:
506,172,47720,2,0,B|432:162|446:201|365:191,1,132.000005035401,10|0,0:1|0:0,0:0:0:0:
172,144,48196,1,10,0:1:0:0:
245,173,48355,2,0,P|257:207|263:237,1,66.0000025177003,2|8,0:0|0:1,0:0:0:0:
217,377,48672,2,0,P|205:343|199:313,1,66.0000025177003,8|0,0:0|0:0,0:0:0:0:
199,313,48989,1,8,0:1:0:0:
60,256,49148,5,2,0:0:0:0:
60,256,49307,1,2,0:0:0:0:
60,256,49466,1,10,0:1:0:0:
60,256,49624,2,0,P|95:243|125:238,1,66.0000025177003,2|0,0:0|0:0,0:0:0:0:
202,160,49942,2,0,P|216:125|201:62,1,99.0000037765504,8|0,0:0|0:0,0:0:0:0:
144,19,50259,6,0,P|173:69|256:88,1,132.000005035401,10|0,0:1|0:0,0:0:0:0:
327,45,50735,1,10,0:1:0:0:
241,92,50894,2,0,B|192:101|192:101|172:117|172:117|107:130,1,132.000005035401,2|8,0:0|0:0,0:0:0:0:
414,332,51529,5,8,0:1:0:0:
233,224,51847,5,2,0:0:0:0:
233,224,52005,1,10,0:1:0:0:
312,363,52164,6,0,P|320:319|330:297,1,66.0000025177003,2|8,0:0|0:1,0:0:0:0:
484,252,52482,6,0,P|474:213|457:177,1,79.1999975830079,10|0,0:0|0:0,0:0:0:0:
139,145,52799,5,10,0:1:0:0:
338,206,52958,1,8,0:3:0:0:
299,80,53116,5,8,0:3:0:0:
254,250,53275,1,8,0:3:0:0:
470,176,53434,5,4,0:3:0:0:
347,212,53593,5,4,0:3:0:0:
468,254,53751,5,8,0:1:0:0:
396,150,53910,5,8,0:1:0:0:
393,276,54069,6,0,L|427:47,1,227.920005564453,12|0,0:1|0:0,0:0:0:0:
392,128,55339,6,0,L|395:149,1,22,2|2,0:0|0:0,0:0:0:0:
505,41,55815,5,2,0:0:0:0:
287,137,56133,5,0,0:0:0:0:
287,137,56291,1,0,0:0:0:0:
287,137,56609,6,0,L|190:122,1,87.1199997341309,12|0,0:1|0:0,0:0:0:0:
287,137,57243,6,0,B|212:155|212:155|207:161|207:161|126:179,1,158.399995166016,12|0,0:1|0:0,0:0:0:0:
44,198,57878,6,0,B|186:200|151:297|290:291,1,264,12|0,0:1|0:0,0:0:0:0:
143,331,58513,6,0,P|135:352|131:374,1,44,14|0,0:1|0:0,0:0:0:0:
242,161,58672,1,8,0:0:0:0:
238,139,58751,1,8,0:0:0:0:
234,117,58830,1,10,0:0:0:0:
230,95,58910,1,8,0:0:0:0:
227,74,58989,1,8,0:0:0:0:
223,52,59068,1,8,0:0:0:0:
219,30,59148,6,0,P|261:64|351:66,1,138.599995770264,12|0,0:1|0:0,0:0:0:0:
404,25,59466,1,10,0:0:0:0:
323,154,59624,1,2,0:0:0:0:
439,244,59783,1,10,0:1:0:0:
338,361,59942,2,0,P|342:319|353:256,1,92.3999971801759,10|8,0:1|0:0,0:0:0:0:
403,117,60259,6,0,B|308:99|319:168|218:157,1,184.799994360352,10|8,0:1|0:1,0:0:0:0:
130,92,60735,1,10,0:0:0:0:
326,176,60894,1,0,3:0:0:0:
254,51,61053,2,0,P|235:111|219:156,1,92.3999971801759,10|8,0:1|0:1,0:0:0:0:
142,327,61370,2,0,P|98:340|47:360,1,92.3999971801759,10|0,0:0|0:0,0:0:0:0:
94,203,61688,6,0,B|171:219|171:219|195:244|195:244|268:259,1,184.799994360352,10|8,0:1|0:0,0:0:0:0:
405,210,62164,1,2,0:0:0:0:
347,366,62323,2,0,B|357:322|357:322|336:258,1,92.3999971801759,10|8,0:1|0:1,0:0:0:0:
296,110,62640,1,10,0:0:0:0:
342,277,62799,6,0,P|394:316|520:286,1,184.799994360352,10|8,0:1|0:1,0:0:0:0:
317,194,63275,1,10,0:0:0:0:
257,339,63434,1,0,3:0:0:0:
276,109,63593,1,10,0:1:0:0:
398,188,63751,1,8,0:1:0:0:
254,253,63910,2,0,L|129:271,1,92.3999971801759,10|0,0:0|0:0,0:0:0:0:
15,383,64228,6,0,P|60:339|52:237,1,138.599995770264,8|0,0:1|0:0,0:0:0:0:
20,176,64545,2,0,L|142:190,1,92.3999971801759,10|2,0:0|0:0,0:0:0:0:
361,322,64862,1,10,0:1:0:0:
262,260,65021,2,0,B|246:303|246:303|250:360,1,92.3999971801759,10|8,0:1|0:0,0:0:0:0:
414,161,65339,6,0,P|402:83|313:5,1,184.799994360352,10|8,0:1|0:1,0:0:0:0:
350,229,65815,2,0,P|397:240|452:255,1,92.3999971801759,10|0,0:0|3:0,0:0:0:0:
237,113,66132,2,0,B|164:105|174:138|96:129,1,138.599995770264,10|0,0:1|0:0,0:0:0:0:
94,123,66450,2,0,P|46:114|-8:97,1,92.3999971801759,10|0,0:0|0:0,0:0:0:0:
200,206,66767,6,0,B|178:105|239:133|220:26,1,184.799994360352,10|8,0:1|0:0,0:0:0:0:
75,210,67243,1,2,0:0:0:0:
248,123,67402,2,0,L|348:140,1,92.3999971801759,10|8,0:1|0:1,0:0:0:0:
425,65,67720,1,8,0:0:0:0:
240,132,67878,6,0,P|175:127|100:31,1,184.799994360352,10|8,0:1|0:1,0:0:0:0:
194,1,68355,1,8,0:0:0:0:
75,210,68513,1,0,3:0:0:0:
21,33,68672,5,10,0:1:0:0:
133,124,68831,1,10,0:1:0:0:
0,173,68989,1,8,0:0:0:0:
240,132,69148,5,0,1:0:0:0:
240,132,69228,1,0,1:0:0:0:
240,132,69307,2,0,B|313:129|302:169|381:171,1,138.599995770264,12|0,0:1|0:0,0:0:0:0:
441,137,69624,2,0,P|462:94|442:48,1,92.3999971801759,8|0,0:0|0:0,0:0:0:0:
361,23,69942,1,10,0:1:0:0:
296,198,70101,1,8,0:1:0:0:
400,244,70259,1,10,0:0:0:0:
319,104,70418,1,2,0:0:0:0:
163,202,70577,6,0,P|110:214|-6:129,2,184.799994360352,10|8|10,0:1|0:0|0:1,0:0:0:0:
242,143,71370,1,8,0:1:0:0:
176,54,71529,1,8,0:0:0:0:
276,0,71688,1,2,0:0:0:0:
163,202,71847,6,0,P|175:283|191:391,1,184.799994360352,10|10,0:1|0:0,0:0:0:0:
290,323,72323,2,0,P|298:275|308:226,1,92.3999971801759,2|8,0:0|0:1,0:0:0:0:
79,354,72640,2,0,P|60:312|40:270,1,92.3999971801759,10|8,0:1|0:0,0:0:0:0:
176,54,72958,5,2,0:0:0:0:
209,174,73116,2,0,P|140:177|82:142,1,138.599995770264,8|0,0:1|0:0,0:0:0:0:
5,92,73434,2,0,P|51:74|96:50,1,92.3999971801759,10|0,0:0|3:0,0:0:0:0:
263,111,73751,1,10,0:1:0:0:
135,217,73910,1,8,0:1:0:0:
216,297,74069,2,0,B|234:253|234:253|227:205,1,92.3999971801759,10|0,0:0|0:0,0:0:0:0:
176,54,74386,6,0,B|276:38|258:113|355:97,1,184.799994360352,10|10,0:1|0:0,0:0:0:0:
120,232,74862,2,0,P|73:241|19:257,1,92.3999971801759,2|8,0:0|0:1,0:0:0:0:
241,160,75180,1,10,0:1:0:0:
329,248,75339,1,8,0:0:0:0:
416,195,75497,1,2,0:0:0:0:
487,257,75656,6,0,P|499:198|447:63,1,184.799994360352,8|8,0:1|0:0,0:0:0:0:
342,10,76132,2,0,P|318:52|319:101,1,92.3999971801759,2|8,0:0|0:1,0:0:0:0:
214,249,76450,1,8,0:1:0:0:
121,186,76609,1,8,0:0:0:0:
21,327,76767,5,0,3:0:0:0:
21,327,76847,1,0,3:0:0:0:
21,327,76926,1,12,0:1:0:0:
110,270,77085,1,0,1:0:0:0:
39,228,77243,1,8,0:0:0:0:
139,360,77402,1,4,0:3:0:0:
226,159,77561,5,12,0:1:0:0:
103,278,77720,1,8,0:1:0:0:
69,108,77878,1,8,0:0:0:0:
137,186,78037,1,4,0:3:0:0:
19,222,78196,5,14,0:0:0:0:
248,152,78355,1,8,0:1:0:0:
147,49,78513,1,10,0:0:0:0:
222,265,78672,1,8,0:1:0:0:
424,204,78831,5,4,0:3:0:0:
243,143,78989,1,8,0:0:0:0:
243,143,79069,1,8,0:0:0:0:
243,143,79148,2,0,P|233:107|229:92,1,46.1999985900879,10|8,0:0|0:0,0:0:0:0:
347,27,79307,2,0,L|341:79,1,46.1999985900879,8|8,0:0|0:0,0:0:0:0:
129,196,79466,2,0,L|23:217,1,92.3999971801759,12|0,0:1|0:0,0:0:0:0:
289,351,79783,5,10,0:0:0:0:
327,190,79942,1,2,0:0:0:0:
289,365,80101,1,10,0:1:0:0:
338,184,80259,2,0,B|323:230|323:230|331:285,1,92.3999971801759,10|8,0:1|0:0,0:0:0:0:
481,130,80577,6,0,P|419:124|365:7,1,184.799994360352,10|8,0:1|0:1,0:0:0:0:
199,225,81053,2,0,B|124:222|138:263|67:260,1,138.599995770264,10|0,0:0|0:0,0:0:0:0:
59,253,81370,2,0,B|51:207|51:207|67:163,1,92.3999971801759,10|8,0:1|0:1,0:0:0:0:
316,291,81688,2,0,B|323:336|323:336|307:380,1,92.3999971801759,10|0,0:0|0:1,0:0:0:0:
199,225,82005,6,0,P|210:160|235:31,1,184.799994360352,10|8,0:1|0:0,0:0:0:0:
136,106,82482,1,2,0:0:0:0:
317,208,82640,2,0,P|363:217|419:236,1,92.3999971801759,10|8,0:1|0:1,0:0:0:0:
251,139,82958,1,10,0:0:0:0:
392,134,83116,6,0,B|430:55|364:5|364:5|350:41,1,184.799994360352,10|10,0:1|0:1,0:0:0:0:
312,219,83593,1,8,0:0:0:0:
479,171,83751,1,2,3:2:0:0:
375,138,83910,1,8,0:1:0:0:
423,354,84069,1,10,0:1:0:0:
408,211,84228,1,8,0:0:0:0:
376,289,84386,1,2,0:0:0:0:
224,202,84545,6,0,P|191:142|195:73,1,138.599995770264,8|0,0:1|0:0,0:0:0:0:
253,3,84862,2,0,P|278:50|286:101,1,92.3999971801759,10|2,0:0|0:2,0:0:0:0:
180,299,85180,1,10,0:1:0:0:
91,253,85339,2,0,L|-21:273,1,92.3999971801759,10|8,0:1|0:0,0:0:0:0:
233,194,85656,6,0,B|336:173|316:243|411:226,1,184.799994360352,10|8,0:1|0:1,0:0:0:0:
351,354,86132,2,0,P|339:317|334:253,1,92.3999971801759,10|0,0:0|3:0,0:0:0:0:
486,69,86450,2,0,B|456:99|456:99|411:98|353:123,1,138.599995770264,10|0,0:1|0:0,0:0:0:0:
292,86,86767,2,0,P|273:73|201:55,1,92.3999971801759,10|0,0:0|0:0,0:0:0:0:
82,323,87085,6,0,B|107:287|107:287|99:240|99:240|139:209|143:150,1,184.799994360352,10|8,0:1|0:0,0:0:0:0:
100,27,87561,1,2,0:0:0:0:
0,193,87720,2,0,P|47:196|90:223,1,92.3999971801759,10|8,0:1|0:1,0:0:0:0:
184,318,88037,1,8,0:0:0:0:
405,151,88196,6,0,B|362:119|300:117|300:117|276:69|306:32,1,202.400003860474,12|8,0:1|0:1,0:0:0:0:
464,249,88672,2,0,P|438:310|425:373,1,101.200001930237,8|0,0:0|3:0,0:0:0:0:
314,152,88989,5,10,0:1:0:0:
224,278,89148,1,10,0:1:0:0:
113,199,89307,1,10,0:0:0:0:
50,287,89466,1,0,1:0:0:0:
50,287,89545,1,0,1:0:0:0:
50,287,89624,6,0,L|197:261,1,138.599995770264,12|0,0:1|0:0,0:0:0:0:
260,279,89942,2,0,B|284:307|284:307|345:328,1,92.3999971801759,8|0,0:0|3:0,0:0:0:0:
476,201,90259,1,10,0:1:0:0:
339,242,90418,1,8,0:1:0:0:
426,290,90577,1,10,0:0:0:0:
385,155,90735,1,2,0:0:0:0:
260,279,90894,6,0,P|208:249|128:246,1,138.599995770264,10|0,0:1|0:0,0:0:0:0:
69,198,91212,2,0,P|50:165|60:99,1,92.3999971801759,8|0,0:0|3:0,0:0:0:0:
219,48,91529,2,0,L|200:140,1,92.3999971801759,10|8,0:1|0:1,0:0:0:0:
163,328,91847,1,8,0:0:0:0:
200,138,92005,1,2,0:0:0:0:
130,245,92164,6,0,B|209:235|209:235|236:244|236:244|313:232,1,184.799994360352,10|10,0:1|0:0,0:0:0:0:
432,152,92640,2,0,P|478:179|495:220,1,92.3999971801759,2|8,0:0|0:1,0:0:0:0:
384,379,92958,1,10,0:1:0:0:
401,243,93116,1,10,0:0:0:0:
463,334,93275,6,0,L|429:138,1,184.799994360352,12|8,0:1|0:1,0:0:0:0:
354,28,93751,1,8,0:0:0:0:
496,106,93910,1,2,0:0:0:0:
393,231,94069,1,10,0:1:0:0:
284,207,94228,5,8,0:3:0:0:
249,209,94307,1,8,0:3:0:0:
219,225,94386,1,8,0:0:0:0:
198,252,94466,1,8,0:3:0:0:
190,285,94545,2,0,P|194:310|205:340,1,46.1999985900879,4|8,0:3|0:1,0:0:0:0:
283,378,94704,6,0,B|278:325|278:325|297:287|297:287|285:236|309:194,1,184.799994360352,12|8,0:1|0:0,0:0:0:0:
91,38,95180,2,0,P|149:50|171:164,1,184.799994360352,10|8,0:1|0:1,0:0:0:0:
112,249,95656,2,0,P|69:262|18:287,1,92.3999971801759,8|0,0:0|0:0,0:0:0:0:
174,160,95974,6,0,B|262:136|269:207|359:180,2,184.799994360352,12|8|10,0:1|0:0|0:1,0:0:0:0:
85,143,96767,1,10,0:1:0:0:
245,112,96926,1,8,0:0:0:0:
269,273,97085,1,10,0:1:0:0:
189,348,97243,6,0,B|175:304|175:304|182:255,1,92.3999971801759,8|4,0:0|0:3,0:0:0:0:
342,134,97561,2,0,B|356:178|356:178|349:227,1,92.3999971801759,8|8,0:1|0:3,0:0:0:0:
245,112,97878,1,4,0:3:0:0:
413,71,98037,1,8,0:1:0:0:
368,315,98196,1,8,0:0:0:0:
342,134,98355,6,0,B|226:115|245:201|124:180,1,220,12|2,0:1|0:0,0:0:0:0:
65,156,99307,1,8,0:1:0:0:
65,156,99466,2,0,P|54:189|50:209,1,44,4|0,0:3|0:0,0:0:0:0:
256,32,99783,5,12,0:1:0:0:
256,192,99862,12,8,102005,0:0:0:0:
79,78,102323,6,0,P|142:95|208:103,1,132.000005035401,10|8,0:1|0:0,0:0:0:0:
296,152,102799,2,0,P|306:74|317:18,1,132.000005035401,0|10,3:0|0:1,0:0:0:0:
208,103,103275,1,8,0:0:0:0:
296,152,103434,1,2,0:0:0:0:
231,234,103593,6,0,P|216:314|208:385,2,132.000005035401,10|8|10,0:1|0:0|0:1,0:0:0:0:
146,188,104386,1,8,0:1:0:0:
82,260,104545,2,0,P|50:270|17:285,1,66.0000025177003,8|0,0:0|0:0,0:0:0:0:
80,78,104862,6,0,B|143:67|153:113|214:101,1,132.000005035401,10|8,0:1|0:0,0:0:0:0:
291,60,105339,1,0,0:0:0:0:
207,102,105497,2,0,P|204:69|196:35,1,66.0000025177003,10|8,0:1|0:1,0:0:0:0:
268,186,105815,2,0,P|271:219|279:253,1,66.0000025177003,8|0,0:0|0:0,0:0:0:0:
413,348,106132,6,0,P|419:301|368:225,1,132.000005035401,10|8,0:1|0:0,0:0:0:0:
279,251,106609,2,0,P|251:245|215:243,1,66.0000025177003,2|8,0:0|0:1,0:0:0:0:
135,279,106926,1,8,0:1:0:0:
196,384,107085,2,0,P|201:350|208:312,1,66.0000025177003,8|0,0:0|0:0,0:0:0:0:
73,102,107402,5,10,0:1:0:0:
73,102,107561,1,8,0:1:0:0:
214,243,107720,2,0,B|212:197|212:197|231:149,1,88,12|0,0:0|0:0,0:0:0:0:
445,124,108037,1,10,0:1:0:0:
292,32,108196,1,8,0:0:0:0:
297,211,108355,1,8,0:0:0:0:
338,123,108513,6,0,B|272:113|272:113|239:125|239:125|140:111,1,176,12|10,0:1|0:1,0:0:0:0:
36,240,108989,2,0,P|73:214|120:209,1,88,12|0,0:0|0:0,0:0:0:0:
254,322,109307,1,8,0:3:0:0:
252,332,109386,1,0,3:0:0:0:
251,343,109465,1,8,0:0:0:0:
249,354,109545,1,8,0:0:0:0:
248,365,109624,1,8,0:0:0:0:
271,221,109783,1,4,0:3:0:0:
76,304,109942,6,0,P|37:234|47:131,1,167.199995535278,12|8,0:1|0:0,0:0:0:0:
180,42,110418,2,0,P|166:90|161:130,1,83.5999977676392,2|8,0:0|0:1,0:0:0:0:
176,245,110735,1,10,0:1:0:0:
161,123,110894,1,8,0:0:0:0:
40,150,111053,1,2,0:0:0:0:
250,134,111212,6,0,B|345:121|327:180|416:165,1,167.199995535278,10|8,0:1|0:0,0:0:0:0:
486,108,111688,1,2,0:0:0:0:
401,77,111847,1,8,0:1:0:0:
378,250,112005,1,8,0:1:0:0:
409,165,112164,2,0,B|368:164|368:164|316:184,1,83.5999977676392,8|0,0:0|0:0,0:0:0:0:
275,359,112482,6,0,P|340:336|378:250,1,167.199995535278,10|8,0:1|0:0,0:0:0:0:
234,109,112958,1,0,3:0:0:0:
234,109,113037,1,0,3:0:0:0:
234,109,113116,2,0,P|245:152|253:196,2,83.5999977676392,10|10|8,0:1|0:1|0:0,0:0:0:0:
288,21,113593,1,2,0:0:0:0:
158,148,113751,6,0,B|120:142|81:152|81:152|53:128|-3:117,1,167.199995535278,10|8,0:1|0:0,0:0:0:0:
11,250,114228,1,0,3:0:0:0:
78,187,114386,1,8,0:1:0:0:
135,339,114545,1,8,0:1:0:0:
194,282,114704,2,0,P|159:259|118:259,1,83.5999977676392,8|0,0:0|3:0,0:0:0:0:
135,339,114942,5,0,3:0:0:0:
135,339,115021,2,0,P|217:325|308:315,1,167.199995535278,10|8,0:1|0:0,0:0:0:0:
435,374,115497,2,0,P|451:332|460:289,1,83.5999977676392,2|8,0:0|0:1,0:0:0:0:
326,169,115815,1,10,0:1:0:0:
326,169,115974,2,0,P|282:182|234:192,1,83.5999977676392,8|2,0:0|0:0,0:0:0:0:
410,217,116291,6,0,P|447:168|451:64,1,167.199995535278,10|8,0:1|0:0,0:0:0:0:
245,190,116767,2,0,B|169:163|163:226|83:202,1,167.199995535278,2|8,0:0|0:1,0:0:0:0:
0,149,117243,2,0,P|21:113|62:95,1,83.5999977676392,8|0,0:0|0:0,0:0:0:0:
179,149,117561,6,0,P|191:98|141:-1,1,167.199995535278,10|8,0:1|0:0,0:0:0:0:
58,96,118037,1,2,0:0:0:0:
213,46,118196,2,0,P|254:55|300:68,1,83.5999977676392,8|8,0:1|0:1,0:0:0:0:
419,121,118513,1,8,0:0:0:0:
483,57,118672,5,0,3:0:0:0:
483,57,118751,1,0,3:0:0:0:
483,57,118831,1,10,0:1:0:0:
331,147,118989,2,0,P|320:190|314:235,1,83.5999977676392,2|8,0:0|0:0,0:0:0:0:
458,326,119307,1,0,3:0:0:0:
397,246,119466,1,8,0:1:0:0:
374,382,119624,1,8,0:1:0:0:
483,202,119783,1,8,0:0:0:0:
483,202,119942,1,0,3:0:0:0:
290,317,120101,6,0,B|256:290|209:295|209:295|183:331|139:336,1,167.199995535278,10|8,0:1|0:0,0:0:0:0:
27,271,120577,2,0,B|26:228|26:228|44:192,1,83.5999977676392,2|8,0:0|0:1,0:0:0:0:
168,70,120894,2,0,B|168:112|168:112|150:148,1,83.5999977676392,8|8,0:1|0:0,0:0:0:0:
29,280,121212,1,2,0:0:0:0:
81,97,121370,6,0,P|159:113|256:138,1,167.199995535278,10|8,0:1|0:0,0:0:0:0:
403,78,121847,2,0,P|455:65|498:55,1,83.5999977676392,2|8,0:0|0:1,0:0:0:0:
317,176,122164,1,8,0:1:0:0:
301,14,122323,2,0,B|319:52|319:52|314:105,1,83.5999977676392,8|0,0:0|3:0,0:0:0:0:
244,353,122640,5,10,0:1:0:0:
173,281,122799,2,0,P|202:257|253:251,1,83.5999977676392,2|8,0:0|0:0,0:0:0:0:
411,307,123116,2,0,P|458:255|465:157,1,167.199995535278,2|10,0:0|0:1,0:0:0:0:
403,78,123593,1,8,0:0:0:0:
403,78,123751,1,2,0:0:0:0:
273,164,123910,6,0,B|247:156|214:158|214:158|165:127|112:125,1,167.199995535278,10|8,0:1|0:0,0:0:0:0:
7,260,124386,2,0,B|28:240|28:240|88:224,1,83.5999977676392,2|8,0:0|0:1,0:0:0:0:
243,313,124704,1,8,0:1:0:0:
158,276,124862,2,0,P|134:325|134:363,1,83.5999977676392,8|0,0:0|3:0,0:0:0:0:
140,361,125101,1,8,0:0:0:0:
140,361,125180,6,0,P|102:369|67:380,1,66.0000025177003,10|0,0:1|0:0,0:0:0:0:
0,302,125497,6,0,P|38:294|73:283,1,66.0000025177003,10|8,0:0|0:3,0:0:0:0:
172,114,125815,6,0,P|185:148|194:185,1,74.8000014266968,10|4,0:1|0:3,0:0:0:0:
265,241,126132,6,0,P|256:277|242:312,1,74.8000014266968,10|0,2:0|2:0,2:0:0:0:
73,125,126450,6,0,P|87:85|113:44,1,83.5999977676392,10|0,0:1|0:0,0:0:0:0:
87,243,126767,6,0,P|39:262|-2:270,1,83.5999977676392,10|0,0:0|3:0,0:0:0:0:
355,188,127085,6,0,P|405:197|459:220,1,92.3999971801759,10|8,0:1|0:1,0:0:0:0:
253,94,127402,6,0,P|241:50|232:-15,1,92.3999971801759,10|0,0:0|0:0,0:0:0:0:
344,64,127720,5,10,0:1:0:0:
270,226,127878,1,8,0:1:0:0:
362,299,128037,2,0,B|370:261|370:261|359:214,1,83.5999977676392,12|0,0:0|0:0,0:0:0:0:
268,329,128355,1,8,0:3:0:0:
266,339,128434,1,0,3:0:0:0:
265,350,128513,1,8,0:0:0:0:
264,360,128593,1,8,0:0:0:0:
263,371,128672,1,8,0:0:0:0:
159,194,128831,5,12,0:1:0:0:
455,267,129148,5,12,0:1:0:0:
284,184,129466,6,0,B|266:93|315:113|303:21,1,167.199995535278,12|8,0:1|0:1,0:0:0:0:
405,146,129942,2,0,P|373:120|324:111,1,83.5999977676392,8|0,0:0|3:0,0:0:0:0:
223,69,130180,5,8,0:0:0:0:
223,68,130259,2,0,P|160:122|78:126,1,167.199995535278,12|8,0:1|0:0,0:0:0:0:
0,245,130735,2,0,P|43:248|82:272,1,83.5999977676392,2|8,0:0|0:1,0:0:0:0:
113,350,131053,1,10,0:1:0:0:
227,269,131212,1,8,0:0:0:0:
227,269,131370,1,2,0:0:0:0:
164,203,131529,6,0,P|122:250|122:372,1,167.199995535278,10|8,0:1|0:0,0:0:0:0:
254,182,132005,2,0,P|264:140|279:94,1,83.5999977676392,2|8,0:0|0:1,0:0:0:0:
153,196,132323,1,8,0:1:0:0:
236,280,132482,2,0,P|282:292|324:305,1,83.5999977676392,8|0,0:0|3:0,0:0:0:0:
361,371,132720,5,0,3:0:0:0:
361,371,132799,2,0,B|343:280|392:300|380:208,1,167.199995535278,10|8,0:1|0:0,0:0:0:0:
340,11,133275,2,0,P|321:48|331:96,1,83.5999977676392,2|8,0:0|0:1,0:0:0:0:
460,153,133593,1,10,0:1:0:0:
407,84,133751,1,8,0:0:0:0:
300,170,133910,1,2,0:0:0:0:
212,88,134069,6,0,B|156:88|105:114|105:114|40:83,1,167.199995535278,10|8,0:1|0:0,0:0:0:0:
0,238,134545,2,0,P|36:212|77:210,1,83.5999977676392,0|8,3:0|0:1,0:0:0:0:
164,360,134862,1,8,0:1:0:0:
103,292,135021,1,8,0:0:0:0:
182,247,135180,1,0,3:0:0:0:
245,313,135339,6,0,P|295:340|412:322,1,167.199995535278,10|8,0:1|0:0,0:0:0:0:
503,249,135815,2,0,P|462:227|418:217,1,83.5999977676392,2|8,0:0|0:1,0:0:0:0:
320,228,136132,1,10,0:1:0:0:
304,130,136291,1,8,0:0:0:0:
325,239,136450,1,2,0:0:0:0:
363,66,136609,6,0,B|274:77|304:122|207:137,1,167.199995535278,10|8,0:1|0:0,0:0:0:0:
56,69,137085,2,0,B|69:18|69:18|103:127,1,167.199995535278,2|8,0:0|0:1,0:0:0:0:
23,294,137561,2,0,B|17:254|17:254|41:207,1,83.5999977676392,8|0,0:0|0:0,0:0:0:0:
136,273,137878,6,0,B|178:272|207:289|207:289|248:282|248:282|298:293,1,167.199995535278,10|8,0:1|0:0,0:0:0:0:
415,362,138355,1,0,3:0:0:0:
492,302,138513,1,8,0:1:0:0:
492,302,138672,1,10,0:1:0:0:
383,174,138831,2,0,P|368:220|363:262,1,83.5999977676392,8|0,0:0|1:0,0:0:0:0:
371,262,139069,5,0,1:0:0:0:
371,262,139148,2,0,P|334:272|296:295,1,79.1999975830079,10|8,0:1|0:1,0:0:0:0:
208,299,139466,6,0,P|193:340|190:389,1,79.1999975830079,10|0,0:0|3:0,0:0:0:0:
287,208,139783,6,0,P|273:165|244:132,1,88,10|8,0:1|0:1,0:0:0:0:
262,33,140101,6,0,P|227:9|181:0,1,88,10|0,0:0|3:0,0:0:0:0:
116,42,140339,5,0,3:0:0:0:
116,42,140418,2,0,P|195:27|283:14,1,167.199995535278,12|8,0:1|0:0,0:0:0:0:
458,75,140894,1,2,0:0:0:0:
396,4,141053,5,10,0:1:0:0:
396,4,141212,1,10,0:1:0:0:
362,214,141370,5,8,0:0:0:0:
362,214,141529,1,2,0:0:0:0:
440,276,141688,6,0,B|458:239|458:239|457:196,1,83.5999977676392,10|8,0:1|0:1,0:0:0:0:
268,115,142005,1,8,0:0:0:0:
201,195,142164,2,0,L|107:213,1,83.5999977676392,2|8,0:0|0:1,0:0:0:0:
246,273,142482,1,8,0:0:0:0:
70,132,142640,1,8,0:0:0:0:
208,192,142799,1,4,0:3:0:0:
157,348,142958,6,0,P|155:277|204:192,1,167.199995535278,12|8,0:1|0:0,0:0:0:0:
39,48,143434,2,0,P|59:78|72:135,1,83.5999977676392,12|0,0:1|0:0,0:0:0:0:
27,215,143751,1,10,0:1:0:0:
185,79,143910,6,0,B|281:85|256:158|367:157,1,184.799994360352,12|2,0:0|0:0,0:0:0:0:
455,76,144386,1,8,0:1:0:0:
358,169,144545,1,8,0:0:0:0:
429,273,144704,1,0,3:0:0:0:
483,201,144862,1,10,0:1:0:0:
344,284,145021,1,8,0:1:0:0:
445,369,145180,2,0,B|430:333|430:333|436:283,1,83.5999977676392,8|0,0:0|3:0,0:0:0:0:
352,302,145418,5,8,0:0:0:0:
352,302,145497,2,0,B|318:313|278:305|278:305|241:324|241:324|177:322,1,167.199995535278,12|8,0:1|0:0,0:0:0:0:
54,374,145974,1,2,0:0:0:0:
80,230,146132,2,0,P|97:275|109:316,1,83.5999977676392,10|8,0:1|0:1,0:0:0:0:
169,169,146450,2,0,P|156:129|141:90,1,83.5999977676392,8|0,0:0|3:0,0:0:0:0:
141,90,146688,1,0,3:0:0:0:
141,90,146767,5,10,0:1:0:0:
246,227,146926,1,8,0:1:0:0:
394,159,147085,2,0,P|435:150|483:142,1,83.5999977676392,12|0,0:0|0:0,0:0:0:0:
309,107,147402,5,8,0:1:0:0:
343,287,147561,2,0,L|358:235,1,41.7999988838196,8|8,0:0|0:0,0:0:0:0:
386,164,147720,1,8,0:1:0:0:
396,366,147878,5,8,0:0:0:0:
396,366,147958,1,8,0:0:0:0:
396,366,148037,2,0,P|355:322|249:306,1,167.199995535278,12|8,0:1|0:0,0:0:0:0:
171,360,148513,1,0,3:0:0:0:
207,223,148672,2,0,P|196:182|170:119,1,83.5999977676392,10|8,0:1|0:1,0:0:0:0:
107,210,148989,1,8,0:0:0:0:
253,305,149148,5,0,3:0:0:0:
253,305,149228,1,8,0:0:0:0:
253,305,149307,1,8,0:1:0:0:
294,216,149466,1,8,0:1:0:0:
149,282,149624,1,8,0:0:0:0:
265,384,149783,1,0,3:0:0:0:
207,223,149942,5,10,0:1:0:0:
79,339,150101,1,10,0:1:0:0:
212,234,150259,5,10,0:0:0:0:
17,148,150418,1,2,0:0:0:0:
149,282,150577,6,0,P|158:196|175:83,1,176,12|8,0:1|0:0,0:0:0:0:
68,5,151053,2,0,P|68:55|102:99,1,88,0|8,3:0|0:1,0:0:0:0:
298,131,151370,1,8,0:3:0:0:
325,36,151529,1,8,0:0:0:0:
194,136,151688,6,0,B|284:138|267:194|359:194,1,176,12|10,0:1|0:1,0:0:0:0:
427,87,152164,2,0,P|474:72|514:61,1,88,8|0,0:0|0:0,0:0:0:0:
334,42,152482,5,10,0:1:0:0:
444,220,152640,1,8,0:3:0:0:
334,285,152799,1,4,0:3:0:0:
356,193,152958,1,8,0:1:0:0:
431,338,153116,6,0,B|462:358|462:358|517:369,1,88,12|8,0:0|0:1,0:0:0:0:
267,219,153434,1,8,0:0:0:0:
307,383,153593,5,4,0:3:0:0:
307,383,153672,1,4,0:3:0:0:
307,383,153751,1,8,0:3:0:0:
168,268,153910,1,8,0:3:0:0:
275,123,154069,1,4,0:3:0:0:
264,214,154228,6,0,P|206:193|114:173,1,132.000005035401,12|0,0:1|0:0,0:0:0:0:
63,127,154704,2,0,P|53:97|62:56,1,66.0000025177003,2|0,0:0|3:0,0:0:0:0:
129,25,155021,1,4,0:3:0:0:
63,214,155180,1,4,0:3:0:0:
4,154,155339,2,0,P|39:132|73:126,1,66.0000025177003,8|0,0:0|0:0,0:0:0:0:
286,227,155656,6,0,L|398:245,1,105.599996777344,12|2,0:1|0:0,0:0:0:0:
477,212,156132,1,10,0:1:0:0:
477,212,156291,1,10,0:1:0:0:
221,301,156609,1,8,0:0:0:0:
358,125,156926,6,0,P|371:71|394:17,1,105.599996777344,10|2,0:1|0:0,0:0:0:0:
452,90,157402,1,10,0:1:0:0:
452,90,157561,2,0,P|423:103|401:114,1,52.7999983886719,8|2,0:1|3:0,0:0:0:0:
288,197,157878,2,0,P|297:231|306:262,1,52.7999983886719,8|2,0:0|0:0,0:0:0:0:
174,368,158196,6,0,L|192:251,1,105.599996777344,8|2,0:1|0:0,0:0:0:0:
159,180,158672,1,10,0:1:0:0:
159,180,158831,1,10,0:1:0:0:
340,324,159148,1,8,0:0:0:0:
290,99,159466,6,0,P|266:123|252:206,1,105.599996777344,10|2,0:1|0:0,0:0:0:0:
190,263,159942,2,0,P|160:270|136:278,1,52.7999983886719,10|8,0:1|0:1,0:0:0:0:
26,242,160259,1,10,0:1:0:0:
36,165,160418,1,8,0:0:0:0:
103,127,160577,1,2,0:0:0:0:
178,142,160735,6,0,P|211:127|250:61,1,105.599996777344,8|2,0:1|0:0,0:0:0:0:
185,0,161212,1,8,0:1:0:0:
185,0,161370,2,0,P|174:32|173:54,1,52.7999983886719,10|0,0:1|0:0,0:0:0:0:
259,187,161688,2,0,P|297:195|317:200,1,52.7999983886719,8|0,0:0|3:0,0:0:0:0:
378,132,162005,6,0,P|420:100|472:97,1,105.599996777344,10|2,0:1|0:0,0:0:0:0:
478,193,162482,1,10,0:1:0:0:
478,193,162640,2,0,P|490:220|496:254,1,52.7999983886719,8|2,0:1|0:0,0:0:0:0:
433,364,162958,2,0,P|436:339|443:312,1,52.7999983886719,8|2,0:0|0:0,0:0:0:0:
495,243,163275,6,0,L|381:225,1,105.599996777344,10|0,0:1|0:0,0:0:0:0:
321,265,163751,1,10,0:1:0:0:
241,220,163910,5,10,0:1:0:0:
232,195,164069,1,8,0:0:0:0:
176,318,164228,5,8,0:3:0:0:
169,352,164386,1,4,0:3:0:0:
57,247,164545,6,0,B|31:202|31:202|157:239,1,176,12|0,0:1|0:0,0:0:0:0:
367,183,165021,1,12,0:0:0:0:
439,238,165180,2,0,B|463:217|463:217|478:155,1,88,12|0,0:1|3:0,0:0:0:0:
496,54,165418,5,0,3:0:0:0:
493,62,165497,2,0,P|454:86|398:83,1,88,8|0,0:0|1:0,0:0:0:0:
343,49,165735,5,0,1:0:0:0:
337,55,165815,2,0,P|300:44|244:33,1,79.1999975830079,12|0,0:1|0:0,0:0:0:0:
163,132,166132,2,0,P|136:170|135:248,1,118.799996374512,8|0,0:0|0:0,0:0:0:0:
131,252,166450,2,0,P|85:269|51:283,1,79.1999975830079,10|8,0:1|0:1,0:0:0:0:
13,105,166767,1,8,0:0:0:0:
84,175,166926,1,0,0:0:0:0:
181,136,167085,6,0,B|264:150|243:198|317:210,1,158.399995166016,10|8,0:1|0:0,0:0:0:0:
388,271,167561,2,0,P|409:235|407:194,1,79.1999975830079,2|8,0:0|0:1,0:0:0:0:
372,56,167878,2,0,P|351:92|353:133,1,79.1999975830079,10|8,0:1|0:0,0:0:0:0:
444,117,168196,1,2,0:0:0:0:
316,209,168355,6,0,L|154:243,1,158.399995166016,8|8,0:1|0:0,0:0:0:0:
161,241,168831,1,2,0:0:0:0:
161,241,168989,2,0,P|180:288|185:332,1,79.1999975830079,10|8,0:1|0:1,0:0:0:0:
78,315,169307,2,0,P|58:360|30:395,1,79.1999975830079,8|0,0:0|0:0,0:0:0:0:
12,176,169624,6,0,B|61:168|95:177|95:177|121:153|161:144,1,158.399995166016,10|8,0:1|0:0,0:0:0:0:
289,196,170101,2,0,P|340:173|361:71,1,158.399995166016,2|10,0:0|0:1,0:0:0:0:
260,5,170577,2,0,P|267:46|285:85,1,79.1999975830079,8|2,0:0|0:0,0:0:0:0:
390,266,170894,6,0,L|472:282,1,79.1999975830079,10|0,0:1|0:0,0:0:0:0:
467,281,171212,1,8,0:0:0:0:
313,197,171370,2,0,B|253:208|253:208|230:232|230:232|147:249,1,158.399995166016,2|8,0:0|0:1,0:0:0:0:
31,178,171847,1,8,0:0:0:0:
167,244,172005,1,2,0:0:0:0:
56,287,172164,6,0,P|66:209|108:143,1,158.399995166016,10|8,0:1|0:0,0:0:0:0:
92,29,172640,2,0,P|135:53|176:69,1,79.1999975830079,2|8,0:0|0:1,0:0:0:0:
372,139,172958,1,10,0:1:0:0:
318,36,173116,2,0,P|298:75|281:121,1,79.1999975830079,8|2,0:0|0:0,0:0:0:0:
230,337,173434,6,0,B|253:228|183:257|201:151,1,193.600005908203,12|8,0:1|0:0,0:0:0:0:
56,287,173910,5,0,3:0:0:0:
56,287,173989,1,0,3:0:0:0:
56,287,174069,1,8,0:1:0:0:
180,252,174228,1,8,0:0:0:0:
304,218,174386,1,8,0:0:0:0:
387,287,174545,6,0,P|451:283|459:197,1,145.200004431152,12|0,0:1|0:0,0:0:0:0:
475,209,174862,2,0,P|477:184|482:155,1,48.4000014770508,8|0,1:1|1:0,0:0:0:0:
439,56,175021,1,8,0:0:0:0:
422,72,175100,1,8,0:0:0:0:
400,83,175179,1,8,0:0:0:0:
376,85,175259,1,8,0:0:0:0:
353,80,175339,2,0,L|341:25,1,48.4000014770508,8|0,1:1|0:0,0:0:0:0:
226,104,175497,5,8,0:0:0:0:
226,104,175577,1,8,0:0:0:0:
226,104,175656,2,0,L|211:163,1,48.4000014770508,8|8,0:3|0:3,0:0:0:0:
304,218,175815,2,0,L|312:266,1,48.4000014770508,4|4,0:3|0:3,0:0:0:0:
186,352,175974,5,12,0:1:0:0:
204,276,176132,1,2,0:0:0:0:
279,295,176291,1,8,0:0:0:0:
261,370,176450,1,0,3:0:0:0:
175,359,176609,2,0,P|137:348|98:340,1,79.1999975830079,10|8,0:1|0:1,0:0:0:0:
217,191,176926,2,0,P|203:239|196:278,1,79.1999975830079,8|0,0:0|0:0,0:0:0:0:
43,196,177243,6,0,P|19:122|52:52,1,158.399995166016,10|8,0:1|0:0,0:0:0:0:
172,106,177720,2,0,B|247:80|254:140|325:117,1,158.399995166016,10|8,0:1|0:1,0:0:0:0:
429,88,178196,2,0,P|435:49|446:1,1,79.1999975830079,8|2,0:0|0:0,0:0:0:0:
377,205,178514,5,8,0:1:0:0:
402,278,178672,1,2,0:0:0:0:
476,254,178831,1,8,0:0:0:0:
450,181,178989,1,8,0:1:0:0:
367,202,179148,2,0,P|328:212|283:226,1,79.1999975830079,2|8,0:0|0:1,0:0:0:0:
384,367,179466,2,0,P|389:325|397:288,1,79.1999975830079,8|0,0:0|0:0,0:0:0:0:
407,79,179783,6,0,P|399:105|412:81,1,79.1999975830079,10|0,0:1|0:0,0:0:0:0:
466,9,180101,1,8,0:0:0:0:
315,99,180259,2,0,B|279:101|244:86|244:86|209:97|209:97|161:85,1,158.399995166016,10|8,0:1|0:1,0:0:0:0:
48,16,180735,2,0,B|67:38|67:38|78:99,1,79.1999975830079,8|2,0:0|0:0,0:0:0:0:
19,283,181053,6,0,P|11:222|96:182,1,158.399995166016,8|8,0:1|0:0,0:0:0:0:
86,179,181529,1,8,0:1:0:0:
86,179,181688,2,0,P|100:224|105:264,1,79.1999975830079,2|8,0:0|0:1,0:0:0:0:
195,356,182005,2,0,P|201:316|212:279,1,79.1999975830079,8|0,0:0|0:0,0:0:0:0:
393,194,182323,6,0,P|431:187|470:176,1,79.1999975830079,10|0,0:1|0:0,0:0:0:0:
336,307,182640,6,0,P|374:313|413:324,1,79.1999975830079,10|8,0:0|0:1,0:0:0:0:
141,106,182958,6,0,P|188:95|234:81,1,88,2|8,0:0|0:1,0:0:0:0:
212,279,183275,6,0,P|206:237|195:183,1,88,10|0,0:0|0:0,0:0:0:0:
291,23,183593,6,0,P|329:57|359:165,1,158.399995166016,10|8,0:1|0:0,0:0:0:0:
300,231,184069,1,10,0:1:0:0:
433,318,184228,2,0,P|475:327|517:339,1,79.1999975830079,2|8,0:0|0:1,0:0:0:0:
332,384,184545,2,0,P|336:344|344:305,1,79.1999975830079,8|0,0:0|3:0,0:0:0:0:
273,142,184862,5,8,0:1:0:0:
212,214,185021,1,8,0:1:0:0:
100,159,185180,1,8,0:0:0:0:
7,271,185339,2,0,L|99:249,1,79.1999975830079,10|0,0:1|0:0,0:0:0:0:
176,307,185656,5,8,0:1:0:0:
95,169,185815,1,8,0:0:0:0:
219,66,185974,1,0,3:0:0:0:
26,126,186132,5,12,0:1:0:0:
180,207,186291,1,2,0:0:0:0:
180,207,186450,2,0,P|220:194|259:183,1,79.1999975830079,8|8,0:0|0:1,0:0:0:0:
390,157,186767,2,0,P|402:103|410:76,1,79.1999975830079,2|8,0:0|0:1,0:0:0:0:
321,17,187085,2,0,P|312:56|302:94,1,79.1999975830079,8|0,0:0|0:0,0:0:0:0:
341,247,187402,6,0,P|383:294|496:284,1,158.399995166016,10|8,0:1|0:0,0:0:0:0:
512,229,187878,1,10,0:1:0:0:
376,333,188037,2,0,B|295:321|302:370|214:358,1,158.399995166016,2|8,0:0|0:0,0:0:0:0:
161,308,188513,1,0,3:0:0:0:
100,375,188672,5,8,0:1:0:0:
161,300,188831,2,0,P|171:260|181:215,1,79.1999975830079,2|8,0:0|0:0,0:0:0:0:
56,57,189148,1,10,0:1:0:0:
18,154,189307,2,0,P|58:141|116:130,1,79.1999975830079,2|8,0:0|0:1,0:0:0:0:
199,59,189624,2,0,P|234:69|275:78,1,79.1999975830079,8|0,0:0|0:0,0:0:0:0:
434,142,189942,6,0,B|477:99|461:28|461:28|428:54,1,158.399995166016,10|8,0:1|0:0,0:0:0:0:
342,139,190418,1,10,0:1:0:0:
416,219,190577,2,0,P|470:233|508:247,1,79.1999975830079,2|8,0:0|0:1,0:0:0:0:
338,361,190894,2,0,P|346:321|359:273,1,79.1999975830079,8|0,0:0|3:0,0:0:0:0:
234,179,191212,6,0,B|179:188|179:188|148:208|148:208|58:224,1,158.399995166016,8|8,0:1|0:0,0:0:0:0:
4,167,191688,1,10,0:1:0:0:
72,69,191847,2,0,B|98:90|98:90|115:146,1,79.1999975830079,2|8,0:0|0:1,0:0:0:0:
238,254,192164,2,0,B|224:223|224:223|236:165,1,79.1999975830079,8|0,0:0|3:0,0:0:0:0:
370,120,192482,6,0,L|464:137,1,79.1999975830079,10|8,0:1|0:1,0:0:0:0:
337,329,192799,2,0,L|243:346,1,79.1999975830079,8|8,0:0|0:1,0:0:0:0:
94,180,193116,1,2,0:0:0:0:
210,254,193275,1,8,0:1:0:0:
154,378,193434,1,8,0:0:0:0:
19,243,193593,5,0,3:0:0:0:
19,243,193672,1,0,3:0:0:0:
19,243,193751,2,0,P|77:289|188:263,1,184.799994360352,12|8,0:1|0:0,0:0:0:0:
256,93,194228,2,0,P|237:43|218:3,1,92.3999971801759,8|0,0:1|0:0,0:0:0:0:
136,156,194545,1,10,0:1:0:0:
263,184,194704,1,8,0:0:0:0:
390,212,194862,1,2,0:0:0:0:
332,132,195021,5,10,0:1:0:0:
192,226,195180,1,8,0:1:0:0:
310,300,195339,5,8,0:0:0:0:
274,201,195497,1,8,0:3:0:0:
388,365,195656,5,4,0:3:0:0:
388,365,195735,1,0,3:0:0:0:
388,365,195815,2,0,P|420:373|456:384,1,46.1999985900879,8|8,0:0|0:0,0:0:0:0:
286,220,195974,2,0,L|193:236,1,92.3999971801759,8|4,0:3|0:3,0:0:0:0:
25,163,196291,5,12,0:1:0:0:
76,358,196450,1,0,3:3:0:0:
145,298,196609,1,8,0:0:0:0:
95,224,196767,1,4,0:3:0:0:
229,334,196926,5,12,0:1:0:0:
16,263,197085,1,0,3:0:0:0:
168,133,197243,1,8,0:0:0:0:
85,366,197402,1,8,0:1:0:0:
3,157,197561,6,0,P|60:173|109:191,1,92.3999971801759,12|0,0:1|0:0,0:0:0:0:
251,109,197878,1,8,0:0:0:0:
255,86,197957,1,0,3:0:0:0:
252,63,198036,1,0,3:0:0:0:
243,42,198116,1,0,3:0:0:0:
228,26,198195,5,8,1:0:0:0:
247,68,198274,1,0,1:0:0:0:
277,102,198355,1,8,0:0:0:0:
317,125,198433,1,8,0:0:0:0:
362,135,198512,1,8,1:0:0:0:
408,130,198593,1,0,1:0:0:0:
450,111,198672,2,0,P|460:91|470:65,1,46.1999985900879,8|8,0:0|0:0,0:0:0:0:
380,1,198831,6,0,P|339:80|340:176,1,184.799994360352,12|8,0:1|0:0,0:0:0:0:
390,354,199307,1,0,3:0:0:0:
390,354,199386,1,0,3:0:0:0:
390,354,199466,1,8,0:1:0:0:
487,303,199624,2,0,B|466:278|466:278|399:257,1,92.3999971801759,2|8,0:0|0:0,0:0:0:0:
210,302,199942,1,2,0:0:0:0:
287,371,200101,6,0,L|314:188,1,184.799994360352,8|8,0:1|0:0,0:0:0:0:
163,89,200577,1,2,0:0:0:0:
229,21,200735,2,0,B|251:45|251:45|260:117,1,92.3999971801759,8|10,0:1|0:1,0:0:0:0:
162,225,201053,1,8,0:0:0:0:
258,104,201212,1,2,0:0:0:0:
56,153,201370,6,0,B|138:165|138:165|150:177|150:177|238:191,1,184.799994360352,8|8,0:1|0:0,0:0:0:0:
454,196,201847,1,0,3:0:0:0:
361,231,202005,2,0,B|343:265|343:265|338:328,1,92.3999971801759,8|8,0:1|0:1,0:0:0:0:
258,104,202323,1,8,0:0:0:0:
357,132,202482,1,2,0:0:0:0:
251,104,202640,2,0,L|238:2,1,92.3999971801759,8|0,0:1|0:0,0:0:0:0:
43,152,202958,5,8,0:0:0:0:
170,75,203116,1,0,3:0:0:0:
121,234,203275,1,10,0:1:0:0:
52,142,203434,1,10,0:1:0:0:
211,235,203593,1,8,0:0:0:0:
107,335,203752,1,2,0:0:0:0:
113,224,203910,6,0,B|216:228|187:291|289:296,1,184.799994360352,10|8,0:1|0:0,0:0:0:0:
472,189,204386,1,0,3:0:0:0:
395,122,204545,2,0,B|377:158|377:158|371:218,1,92.3999971801759,8|8,0:1|0:1,0:0:0:0:
423,373,204862,1,8,0:0:0:0:
451,285,205021,5,2,0:0:0:0:
451,285,205101,1,2,0:0:0:0:
451,285,205180,2,0,L|312:313,1,138.599995770264,10|0,0:1|0:0,0:0:0:0:
243,286,205497,2,0,B|229:318|229:318|225:375,1,92.3999971801759,8|0,0:0|3:0,0:0:0:0:
146,184,205815,2,0,B|152:151|152:151|146:88,1,92.3999971801759,10|8,0:1|0:1,0:0:0:0:
12,290,206132,2,0,L|110:270,1,92.3999971801759,8|0,0:0|0:0,0:0:0:0:
250,201,206450,6,0,P|271:120|237:13,1,184.799994360352,10|8,0:1|0:0,0:0:0:0:
388,148,206926,1,2,0:0:0:0:
388,148,207005,1,2,0:0:0:0:
388,148,207085,2,0,L|485:162,1,92.3999971801759,10|8,0:1|0:1,0:0:0:0:
246,222,207402,1,12,0:0:0:0:
304,335,207561,2,0,B|322:311|322:311|330:247,1,92.3999971801759,2|12,0:0|0:1,0:0:0:0:
300,92,207878,5,10,0:1:0:0:
231,226,208037,1,12,0:0:0:0:
92,168,208196,1,4,0:3:0:0:
143,78,208355,5,8,0:3:0:0:
162,90,208434,1,0,3:0:0:0:
177,107,208513,1,8,0:0:0:0:
186,128,208593,1,8,0:0:0:0:
189,151,208672,1,8,0:0:0:0:
71,310,208831,5,0,3:0:0:0:
71,310,208910,1,8,0:0:0:0:
71,310,208989,2,0,B|113:301|113:301|139:318|170:323|170:323|205:314,1,138.599995770264,12|0,0:1|0:0,0:0:0:0:
278,292,209307,2,0,B|301:321|301:321|378:344,1,92.3999971801759,8|2,0:0|0:0,0:0:0:0:
429,376,209545,1,2,0:0:0:0:
429,376,209624,2,0,L|451:278,1,92.3999971801759,10|8,0:1|0:1,0:0:0:0:
356,128,209942,2,0,B|348:173|348:173|367:221,1,92.3999971801759,8|0,0:0|0:0,0:0:0:0:
449,166,210259,5,10,0:1:0:0:
449,166,210418,1,8,0:1:0:0:
274,197,210577,2,0,B|209:191|205:230|127:224,1,138.599995770264,10|0,0:0|0:0,0:0:0:0:
129,220,210894,2,0,B|110:179|110:179|119:126,1,92.3999971801759,10|8,0:1|0:1,0:0:0:0:
253,283,211212,2,0,B|272:324|272:324|263:377,1,92.3999971801759,8|0,0:0|3:0,0:0:0:0:
185,337,211450,5,0,3:0:0:0:
185,337,211529,2,0,L|371:302,2,184.799994360352,10|8|8,0:1|0:0|0:1,0:0:0:0:
8,185,212323,1,10,0:1:0:0:
147,254,212482,1,8,0:0:0:0:
30,355,212640,1,8,0:3:0:0:
64,264,212799,5,8,0:1:0:0:
133,354,212958,1,10,0:1:0:0:
246,277,213116,1,12,0:0:0:0:
330,376,213275,1,8,0:1:0:0:
283,213,213434,5,8,0:3:0:0:
283,213,213513,1,8,0:3:0:0:
283,213,213593,2,0,P|273:235|266:257,1,46.1999985900879,4|4,0:3|0:3,0:0:0:0:
380,184,213751,1,8,0:0:0:0:
382,160,213830,1,8,0:0:0:0:
377,138,213909,1,4,0:3:0:0:
366,118,213989,1,4,0:3:0:0:
350,101,214068,1,12,0:1:0:0:
411,276,214228,6,0,L|506:300,1,92.3999971801759,2|8,0:0|0:0,0:0:0:0:
273,171,214545,2,0,B|221:188|221:188|171:177|171:177|131:206|99:208,1,184.799994360352,12|8,0:1|0:1,0:0:0:0:
10,379,215021,2,0,P|44:340|89:330,1,92.3999971801759,8|8,0:0|0:3,0:0:0:0:
162,354,215259,5,4,0:3:0:0:
162,354,215339,2,0,L|177:302,1,46.1999985900879,8|0,0:3|0:0,0:0:0:0:
99,208,215497,2,0,L|107:253,1,46.1999985900879,4|0,0:3|0:0,0:0:0:0:
259,294,215656,2,0,L|318:311,1,46.1999985900879,8|0,0:1|0:0,0:0:0:0:
162,354,215815,2,0,L|129:156,1,184.799994360352,12|8,0:1|0:1,0:0:0:0:
80,38,216291,2,0,B|71:72|71:72|27:123,1,92.3999971801759,8|8,0:0|0:1,0:0:0:0:
232,192,216609,5,12,0:0:0:0:
325,208,216767,1,8,0:1:0:0:
418,224,216926,1,8,0:1:0:0:
279,279,217085,5,12,0:0:0:0:
340,190,217243,1,4,0:3:0:0:
262,115,217402,1,8,0:1:0:0:
371,308,217561,5,12,0:0:0:0:
229,203,217720,1,8,0:1:0:0:
353,79,217878,1,4,0:3:0:0:
176,84,218037,5,12,0:0:0:0:
347,214,218196,1,4,0:3:0:0:
463,33,218355,1,8,0:1:0:0:
254,110,218513,5,8,0:3:0:0:
467,178,218672,1,4,0:3:0:0:
467,178,218751,1,8,0:3:0:0:
467,178,218831,1,8,0:1:0:0:
271,354,218989,2,0,L|279:307,1,46.1999985900879,4|4,0:3|0:3,0:0:0:0:
347,204,219148,5,12,0:1:0:0:
183,300,219307,1,0,1:0:0:0:
347,214,219466,1,8,0:0:0:0:
241,121,219624,2,0,B|236:167|236:167|251:210,1,92.3999971801759,12|0,0:1|0:0,0:0:0:0:
104,362,219942,2,0,B|109:316|109:316|93:272,1,92.3999971801759,12|0,0:0|0:0,0:0:0:0:
0,152,220259,6,0,L|102:177,1,92.3999971801759,12|0,0:1|0:0,0:0:0:0:
347,214,220577,1,10,0:1:0:0:
262,299,220735,2,0,B|246:255|246:255|251:209,1,92.3999971801759,12|0,0:0|0:0,0:0:0:0:
322,55,221053,5,8,1:3:0:0:
173,187,221212,1,8,0:1:0:0:
435,47,221370,1,4,1:3:0:0:
173,187,221688,6,0,B|93:199|93:199|139:131|139:131|102:57|102:57|183:80|183:80|240:23|240:23|243:106|243:106|315:144|315:144|237:172|237:172|224:252|224:252|193:210,1,791.999975830079,12|0,0:1|0:0,0:0:0:0:
308,243,223434,5,2,0:0:0:0:
308,243,223593,2,0,P|325:280|332:295,1,44,2|0,0:0|0:0,0:0:0:0:
244,325,223910,2,0,P|238:346|235:368,1,44,2|8,0:0|0:1,0:0:0:0:
430,369,224228,6,0,B|531:337|523:210|473:165|405:178|371:246|427:288,1,330.000012588501,12|0,0:1|0:0,0:0:0:0:
420,282,225180,1,0,3:0:0:0:
339,337,225339,6,0,P|310:330|273:323,1,66.0000025177003,8|0,0:3|0:0,0:0:0:0:
136,189,225656,6,0,P|148:220|164:273,1,88,8|4,0:3|0:3,0:0:0:0:
339,337,226132,1,8,0:0:0:0:
264,282,226291,5,8,0:3:0:0:
246,321,226450,1,4,0:3:0:0:
250,363,226609,1,8,0:1:0:0:
315,169,226767,6,0,B|270:125|207:150|204:218|232:271|310:305|423:240|342:215|402:171|460:175|501:209|497:272|497:272|477:232|437:220,1,528.000020141602,12|0,0:1|0:0,0:0:0:0:
512,145,228196,5,4,0:3:0:0:
512,145,228275,1,4,0:3:0:0:
512,145,228355,1,8,0:3:0:0:
408,295,228513,2,0,P|401:315|396:337,1,44,8|4,0:3|0:3,0:0:0:0:
303,380,228831,5,8,0:3:0:0:
271,310,228989,1,4,0:3:0:0:
195,270,229148,1,8,0:0:0:0:
106,265,229307,5,12,0:1:0:0:
249,186,229466,1,8,0:0:0:0:
249,186,229624,1,8,0:3:0:0:
186,367,229783,2,0,B|179:334|179:334|189:281,1,88,12|0,0:1|3:0,0:0:0:0:
102,95,230101,1,8,0:0:0:0:
189,280,230259,1,8,0:0:0:0:
41,181,230418,6,0,B|93:190|93:190|139:173|139:173|183:197|230:193,1,193.600005908203,12|8,0:1|0:1,0:0:0:0:
408,102,230894,1,8,0:0:0:0:
408,102,230974,1,8,0:1:0:0:
408,102,231053,2,0,P|412:80|423:50,1,48.4000014770508,8|0,0:1|3:0,0:0:0:0:
314,14,231212,5,8,0:3:0:0:
294,48,231291,1,0,1:0:0:0:
292,87,231370,1,8,0:0:0:0:
308,124,231450,1,8,0:0:0:0:
337,151,231529,1,4,0:3:0:0:
366,177,231609,1,0,1:0:0:0:
382,214,231689,1,8,0:0:0:0:
380,253,231768,1,8,0:0:0:0:
361,287,231847,6,0,L|385:117,1,138.599995770264,12|0,0:1|0:0,0:0:0:0:
431,95,232164,2,0,B|457:121|457:121|466:175,1,92.3999971801759,8|0,0:0|3:0,0:0:0:0:
415,346,232482,1,10,0:1:0:0:
265,270,232640,1,2,0:0:0:0:
330,210,232799,1,10,0:0:0:0:
279,372,232958,1,2,0:0:0:0:
134,226,233116,6,0,P|143:135|200:64,2,184.799994360352,10|8|10,0:1|0:0|0:1,0:0:0:0:
187,306,233910,1,10,0:1:0:0:
57,369,234069,1,10,0:0:0:0:
0,218,234228,1,2,0:0:0:0:
90,295,234386,6,0,B|192:304|159:358|257:370,1,184.799994360352,10|10,0:1|0:0,0:0:0:0:
117,208,234862,2,0,P|110:168|98:116,1,92.3999971801759,2|8,0:0|0:1,0:0:0:0:
203,28,235180,2,0,P|211:73|221:118,1,92.3999971801759,10|8,0:1|0:0,0:0:0:0:
455,278,235497,5,0,3:0:0:0:
455,278,235577,1,0,3:0:0:0:
455,278,235656,2,0,P|416:251|320:242,1,138.599995770264,10|0,0:1|0:0,0:0:0:0:
260,281,235974,2,0,B|243:324|243:324|256:379,1,92.3999971801759,10|0,0:0|0:0,0:0:0:0:
381,156,236291,1,10,0:1:0:0:
320,50,236450,1,8,0:1:0:0:
391,160,236609,2,0,L|497:178,1,92.3999971801759,8|0,0:0|1:0,0:0:0:0:
458,89,236847,5,0,1:0:0:0:
458,89,236926,2,0,B|393:98|393:98|359:128|359:128|277:144,1,184.799994360352,12|8,0:1|0:0,0:0:0:0:
139,59,237402,2,0,L|39:39,1,92.3999971801759,2|8,0:0|0:1,0:0:0:0:
246,21,237720,1,10,0:1:0:0:
161,155,237878,1,8,0:0:0:0:
224,246,238037,1,2,0:0:0:0:
164,327,238196,6,0,B|145:303|145:303|132:235,1,92.3999971801759,8|8,0:1|0:1,0:0:0:0:
71,164,238513,1,8,0:0:0:0:
229,255,238672,1,8,0:3:0:0:
71,339,238831,5,8,0:1:0:0:
71,339,238910,1,4,0:3:0:0:
71,339,238989,2,0,L|60:389,1,46.1999985900879,8|8,0:3|0:3,0:0:0:0:
0,239,239148,2,0,L|50:248,1,46.1999985900879,4|4,0:3|0:3,0:0:0:0:
161,155,239307,2,0,L|172:105,1,46.1999985900879,4|4,0:3|0:3,0:0:0:0:
10,20,239466,5,12,0:1:0:0:
71,164,239624,1,0,1:0:0:0:
174,76,239783,1,8,0:0:0:0:
94,82,239942,1,4,0:3:0:0:
244,147,240101,5,12,0:1:0:0:
87,71,240259,1,8,0:1:0:0:
300,30,240418,1,8,0:0:0:0:
230,250,240577,1,4,0:3:0:0:
161,155,240735,6,0,L|222:140,1,46.1999985900879,12|0,0:1|3:0,0:0:0:0:
305,202,240894,2,0,L|349:213,1,46.1999985900879,0|0,1:0|1:0,0:0:0:0:
465,149,241053,2,0,L|472:103,1,46.1999985900879,8|0,0:0|3:0,0:0:0:0:
505,257,241212,2,0,L|512:302,1,46.1999985900879,0|0,1:0|1:0,0:0:0:0:
363,363,241370,6,0,L|369:308,1,46.1999985900879,12|0,0:1|3:3,0:0:0:0:
395,83,241529,1,8,0:0:0:0:
395,75,241608,1,8,0:0:0:0:
396,67,241687,1,8,1:0:0:0:
397,60,241767,1,0,1:0:0:0:
398,52,241846,1,8,0:0:0:0:
399,44,241925,1,8,0:0:0:0:
400,37,242005,2,0,L|388:135,1,92.3999971801759,12|0,0:1|0:0,0:0:0:0:
235,245,242323,5,10,0:0:0:0:
50,181,242482,1,2,0:0:0:0:
246,242,242640,1,10,0:1:0:0:
44,172,242799,2,0,B|21:214|21:214|23:266,1,92.3999971801759,10|8,0:1|0:0,0:0:0:0:
152,384,243116,6,0,B|160:325|160:325|143:277|143:277|158:192,1,184.799994360352,10|8,0:1|0:1,0:0:0:0:
65,41,243593,2,0,P|106:91|177:95,1,138.599995770264,10|0,0:0|0:0,0:0:0:0:
244,63,243910,2,0,B|297:72|280:93|330:104,1,92.3999971801759,10|8,0:1|0:1,0:0:0:0:
431,196,244228,2,0,B|476:186|459:165|512:156,1,92.3999971801759,10|0,0:0|0:0,0:0:0:0:
297,211,244545,6,0,P|262:253|255:385,1,184.799994360352,10|8,0:1|0:0,0:0:0:0:
252,378,245021,1,2,3:0:0:0:
431,322,245180,2,0,P|394:297|334:292,1,92.3999971801759,10|8,0:1|0:1,0:0:0:0:
163,304,245497,1,10,0:0:0:0:
297,211,245656,6,0,P|332:169|339:37,1,184.799994360352,10|10,0:1|0:1,0:0:0:0:
239,1,246132,1,8,0:0:0:0:
267,118,246291,1,2,0:0:0:0:
171,56,246450,1,8,0:1:0:0:
357,134,246609,1,10,0:1:0:0:
228,253,246767,1,8,0:0:0:0:
262,110,246926,1,2,0:0:0:0:
155,198,247085,6,0,P|121:245|122:339,1,138.599995770264,8|0,0:1|0:0,0:0:0:0:
191,376,247402,2,0,B|206:333|206:333|197:278,1,92.3999971801759,10|2,0:0|3:0,0:0:0:0:
34,203,247720,1,10,0:1:0:0:
56,105,247878,2,0,L|41:204,1,92.3999971801759,10|8,0:1|0:0,0:0:0:0:
198,287,248196,6,0,B|247:283|294:301|294:301|321:270|363:250,1,184.799994360352,10|10,0:1|0:1,0:0:0:0:
490,372,248672,2,0,B|447:363|447:363|441:360|441:360|381:349,1,92.3999971801759,10|0,0:0|3:0,0:0:0:0:
270,155,248989,1,10,0:1:0:0:
290,59,249148,1,8,0:1:0:0:
263,166,249307,2,0,L|167:188,1,92.3999971801759,10|0,0:0|0:0,0:0:0:0:
26,52,249624,6,0,B|57:63|107:50|107:50|148:75|148:75|202:67,1,184.799994360352,10|8,0:1|0:0,0:0:0:0:
360,135,250101,1,2,0:0:0:0:
410,32,250259,5,10,0:1:0:0:
263,166,250418,1,8,0:0:0:0:
460,243,250577,1,8,0:0:0:0:
354,147,250735,6,0,B|251:155|288:233|185:243,1,202.400003860474,12|8,0:1|0:1,0:0:0:0:
6,60,251212,2,0,B|67:71|67:71|102:54,1,101.200001930237,8|0,0:0|3:0,0:0:0:0:
263,166,251529,1,10,0:1:0:0:
244,149,251608,1,0,3:0:0:0:
221,137,251687,1,8,0:0:0:0:
196,133,251767,1,8,0:0:0:0:
171,136,251846,1,8,0:0:0:0:
78,306,252005,1,10,0:1:0:0:
186,244,252164,6,0,B|251:256|251:256|263:262|263:262|336:275,1,138.599995770264,12|0,0:1|0:0,0:0:0:0:
396,255,252482,2,0,B|407:294|407:294|396:357,1,92.3999971801759,8|0,0:0|3:0,0:0:0:0:
483,191,252799,1,10,0:1:0:0:
321,272,252958,1,10,0:1:0:0:
321,92,253116,1,8,0:0:0:0:
386,165,253275,1,2,0:0:0:0:
239,36,253434,5,10,0:1:0:0:
420,87,253593,1,0,0:0:0:0:
308,189,253751,2,0,B|297:150|297:150|308:87,1,92.3999971801759,8|0,0:0|3:0,0:0:0:0:
141,0,254069,2,0,B|152:39|152:39|141:102,1,92.3999971801759,10|8,0:1|0:1,0:0:0:0:
92,179,254386,1,8,0:0:0:0:
0,133,254545,1,2,0:0:0:0:
58,268,254704,5,10,0:1:0:0:
168,215,254862,1,8,0:1:0:0:
164,338,255021,1,8,0:0:0:0:
85,173,255180,1,10,0:1:0:0:
262,228,255339,1,4,0:3:0:0:
160,348,255497,1,8,0:3:0:0:
212,132,255656,1,8,0:0:0:0:
258,247,255815,6,0,P|323:298|450:291,1,184.799994360352,12|8,0:1|0:1,0:0:0:0:
502,191,256291,2,0,P|463:199|410:219,1,92.3999971801759,8|2,0:0|0:0,0:0:0:0:
307,336,256609,1,8,0:1:0:0:
241,237,256767,5,8,0:0:0:0:
216,260,256846,1,8,0:0:0:0:
200,291,256925,1,8,0:3:0:0:
196,325,257005,1,8,0:3:0:0:
203,359,257085,2,0,L|247:385,1,46.1999985900879,4|4,0:3|0:3,0:0:0:0:
304,182,257243,6,0,B|266:199|222:187|222:187|186:211|186:211|122:207,1,184.799994360352,12|8,0:1|0:0,0:0:0:0:
48,59,257720,2,0,B|99:21|99:21|65:157,1,184.799994360352,10|8,0:1|0:1,0:0:0:0:
37,341,258196,2,0,B|29:294|29:294|52:252,1,92.3999971801759,8|0,0:0|0:0,0:0:0:0:
161,128,258513,6,0,P|219:208|208:312,2,184.799994360352,12|8|10,0:1|0:0|0:1,0:0:0:0:
130,208,259307,1,10,0:1:0:0:
275,144,259466,1,10,0:0:0:0:
212,0,259624,1,2,0:0:0:0:
177,138,259783,6,0,B|219:160|219:160|263:151,1,92.3999971801759,10|0,0:1|3:0,0:0:0:0:
105,287,260101,2,0,B|9:307,1,92.3999971801759,8|8,0:0|0:3,0:0:0:0:
289,345,260418,1,10,0:1:0:0:
209,289,260577,2,0,B|192:334|192:334|198:377,1,92.3999971801759,10|8,0:1|0:0,0:0:0:0:
444,276,260894,6,0,P|476:215|465:97,1,184.799994360352,12|10,0:1|0:1,0:0:0:0:
346,24,261370,2,0,P|352:74|369:116,1,92.3999971801759,10|0,0:0|0:0,0:0:0:0:
287,225,261688,1,10,0:1:0:0:
367,112,261847,1,8,0:1:0:0:
209,165,262005,2,0,P|167:153|108:142,1,92.3999971801759,10|0,0:0|0:0,0:0:0:0:
41,73,262323,5,10,0:1:0:0:
98,229,262482,1,8,0:1:0:0:
37,295,262640,2,0,B|13:267|13:267|2:188,1,92.3999971801759,8|4,0:0|0:3,0:0:0:0:
119,143,262958,1,8,0:1:0:0:
68,372,263116,1,8,0:0:0:0:
181,213,263275,1,8,0:0:0:0:
94,238,263434,6,0,B|131:248|166:239|166:239|196:275|196:275|236:277|271:295,1,184.799994360352,12|8,0:1|0:1,0:0:0:0:
477,226,263910,1,8,0:0:0:0:
374,184,264069,2,0,P|339:131|341:4,1,184.799994360352,12|8,0:1|0:1,0:0:0:0:
482,234,264545,2,0,P|475:285|456:341,1,92.3999971801759,10|8,0:0|0:3,0:0:0:0:
353,374,264862,5,10,0:0:0:0:
460,137,265021,1,8,0:1:0:0:
288,208,265180,1,8,0:3:0:0:
382,279,265339,1,4,0:3:0:0:
382,279,265418,1,4,0:3:0:0:
382,279,265497,1,10,0:1:0:0:
319,119,265656,1,8,0:3:0:0:
186,228,265815,1,4,0:3:0:0:
115,0,265974,5,12,0:1:0:0:
256,192,266053,12,0,268672,0:0:0:0:
113,210,269466,6,0,L|67:201,2,46.1999985900879,0|0|4,0:0|0:0|0:0,0:0:0:0:
124,218,269942,6,0,P|183:157|173:72,2,176,12|8|8,0:1|0:0|0:1,0:0:0:0:
278,374,270735,1,8,0:1:0:0:
242,274,270894,1,8,0:0:0:0:
334,218,271053,6,0,B|419:202|427:257|513:233,1,176,12|8,0:1|0:1,0:0:0:0:
473,147,271529,1,8,0:0:0:0:
379,302,271688,1,2,0:0:0:0:
460,363,271847,1,10,0:1:0:0:
460,363,272005,1,8,0:1:0:0:
322,229,272164,2,0,P|278:243|235:251,1,88,8|2,0:0|0:0,0:0:0:0:
137,166,272482,6,0,P|127:100|207:21,2,176,8|8|8,0:1|0:0|0:1,0:0:0:0:
236,250,273275,1,8,0:1:0:0:
171,327,273434,1,8,0:0:0:0:
236,157,273593,6,0,B|278:174|321:168|321:168|357:192|357:192|422:194,1,176,12|8,0:1|0:1,0:0:0:0:
511,291,274069,2,0,P|466:303|422:322,1,88,8|0,0:0|3:0,0:0:0:0:
333,129,274386,2,0,P|341:86|352:38,1,88,8|8,0:3|0:0,0:0:0:0:
373,66,274624,1,8,0:0:0:0:
373,66,274704,1,8,0:3:0:0:
373,66,274783,1,8,0:3:0:0:
373,66,274862,1,4,0:3:0:0:
373,66,274942,1,4,0:3:0:0:
373,66,275021,6,0,P|331:111|184:125,1,193.600005908203,12|8,0:1|0:0,0:0:0:0:
0,204,275497,2,0,B|72:199|64:248|141:248,1,145.200004431152,12|0,0:1|0:0,0:0:0:0:
135,247,275815,1,8,0:1:0:0:
252,367,275974,2,0,P|266:315|275:268,1,96.8000029541017,8|4,0:0|0:3,0:0:0:0:
274,265,276212,1,4,0:3:0:0:
272,258,276291,6,0,P|240:265|213:275,1,48.4000014770508,8|0,0:3|0:0,0:0:0:0:
344,194,276450,2,0,P|360:223|366:248,1,48.4000014770508,8|0,0:3|0:0,0:0:0:0:
424,346,276609,2,0,P|431:323|444:302,1,48.4000014770508,4|0,0:3|0:0,0:0:0:0:
339,199,276767,2,0,P|336:123|417:19,1,193.600005908203,12|8,0:1|0:1,0:0:0:0:
508,176,277243,2,0,P|464:166|416:147,1,79.1999975830079,8|4,0:0|0:3,0:0:0:0:
310,112,277561,6,0,B|293:154|255:163|231:127|212:162|212:162|233:180|256:147|291:163|311:202|316:240|281:280|245:282|212:259|212:259|200:299|168:318|116:300|95:263|107:213|144:224|143:193|143:193|101:185|120:226|81:251|39:257|4:241|-12:197|5:157|42:142|42:142|11:110|10:66|56:35|106:33|139:80|114:115|150:118|150:118|169:89|122:86|112:33|127:-2|160:-23|220:-12|235:13|232:55|232:55|267:35|295:50|308:69|308:69|397:14|478:3|575:91|540:203|469:311|401:359|389:230|329:352|267:383|178:403|219:310|124:295|41:362|41:362|43:328|74:293,1,2218.03988831281,12|0,0:1|0:0,0:0:0:0:
