osu file format v14

[General]
AudioFilename: audio.mp3
AudioLeadIn: 0
PreviewTime: 150220
Countdown: 0
SampleSet: Soft
StackLeniency: 0.7
Mode: 0
LetterboxInBreaks: 0
WidescreenStoryboard: 1

[Editor]
DistanceSpacing: 1
BeatDivisor: 4
GridSize: 32
TimelineZoom: 1

[Metadata]
Title:Kimi ni Todoke
TitleUnicode:きみにとどけ
Artist:Tachibana Arisu (CV: Satou Amina)
ArtistUnicode:橘ありす (CV: 佐藤亜美菜)
Creator:CoLouRed GlaZeE
Version:Normal
Source:アイドルマスターシンデレラガールズ
Tags:anime 君に届け japanese video game 佐藤亜美菜 Satou Amina さとうあみな THE IDOLMASTER 谷澤智文 タニザワトモフミ Tomofumi Tanizawa IDOLM@STER CINDERELLA GIRLS Cool jewelries! 003 AKB48 OniJAM
BeatmapID:2388818
BeatmapSetID:1142335

[Difficulty]
HPDrainRate:4
CircleSize:3
OverallDifficulty:4
ApproachRate:5
SliderMultiplier:1
SliderTickRate:2

[Events]
//Background and Video events
0,0,"bg.jpg",0,0
//Break Periods
2,59765,68841
2,120717,134556
2,151194,161222
//Storyboard Layer 0 (Background)
//Storyboard Layer 1 (Fail)
//Storyboard Layer 2 (Pass)
//Storyboard Layer 3 (Foreground)
//Storyboard Layer 4 (Overlay)
//Storyboard Sound Samples

[TimingPoints]
518,476.190476190476,4,2,1,30,1,0
4327,-100,4,2,1,40,0,0
29089,-100,4,2,1,60,0,1
44208,-100,4,2,1,60,0,0
44327,-100,4,2,1,60,0,1
55756,-100,4,2,1,50,0,0
69089,-100,4,2,1,50,0,0
69922,-100,4,2,1,5,0,0
70041,-100,4,2,1,50,0,0
93851,-100,4,2,1,60,0,1
108970,-100,4,2,1,60,0,0
109089,-100,4,2,1,60,0,1
120517,-100,4,2,1,50,0,0
120756,-100,4,2,1,45,0,0
135517,-100,4,2,1,50,0,0
139922,-100,4,2,1,5,0,0
140041,-100,4,2,1,50,0,0
145637,-100,4,2,1,5,0,0
145756,-100,4,2,1,50,0,0
150994,-100,4,2,1,30,0,0
160994,-100,4,2,1,35,0,0
161470,-100,4,2,1,40,0,0
161946,-100,4,2,1,55,0,0
162740,-100,4,2,1,60,0,0
162978,-100,4,2,1,5,0,0
163057,-100,4,2,1,60,0,0
163295,-100,4,2,1,5,0,0
163375,-100,4,2,1,60,0,0
166232,-100,4,2,1,60,0,1
181470,-100,4,2,1,50,0,0
196708,-100,4,2,1,30,0,0
198613,-100,4,2,1,15,0,0

[Colours]
Combo1 : 71,199,170
Combo2 : 236,89,122
Combo3 : 62,181,202
Combo4 : 235,167,116

[HitObjects]
71,306,518,6,0,L|37:349,2,50,2|2|2,0:0|0:0|0:0,0:0:0:0:
135,229,1470,2,0,L|132:166,2,50,2|2|2,0:0|0:0|0:0,0:0:0:0:
207,298,2422,2,0,L|245:336,2,50,2|2|2,0:0|0:0|0:0,0:0:0:0:
246,205,3375,2,0,L|357:176,1,100,2|0,0:0|0:0,0:0:0:0:
398,96,4327,6,0,B|371:42|310:34,1,100,2|2,0:0|0:0,0:0:0:0:
276,34,5041,1,0,0:0:0:0:
276,34,5279,2,0,L|158:49,1,100,2|2,0:0|0:0,0:0:0:0:
76,38,6232,2,0,B|66:106|75:150,1,100,2|2,0:0|0:0,0:0:0:0:
89,190,6946,1,0,0:0:0:0:
89,190,7184,2,0,L|38:227,2,50,2|0|2,0:0|0:0|0:0,0:0:0:0:
178,144,8137,6,0,B|221:172|290:168,1,100,2|2,0:0|0:0,0:0:0:0:
315,141,8851,2,0,B|365:121|436:131,1,100,2|0,0:0|0:0,0:0:0:0:
461,141,9565,1,2,0:0:0:0:
508,240,10041,1,2,0:0:0:0:
508,240,10279,1,2,0:0:0:0:
508,240,10517,1,2,0:0:0:0:
427,299,10994,2,0,L|419:348,2,50,2|4|2,0:0|0:0|0:0,0:0:0:0:
375,213,11946,6,0,B|338:249|277:247,1,100,2|2,0:0|0:0,0:0:0:0:
242,230,12660,1,0,0:0:0:0:
242,230,12898,2,0,L|143:252,1,100,2|2,0:0|0:0,0:0:0:0:
48,221,13851,2,0,L|34:273,2,50,2|0|2,0:0|0:0|0:0,0:0:0:0:
69,178,14565,1,0,0:0:0:0:
69,178,14803,2,0,B|88:121|63:64,1,100,2|2,0:0|0:0,0:0:0:0:
160,39,15756,6,0,L|265:52,1,100,2|2,0:0|0:0,0:0:0:0:
306,34,16470,2,0,B|320:90|307:148,1,100,2|2,0:0|0:0,0:0:0:0:
298,181,17184,1,2,0:0:0:0:
199,199,17660,2,0,L|151:174,2,50,2|2|2,0:0|0:0|0:0,0:0:0:0:
271,284,18613,1,2,0:0:0:0:
271,284,18851,1,4,0:0:0:0:
271,284,19089,1,2,0:0:0:0:
366,256,19565,6,0,L|465:226,1,100,2|2,0:0|0:0,0:0:0:0:
496,133,20517,2,0,L|514:82,2,50,2|0|2,0:0|0:0|0:0,0:0:0:0:
450,142,21232,1,2,0:0:0:0:
450,142,21470,2,0,B|395:147|348:142,1,100,2|2,0:0|0:0,0:0:0:0:
275,75,22422,2,0,L|265:14,2,50,2|0|2,0:0|0:0|0:0,0:0:0:0:
195,135,23375,5,2,0:0:0:0:
263,223,23851,1,2,0:0:0:0:
263,223,24089,1,2,0:0:0:0:
263,223,24327,2,0,B|226:262|166:261,1,100,2|2,0:0|0:0,0:0:0:0:
124,249,25041,1,0,1:0:0:0:
71,170,25517,5,0,1:0:0:0:
71,170,25756,2,0,L|54:117,1,50,0|0,1:0|1:0,0:0:0:0:
96,92,26232,1,0,1:0:0:0:
96,92,26470,2,0,L|113:39,1,50,0|0,1:0|1:0,0:0:0:0:
157,25,26946,1,0,1:0:0:0:
256,35,27422,6,0,L|313:47,1,50,8|0,1:3|1:0,0:0:0:0:
403,60,28137,2,0,B|434:63|473:49,2,50,4|0|0,1:3|1:0|1:0,0:0:0:0:
331,130,29089,5,4,3:1:0:0:
426,186,29565,1,0,1:0:0:0:
426,186,29803,1,0,0:0:0:0:
426,186,30041,2,0,B|454:232|436:297,1,100,0|0,3:0|1:0,0:0:0:0:
416,327,30756,1,2,0:0:0:0:
323,356,31232,1,2,0:0:0:0:
323,356,31470,2,0,L|212:340,1,100,0|0,1:0|3:0,0:0:0:0:
125,323,32422,1,0,1:0:0:0:
76,248,32898,5,0,3:0:0:0:
76,248,33137,1,0,0:0:0:0:
76,248,33375,2,0,L|26:224,2,50,0|0|0,1:0|0:0|3:0,0:0:0:0:
167,207,34327,1,0,1:0:0:0:
261,253,34803,1,0,3:0:0:0:
261,253,35041,2,0,L|379:276,1,100,0|0,3:0|3:0,0:0:0:0:
459,246,35994,1,0,3:0:0:0:
459,246,36232,1,0,1:0:0:0:
498,154,36708,6,0,B|516:99|498:43,1,100,0|0,3:0|1:0,0:0:0:0:
456,34,37422,2,0,L|345:24,1,100,0|0,0:0|0:0,0:0:0:0:
306,26,38137,2,0,L|264:72,1,50,0|0,1:0|3:0,0:0:0:0:
237,99,38613,1,0,3:0:0:0:
160,34,39089,1,0,1:0:0:0:
60,38,39565,1,0,3:0:0:0:
113,124,40041,1,0,1:0:0:0:
145,218,40517,6,0,B|87:226|45:194,2,100,0|0|0,3:0|1:0|3:0,0:0:0:0:
197,207,41708,1,0,3:0:0:0:
197,207,41946,2,0,B|238:195|263:198,1,50,0|0,1:0|3:0,0:0:0:0:
295,193,42422,1,4,1:0:0:0:
266,291,42898,1,0,1:0:0:0:
266,291,43137,2,0,B|284:339|344:362,1,100,4|4,1:0|0:0,0:0:0:0:
385,363,43851,1,0,1:0:0:0:
479,330,44327,5,4,3:1:0:0:
446,248,44803,1,0,1:0:0:0:
446,248,45041,1,0,0:0:0:0:
446,248,45279,2,0,B|459:199|450:137,1,100,0|0,3:0|1:0,0:0:0:0:
443,99,45994,1,2,0:0:0:0:
364,46,46470,1,2,0:0:0:0:
364,46,46708,2,0,L|304:38,1,50,0|2,1:0|0:0,0:0:0:0:
265,31,47184,1,2,3:2:0:0:
287,128,47660,1,2,1:2:0:0:
188,109,48137,5,0,3:0:0:0:
127,44,48613,1,0,1:0:0:0:
127,44,48851,1,0,0:0:0:0:
127,44,49089,1,0,3:0:0:0:
36,79,49565,1,0,1:0:0:0:
36,79,49803,2,0,B|20:130|32:181,1,100,0|0,3:0|3:0,0:0:0:0:
48,224,50517,1,0,1:0:0:0:
138,181,50994,2,0,B|184:214|247:205,1,100,0|0,3:0|1:0,0:0:0:0:
324,163,51946,5,4,3:2:0:0:
324,163,52184,2,0,L|370:144,1,50,0|0,0:0|1:0,0:0:0:0:
415,122,52660,2,0,B|435:169|423:235,1,100,2|2,0:0|0:0,0:0:0:0:
383,311,53613,2,0,B|331:321|264:315,1,100,4|0,3:1|3:0,0:0:0:0:
234,307,54327,1,0,1:0:0:0:
137,280,54803,2,0,L|111:329,2,50,0|8|0,1:0|3:0|1:0,0:0:0:0:
155,181,55756,1,4,0:1:0:0:
256,192,55994,12,0,59565,3:0:0:0:
197,289,70041,6,0,L|308:280,1,100,8|0,3:0|1:0,0:0:0:0:
387,237,70994,1,6,0:0:0:0:
430,146,71470,1,0,1:0:0:0:
375,62,71946,2,0,L|387:9,2,50,2|0|0,0:0|0:0|1:0,0:0:0:0:
275,62,72898,1,2,0:0:0:0:
199,127,73375,1,0,1:0:0:0:
107,86,73851,2,0,L|100:28,2,50,2|0|0,0:0|0:0|1:0,0:0:0:0:
30,149,74803,6,0,L|45:253,1,100,2|0,0:0|1:0,0:0:0:0:
91,263,75517,2,0,B|138:288|200:281,1,100,0|0,3:0|3:0,0:0:0:0:
237,274,76232,1,0,1:0:0:0:
328,229,76708,1,2,0:0:0:0:
328,229,76946,2,0,L|339:159,2,50,0|0|0,0:0|1:0|0:0,0:0:0:0:
318,278,77660,1,2,0:0:0:0:
393,343,78137,1,0,1:0:0:0:
473,284,78613,5,2,0:0:0:0:
487,185,79089,1,0,1:0:0:0:
434,100,79565,2,0,B|450:70|454:36,2,50,2|0|0,0:0|0:0|1:0,0:0:0:0:
335,118,80517,1,2,0:0:0:0:
380,207,80994,1,0,1:0:0:0:
318,285,81470,2,0,B|316:316|332:349,2,50,2|0|0,0:0|0:0|1:0,0:0:0:0:
227,326,82422,6,0,B|176:339|122:341,1,100,2|0,0:0|1:0,0:0:0:0:
79,328,83137,2,0,L|50:228,1,100,0|0,3:0|3:0,0:0:0:0:
71,186,83851,1,0,1:0:0:0:
125,102,84327,2,0,B|94:86|66:86,2,50,2|0|0,0:0|0:0|1:0,0:0:0:0:
178,115,85041,1,0,0:0:0:0:
178,115,85279,1,2,0:0:0:0:
239,35,85756,1,0,1:0:0:0:
328,79,86232,6,0,B|380:88|442:78,1,100,6|0,0:0|1:0,0:0:0:0:
509,136,87184,1,2,0:0:0:0:
458,225,87660,1,0,1:0:0:0:
458,225,87898,1,2,0:0:0:0:
458,225,88137,2,0,B|404:219|352:225,1,100,2|0,0:0|1:0,0:0:0:0:
281,289,89089,2,0,B|285:321|283:352,2,50,2|2|0,0:0|0:0|1:0,0:0:0:0:
219,210,90041,5,2,0:0:0:0:
297,147,90517,1,0,1:0:0:0:
297,147,90756,1,2,0:0:0:0:
297,147,90994,2,0,B|310:98|292:43,1,100,2|0,0:0|1:0,0:0:0:0:
249,24,91708,1,4,1:2:0:0:
161,68,92184,5,0,1:0:0:0:
161,68,92422,2,0,L|113:44,1,50,0|0,1:0|1:0,0:0:0:0:
67,54,92898,2,0,L|19:30,2,50,0|0|0,1:0|1:0|1:0,0:0:0:0:
92,150,93851,5,4,3:1:0:0:
199,167,94327,1,0,1:0:0:0:
199,167,94565,1,0,0:0:0:0:
199,167,94803,2,0,B|265:174|312:170,1,100,0|0,3:0|1:0,0:0:0:0:
347,158,95517,1,2,0:0:0:0:
439,114,95994,1,2,0:0:0:0:
439,114,96232,2,0,B|447:171|438:229,1,100,0|0,1:0|3:0,0:0:0:0:
405,307,97184,1,0,1:0:0:0:
313,326,97660,5,0,3:0:0:0:
313,326,97898,1,0,0:0:0:0:
313,326,98137,2,0,L|295:377,2,50,0|0|0,1:0|0:0|3:0,0:0:0:0:
333,228,99089,1,0,1:0:0:0:
307,136,99565,1,0,3:0:0:0:
307,136,99803,2,0,B|255:104|203:99,1,100,0|0,3:0|0:0,0:0:0:0:
119,88,100756,1,0,3:0:0:0:
119,88,100994,1,0,1:0:0:0:
29,132,101470,6,0,L|13:232,1,100,0|0,3:0|1:0,0:0:0:0:
38,273,102184,2,0,L|138:258,1,100,0|0,3:0|0:0,0:0:0:0:
184,242,102898,2,0,L|232:262,1,50,0|0,1:0|0:0,0:0:0:0:
276,281,103375,1,0,3:0:0:0:
321,191,103851,1,0,1:0:0:0:
230,147,104327,1,0,3:0:0:0:
280,60,104803,1,0,1:0:0:0:
378,40,105279,6,0,B|436:32|484:50,2,100,0|0|0,3:0|1:0|3:0,0:0:0:0:
385,94,106470,1,0,3:0:0:0:
385,94,106708,2,0,B|394:124|383:167,1,50,0|0,1:0|3:0,0:0:0:0:
369,190,107184,1,4,1:0:0:0:
285,145,107660,1,0,1:0:0:0:
285,145,107898,2,0,B|223:133|189:101,1,100,4|4,1:0|3:0,0:0:0:0:
167,63,108613,1,0,1:0:0:0:
69,39,109089,5,4,3:1:0:0:
32,136,109565,1,0,1:0:0:0:
32,136,109803,1,0,3:0:0:0:
32,136,110041,2,0,B|82:142|134:141,1,100,0|0,3:0|1:0,0:0:0:0:
181,133,110756,1,2,0:0:0:0:
280,105,111232,1,2,0:0:0:0:
280,105,111470,2,0,B|312:101|341:100,1,50,0|2,1:0|0:0,0:0:0:0:
379,103,111946,1,2,0:0:0:0:
477,117,112422,1,0,1:0:0:0:
494,215,112898,5,0,3:0:0:0:
402,229,113375,1,0,1:0:0:0:
402,229,113613,1,0,0:0:0:0:
402,229,113851,1,0,3:0:0:0:
314,192,114327,1,0,1:0:0:0:
314,192,114565,2,0,B|256:175|195:173,1,100,0|2,3:0|0:0,0:0:0:0:
165,175,115279,1,0,1:0:0:0:
64,171,115756,2,0,B|57:229|62:276,1,100,0|0,3:0|1:0,0:0:0:0:
144,335,116708,5,0,3:0:0:0:
144,335,116946,2,0,L|199:343,1,50,0|0,0:0|1:0,0:0:0:0:
240,323,117422,2,0,B|288:339|348:332,1,100,2|2,0:0|0:0,0:0:0:0:
417,270,118375,2,0,B|425:205|416:158,1,100,4|0,3:1|3:0,0:0:0:0:
411,120,119089,1,4,1:2:0:0:
321,74,119565,2,0,L|330:14,2,50,0|8|4,1:0|3:0|3:0,0:0:0:0:
223,94,120517,1,4,0:1:0:0:
212,268,135756,6,0,L|325:282,1,100,2|0,0:0|3:0,0:0:0:0:
405,245,136708,1,2,0:0:0:0:
439,151,137184,1,0,3:0:0:0:
382,68,137660,2,0,B|322:69|280:14,2,100,2|0|2,0:0|3:0|0:0,0:0:0:0:
476,35,139089,1,0,3:0:0:0:
510,129,139565,6,0,L|495:236,1,100,2|0,0:0|3:0,0:0:0:0:
452,252,140279,2,0,B|404:266|345:262,1,100,2|0,0:0|0:0,0:0:0:0:
305,247,140994,2,0,L|251:231,2,50,0|0|2,3:0|0:0|0:0,0:0:0:0:
334,342,141946,1,0,3:0:0:0:
237,368,142422,1,2,0:0:0:0:
158,306,142898,1,0,3:0:0:0:
163,205,143375,6,0,B|177:149|160:92,1,100,2|0,0:0|3:0,0:0:0:0:
239,40,144327,2,0,B|293:49|342:41,1,100,2|0,0:0|3:0,0:0:0:0:
438,40,145279,1,2,0:0:0:0:
445,139,145756,1,0,3:0:0:0:
345,147,146232,1,2,0:0:0:0:
351,246,146708,1,0,3:0:0:0:
257,281,147184,6,0,B|198:295|138:282,1,100,4|0,0:1|3:0,0:0:0:0:
114,273,147898,1,2,0:0:0:0:
114,273,148137,1,0,0:0:0:0:
43,202,148613,1,0,3:0:0:0:
104,123,149089,1,2,0:0:0:0:
256,192,149327,12,2,150994,0:0:0:0:
256,192,162422,12,4,164327,1:0:0:0:
358,209,165041,6,0,B|371:161|362:106,1,100,4|8,1:0|3:0,0:0:0:0:
354,60,165756,1,0,1:0:0:0:
256,38,166232,6,0,B|187:48|149:46,1,100,4|0,3:1|1:0,0:0:0:0:
111,41,166946,1,0,0:0:0:0:
111,41,167184,2,0,L|44:27,2,50,0|0|0,3:0|0:0|1:0,0:0:0:0:
139,81,167898,1,2,0:0:0:0:
185,176,168375,1,2,0:0:0:0:
185,176,168613,2,0,L|136:208,1,50,0|2,1:0|0:0,0:0:0:0:
96,186,169089,1,2,3:2:0:0:
61,279,169565,1,0,1:0:0:0:
134,347,170041,5,0,3:0:0:0:
238,328,170517,1,0,1:0:0:0:
238,328,170756,1,0,0:0:0:0:
238,328,170994,1,0,3:0:0:0:
276,238,171470,1,0,1:0:0:0:
276,238,171708,2,0,B|332:220|385:219,1,100,0|0,3:0|0:0,0:0:0:0:
423,219,172422,1,0,1:0:0:0:
462,127,172898,2,0,L|519:119,2,50,4|0|0,1:2|1:0|1:0,0:0:0:0:
378,82,173851,5,4,3:1:0:0:
378,82,174089,2,0,B|336:76|312:70,1,50,0|0,3:0|1:0,0:0:0:0:
292,38,174565,2,0,B|245:49|186:55,1,100,0|0,3:0|3:0,0:0:0:0:
94,37,175517,2,0,B|109:93|107:141,1,100,0|0,3:0|3:0,0:0:0:0:
103,185,176232,2,0,B|99:217|90:246,1,50,4|8,1:2|3:0,0:0:0:0:
80,282,176708,1,4,1:0:0:0:
157,344,177184,1,0,1:0:0:0:
229,275,177660,5,4,1:2:0:0:
229,275,177898,2,0,B|259:289|285:292,1,50,4|4,1:3|1:3,0:0:0:0:
326,292,178375,1,4,1:2:0:0:
404,229,178851,1,4,1:3:0:0:
404,229,179089,1,0,1:0:0:0:
404,229,179327,2,0,B|391:174|395:120,1,100,0|0,1:0|3:0,0:0:0:0:
401,80,180041,1,0,1:0:0:0:
305,75,180517,1,0,1:0:0:0:
305,75,180756,2,0,B|308:41|307:12,2,50,0|0|4,1:0|1:0|1:3,0:0:0:0:
292,123,181470,5,4,0:1:0:0:
199,161,181946,2,0,L|151:144,1,50,0|2,1:0|0:0,0:0:0:0:
105,126,182422,2,0,B|97:188|101:246,1,100,2|0,0:0|1:0,0:0:0:0:
124,323,183375,1,2,0:0:0:0:
210,271,183851,1,0,1:0:0:0:
210,271,184089,2,0,B|266:288|308:284,1,100,2|2,0:0|0:0,0:0:0:0:
357,272,184803,2,0,B|388:265|413:256,1,50,0|0,1:0|1:0,0:0:0:0:
447,231,185279,5,4,0:0:0:0:
478,135,185756,2,0,B|439:143|412:144,1,50,0|2,1:0|0:0,0:0:0:0:
381,125,186232,2,0,B|323:115|278:101,1,100,2|0,0:0|1:0,0:0:0:0:
199,47,187184,1,2,0:0:0:0:
190,150,187660,1,0,1:0:0:0:
190,150,187898,2,0,B|182:203|188:258,1,100,2|2,0:0|0:0,0:0:0:0:
199,298,188613,1,0,1:0:0:0:
113,350,189089,5,4,0:0:0:0:
62,263,189565,2,0,B|60:227|63:204,1,50,0|2,1:0|0:0,0:0:0:0:
80,166,190041,2,0,B|87:114|76:67,1,100,2|0,0:0|1:0,0:0:0:0:
170,34,190994,1,2,0:0:0:0:
271,61,191470,1,0,1:0:0:0:
271,61,191708,2,0,L|378:47,1,100,2|2,0:0|0:0,0:0:0:0:
419,40,192422,1,0,1:0:0:0:
476,121,192898,5,2,0:0:0:0:
385,148,193375,1,0,1:0:0:0:
385,148,193613,1,4,0:0:0:0:
385,148,193851,1,0,1:0:0:0:
368,246,194327,1,4,3:0:0:0:
451,301,194803,1,4,0:1:0:0:
256,192,195041,12,0,198613,0:0:0:0:
