osu file format v14

[General]
AudioFilename: audio.mp3
AudioLeadIn: 0
PreviewTime: 150220
Countdown: 0
SampleSet: Soft
StackLeniency: 0.7
Mode: 0
LetterboxInBreaks: 0
WidescreenStoryboard: 1

[Editor]
DistanceSpacing: 1
BeatDivisor: 4
GridSize: 16
TimelineZoom: 1

[Metadata]
Title:Kimi ni Todoke
TitleUnicode:きみにとどけ
Artist:Tachibana Arisu (CV: Satou Amina)
ArtistUnicode:橘ありす (CV: 佐藤亜美菜)
Creator:CoLouRed GlaZeE
Version:Insane
Source:アイドルマスターシンデレラガールズ
Tags:anime 君に届け japanese video game 佐藤亜美菜 Satou Amina さとうあみな THE IDOLMASTER 谷澤智文 タニザワトモフミ Tomofumi Tanizawa IDOLM@STER CINDERELLA GIRLS Cool jewelries! 003 AKB48 OniJAM
BeatmapID:2385664
BeatmapSetID:1142335

[Difficulty]
HPDrainRate:6
CircleSize:4
OverallDifficulty:7
ApproachRate:8
SliderMultiplier:1.6
SliderTickRate:2

[Events]
//Background and Video events
0,0,"bg.jpg",0,0
//Break Periods
//Storyboard Layer 0 (Background)
//Storyboard Layer 1 (Fail)
//Storyboard Layer 2 (Pass)
//Storyboard Layer 3 (Foreground)
//Storyboard Layer 4 (Overlay)
//Storyboard Sound Samples

[TimingPoints]
518,476.190476190476,4,2,1,30,1,0
3375,-125,4,2,1,30,0,0
4327,-100,4,2,1,40,0,0
29089,-83.3333333333333,4,2,1,60,0,1
43732,-83.3333333333333,4,2,1,5,0,1
43851,-83.3333333333333,4,2,1,60,0,1
44208,-83.3333333333333,4,2,1,60,0,0
44327,-83.3333333333333,4,2,1,60,0,1
55756,-100,4,2,1,50,0,0
69089,-166.666666666667,4,2,1,50,0,0
69922,-166.666666666667,4,2,1,5,0,0
70041,-100,4,2,1,50,0,0
93851,-83.3333333333333,4,2,1,60,0,1
108970,-83.3333333333333,4,2,1,60,0,0
109089,-83.3333333333333,4,2,1,60,0,1
120517,-166.666666666667,4,2,1,50,0,0
120756,-166.666666666667,4,2,1,45,0,0
135517,-125,4,2,1,50,0,0
139922,-125,4,2,1,5,0,0
140041,-125,4,2,1,50,0,0
150994,-125,4,2,1,30,0,0
160994,-117.647058823529,4,2,1,35,0,0
161470,-111.111111111111,4,2,1,40,0,0
161946,-100,4,2,1,55,0,0
162740,-95.2380952380952,4,2,1,60,0,0
162978,-95.2380952380952,4,2,1,5,0,0
163057,-90.9090909090909,4,2,1,60,0,0
163295,-90.9090909090909,4,2,1,5,0,0
163375,-90.9090909090909,4,2,1,60,0,0
166232,-83.3333333333333,4,2,1,60,0,1
181470,-100,4,2,1,50,0,0
196708,-100,4,2,1,30,0,0
198613,-100,4,2,1,15,0,0

[Colours]
Combo1 : 71,199,170
Combo2 : 236,89,122
Combo3 : 62,181,202
Combo4 : 235,167,116

[HitObjects]
93,314,518,6,0,B|136:314|178:324,1,80,2|2,0:0|0:0,0:0:0:0:
236,251,994,2,0,B|189:251|147:241,1,80,2|0,0:0|0:0,0:0:0:0:
101,148,1470,2,0,B|149:151|185:161,1,80,2|2,0:0|0:0,0:0:0:0:
231,87,1946,2,0,B|175:82|136:65,1,80,2|0,0:0|0:0,0:0:0:0:
32,74,2422,5,2,0:0:0:0:
32,74,2660,1,2,0:0:0:0:
37,155,2898,1,2,0:0:0:0:
37,155,3137,1,0,0:0:0:0:
48,235,3375,2,0,B|15:278|41:342|104:339,1,128,2|0,0:0|0:0,0:0:0:0:
349,306,4327,6,0,B|291:340|211:284,1,120,2|0,0:0|0:0,0:0:0:0:
246,270,4803,2,0,B|214:236|222:183,1,80,2|0,0:0|0:0,0:0:0:0:
246,64,5279,2,0,B|278:96|276:145,1,80,2|0,0:0|0:0,0:0:0:0:
315,213,5756,1,2,0:0:0:0:
402,223,5994,1,0,0:0:0:0:
468,168,6232,6,0,B|466:121|500:81,1,80,2|0,0:0|0:0,0:0:0:0:
481,287,6708,2,0,B|470:334|419:347,1,80,2|0,0:0|0:0,0:0:0:0:
360,182,7184,2,0,B|340:136|358:87,1,80,2|0,0:0|0:0,0:0:0:0:
344,309,7660,2,0,B|307:332|255:318,1,80,2|0,0:0|0:0,0:0:0:0:
159,209,8137,5,2,0:0:0:0:
159,209,8375,2,0,B|118:184|60:195,1,80,2|2,0:0|0:0,0:0:0:0:
163,102,8851,2,0,B|216:131|293:97|290:16,1,160,2|0,0:0|0:0,0:0:0:0:
287,43,9565,1,2,0:0:0:0:
259,199,9803,1,0,0:0:0:0:
341,162,10041,6,0,L|359:72,1,80,2|2,0:0|0:0,0:0:0:0:
239,281,10517,2,0,L|313:341,1,80,2|0,0:0|0:0,0:0:0:0:
428,265,10994,1,2,0:0:0:0:
489,198,11232,1,4,0:0:0:0:
477,110,11470,1,2,0:0:0:0:
386,99,11708,1,0,0:0:0:0:
309,148,11946,6,0,B|265:154|225:124,1,80,2|0,0:0|0:0,0:0:0:0:
106,36,12422,2,0,B|155:39|187:78,1,80,2|0,0:0|0:0,0:0:0:0:
177,196,12898,2,0,B|168:247|193:294,2,80,2|0|2,0:0|0:0|0:0,0:0:0:0:
269,225,13613,1,0,0:0:0:0:
333,152,13851,5,2,0:0:0:0:
420,247,14089,1,0,0:0:0:0:
433,135,14327,2,0,B|483:146|524:140,1,80,2|0,0:0|0:0,0:0:0:0:
420,247,14803,2,0,B|377:236|331:241,1,80,2|0,0:0|0:0,0:0:0:0:
230,129,15279,1,2,0:0:0:0:
322,131,15517,1,0,0:0:0:0:
202,225,15756,6,0,B|164:245|100:231,2,80,2|0|2,0:0|0:0|0:0,0:0:0:0:
294,279,16470,1,2,0:0:0:0:
294,279,16708,2,0,B|254:312|209:301,1,80,0|2,0:0|0:0,0:0:0:0:
400,334,17184,2,0,B|354:358|305:351,1,80,0|0,0:0|0:0,0:0:0:0:
389,174,17660,5,2,0:0:0:0:
473,201,17898,1,2,0:0:0:0:
389,174,18137,1,0,0:0:0:0:
453,105,18375,1,0,0:0:0:0:
389,174,18613,1,2,0:0:0:0:
361,86,18851,1,4,0:0:0:0:
314,251,19089,1,2,0:0:0:0:
403,269,19327,1,0,0:0:0:0:
309,162,19565,6,0,B|267:171|217:159,1,80,2|0,0:0|0:0,0:0:0:0:
162,104,20041,1,2,0:0:0:0:
118,183,20279,1,0,0:0:0:0:
42,107,20517,2,0,B|25:150|44:207,1,80,2|0,0:0|0:0,0:0:0:0:
99,274,20994,1,2,0:0:0:0:
179,314,21232,5,2,0:0:0:0:
179,314,21351,1,2,0:0:0:0:
179,314,21470,2,0,L|266:308,1,80,2|0,0:0|0:0,0:0:0:0:
305,245,21946,2,0,B|349:223|380:192,1,80,2|0,0:0|0:0,0:0:0:0:
400,128,22422,2,0,L|436:53,1,80,2|0,0:0|0:0,0:0:0:0:
434,55,22898,1,2,0:0:0:0:
480,130,23137,1,0,0:0:0:0:
445,217,23375,6,0,B|430:264|449:308,2,80,2|0|2,0:0|0:0|0:0,0:0:0:0:
361,264,24089,1,2,0:0:0:0:
361,264,24208,1,2,0:0:0:0:
361,264,24327,2,0,L|274:281,1,80,2|0,0:0|0:0,0:0:0:0:
202,260,24803,1,2,0:0:0:0:
94,172,25041,6,0,B|73:126|97:74,1,80,0|4,1:0|0:0,0:0:0:0:
148,31,25517,1,0,1:0:0:0:
233,51,25756,1,0,1:0:0:0:
173,119,25994,1,0,1:0:0:0:
310,181,26232,1,0,1:0:0:0:
259,276,26470,1,0,1:0:0:0:
310,181,26708,1,0,1:0:0:0:
401,330,26946,2,0,B|438:345|496:348,1,80,0|0,1:0|0:0,0:0:0:0:
486,164,27422,5,8,1:3:0:0:
470,160,27541,1,0,1:0:0:0:
454,160,27660,1,0,1:0:0:0:
438,165,27779,1,0,1:0:0:0:
424,174,27898,1,0,1:0:0:0:
296,155,28137,5,4,1:3:0:0:
305,185,28256,1,0,1:0:0:0:
301,216,28375,1,0,1:0:0:0:
286,244,28494,1,0,1:0:0:0:
268,270,28613,1,0,1:0:0:0:
262,301,28732,1,0,1:0:0:0:
265,332,28851,1,8,1:3:0:0:
100,357,29089,6,0,B|116:307|102:259,1,95.9999970703126,4|0,3:1|0:0,0:0:0:0:
115,74,29565,1,0,1:0:0:0:
53,174,29803,1,0,0:0:0:0:
166,209,30041,2,0,B|217:236|272:230,1,95.9999970703126,0|0,3:0|0:0,0:0:0:0:
338,179,30517,1,0,1:0:0:0:
439,87,30756,6,0,B|513:103|533:196|470:240,1,191.999994140625,2|2,0:0|0:0,0:0:0:0:
450,327,31470,2,0,B|407:307|349:313,1,95.9999970703126,0|0,1:0|0:0,0:0:0:0:
258,321,31946,1,0,3:0:0:0:
169,353,32184,1,0,3:0:0:0:
222,157,32422,5,0,1:0:0:0:
170,275,32660,1,0,3:0:0:0:
38,291,32898,2,0,B|14:237|33:180,1,95.9999970703126,0|0,3:0|0:0,0:0:0:0:
0,109,33375,2,0,B|27:60|84:39,1,95.9999970703126,0|0,1:0|0:0,0:0:0:0:
169,37,33851,1,0,3:0:0:0:
288,114,34089,5,0,3:0:0:0:
385,102,34327,1,0,1:0:0:0:
452,34,34565,1,0,0:0:0:0:
430,183,34803,6,0,B|404:230|423:290,1,95.9999970703126,0|0,3:0|0:0,0:0:0:0:
498,330,35279,1,0,1:0:0:0:
308,356,35517,2,0,B|369:270|323:162,1,191.999994140625,0|0,3:0|3:0,0:0:0:0:
153,86,36232,5,0,1:0:0:0:
188,180,36470,1,0,3:0:0:0:
253,107,36708,2,0,B|306:103|350:66,1,95.9999970703126,0|0,3:0|0:0,0:0:0:0:
188,180,37184,1,0,1:0:0:0:
92,157,37422,2,0,B|42:160|1:194,1,95.9999970703126,0|0,0:0|3:0,0:0:0:0:
46,283,37898,5,0,0:0:0:0:
118,352,38137,1,0,1:0:0:0:
217,352,38375,1,0,3:0:0:0:
304,297,38613,2,0,B|360:276|431:274,1,95.9999970703126,0|0,3:0|0:0,0:0:0:0:
208,87,39089,2,0,B|152:108|81:110,1,95.9999970703126,0|0,1:0|0:0,0:0:0:0:
64,235,39565,5,0,3:0:0:0:
255,175,39803,1,0,3:0:0:0:
141,291,40041,1,0,1:0:0:0:
173,203,40279,1,0,0:0:0:0:
331,230,40517,6,0,B|382:252|444:240,1,95.9999970703126,0|0,3:0|0:0,0:0:0:0:
420,83,40994,2,0,B|371:64|313:72,1,95.9999970703126,0|0,1:0|0:0,0:0:0:0:
161,124,41470,1,0,3:0:0:0:
161,124,41708,2,0,B|138:74|153:24,1,95.9999970703126,0|0,3:0|1:0,0:0:0:0:
244,28,42184,1,0,3:0:0:0:
234,177,42422,6,0,B|331:191,1,95.9999970703126,4|0,1:0|3:0,0:0:0:0:
296,91,42898,1,0,1:0:0:0:
110,269,43137,2,0,B|207:283,1,95.9999970703126,4|0,1:0|3:0,0:0:0:0:
369,259,43613,6,0,L|337:305,1,47.9999985351563,4|0,0:0|0:0,0:0:0:0:
390,361,43851,2,0,L|361:315,1,47.9999985351563,0|0,1:0|1:0,0:0:0:0:
280,315,44089,2,0,L|336:318,1,47.9999985351563,8|0,3:0|0:0,0:0:0:0:
466,345,44327,6,0,B|488:293|467:226,1,95.9999970703126,4|0,3:1|0:0,0:0:0:0:
406,74,44803,2,0,B|386:119|402:175,1,95.9999970703126,0|0,1:0|0:0,0:0:0:0:
473,251,45279,1,0,3:0:0:0:
345,295,45517,2,0,B|303:321|247:322,1,95.9999970703126,0|0,3:0|1:0,0:0:0:0:
156,196,45994,2,0,B|101:199|54:176,2,95.9999970703126,2|0|2,0:0|3:0|0:0,0:0:0:0:
249,191,46708,1,0,1:0:0:0:
412,108,46946,5,2,0:0:0:0:
412,108,47065,1,2,0:0:0:0:
412,108,47184,2,0,L|399:207,1,95.9999970703126,2|0,3:2|0:0,0:0:0:0:
417,229,47541,1,2,0:0:0:0:
435,254,47660,2,0,L|422:353,1,95.9999970703126,2|2,1:2|0:0,0:0:0:0:
281,278,48137,6,0,B|231:301|171:291,1,95.9999970703126,0|0,3:0|0:0,0:0:0:0:
122,352,48613,1,0,1:0:0:0:
27,185,48851,1,0,0:0:0:0:
193,86,49089,1,0,3:0:0:0:
153,232,49327,5,0,3:0:0:0:
240,178,49565,1,0,1:0:0:0:
254,274,49803,1,0,0:0:0:0:
434,217,50041,5,0,3:0:0:0:
434,217,50279,2,0,B|441:156|431:101,1,95.9999970703126,0|0,3:0|1:0,0:0:0:0:
387,37,50756,1,2,0:0:0:0:
387,37,50875,1,2,0:0:0:0:
387,37,50994,1,0,3:0:0:0:
299,174,51232,2,0,B|291:226|296:277,1,95.9999970703126,2|0,0:0|1:0,0:0:0:0:
341,353,51708,1,2,0:0:0:0:
195,286,51946,6,0,B|90:268,1,95.9999970703126,4|0,3:2|0:0,0:0:0:0:
44,204,52422,1,0,1:0:0:0:
141,66,52660,5,2,0:0:0:0:
295,93,52898,1,4,3:0:0:0:
209,141,53137,5,2,0:0:0:0:
235,259,53375,1,0,1:0:0:0:
327,183,53613,2,0,B|384:178|435:183,2,95.9999970703126,4|0|0,3:1|3:0|3:0,0:0:0:0:
211,212,54327,6,0,B|157:216|105:212,1,95.9999970703126,0|0,1:0|0:0,0:0:0:0:
92,204,54684,1,0,1:0:0:0:
69,195,54803,1,0,1:0:0:0:
146,128,55041,5,8,3:0:0:0:
33,87,55279,1,0,1:0:0:0:
33,87,55398,1,0,1:0:0:0:
33,87,55517,1,0,1:0:0:0:
183,34,55756,1,4,0:1:0:0:
256,192,55994,12,0,59565,3:0:0:0:
88,237,60041,5,0,1:0:0:0:
173,196,60279,1,2,0:0:0:0:
173,196,60517,2,0,B|242:218|303:184,1,120,2|2,0:0|0:0,0:0:0:0:
290,190,60994,2,0,L|381:206,1,80,0|2,1:0|0:0,0:0:0:0:
453,132,61470,5,2,0:0:0:0:
371,112,61708,2,0,L|288:97,1,80,0|0,0:0|1:0,0:0:0:0:
184,34,62184,2,0,B|161:120|191:203,1,160,2|2,0:0|0:0,0:0:0:0:
323,243,62898,5,0,1:0:0:0:
142,281,63137,1,0,1:0:0:0:
313,347,63375,5,4,1:0:0:0:
313,347,63851,2,0,B|378:349|426:344,1,80,0|2,1:0|0:0,0:0:0:0:
219,333,64327,2,0,B|171:330|118:336,1,80,2|0,0:0|0:0,0:0:0:0:
120,342,64684,1,2,0:0:0:0:
101,350,64803,2,0,L|44:292,1,80,0|2,1:0|0:0,0:0:0:0:
17,148,65279,6,0,L|131:264,1,160,2|0,0:0|1:0,0:0:0:0:
266,231,65994,2,0,B|310:211|353:204,1,80,2|0,0:0|0:0,0:0:0:0:
431,222,66470,1,2,0:0:0:0:
373,284,66708,1,0,1:0:0:0:
341,206,66946,1,0,0:0:0:0:
477,157,67184,6,0,B|485:111|473:64,1,80,2|0,0:0|0:0,0:0:0:0:
360,31,67660,1,0,1:0:0:0:
382,140,67898,1,4,3:2:0:0:
382,140,68017,1,0,1:0:0:0:
382,140,68137,1,0,1:0:0:0:
282,93,68375,5,8,3:0:0:0:
278,218,68613,1,4,3:0:0:0:
398,177,68851,1,4,3:0:0:0:
410,264,69089,6,0,B|391:321|316:343|254:304,1,167.999994873047,4|0,0:0|0:0,0:0:0:0:
250,285,70041,2,0,B|213:302|187:300,1,40,8|0,3:0|3:0,0:0:0:0:
188,333,70279,2,0,B|163:331|140:314,1,40,0|0,1:0|1:0,0:0:0:0:
91,268,70517,1,0,1:0:0:0:
91,268,70637,1,0,1:0:0:0:
91,268,70756,1,4,3:0:0:0:
192,163,70994,6,0,B|207:106|209:64,1,80,6|0,0:0|0:0,0:0:0:0:
274,183,71470,2,0,B|324:195|357:199,1,80,0|0,1:0|0:0,0:0:0:0:
435,168,71946,1,2,0:0:0:0:
365,112,72184,1,0,0:0:0:0:
376,273,72422,1,0,1:0:0:0:
471,240,72660,1,0,0:0:0:0:
287,258,72898,6,0,B|294:308|290:348,1,80,2|0,0:0|0:0,0:0:0:0:
202,352,73375,1,0,1:0:0:0:
200,263,73613,1,0,0:0:0:0:
113,254,73851,2,0,B|107:207|112:166,1,80,2|0,0:0|0:0,0:0:0:0:
196,85,74327,1,0,1:0:0:0:
203,175,74565,1,0,0:0:0:0:
326,109,74803,5,2,0:0:0:0:
326,109,75041,2,0,B|393:114|437:107,1,80,0|0,0:0|1:0,0:0:0:0:
311,225,75517,2,0,B|236:234|133:219,1,160,0|0,3:0|3:0,0:0:0:0:
71,160,76232,1,0,1:0:0:0:
88,312,76470,5,0,0:0:0:0:
88,312,76589,1,0,0:0:0:0:
88,312,76708,1,2,0:0:0:0:
169,341,76946,2,0,B|223:353|266:345,1,80,0|0,0:0|1:0,0:0:0:0:
376,261,77422,1,0,0:0:0:0:
324,328,77660,5,2,0:0:0:0:
370,181,77898,1,0,0:0:0:0:
244,254,78137,2,0,B|178:262|132:262,1,80,0|0,1:0|0:0,0:0:0:0:
78,215,78613,5,2,0:0:0:0:
32,133,78851,1,0,0:0:0:0:
78,215,79089,1,0,1:0:0:0:
167,188,79327,1,0,0:0:0:0:
122,103,79565,1,2,0:0:0:0:
122,103,79803,1,0,0:0:0:0:
237,109,80041,6,0,B|288:112|335:109,1,80,0|0,1:0|0:0,0:0:0:0:
336,106,80398,1,2,0:0:0:0:
355,102,80517,2,0,L|409:18,1,80,2|0,0:0|0:0,0:0:0:0:
511,141,80994,2,0,L|502:245,1,80,0|0,1:0|0:0,0:0:0:0:
393,308,81470,2,0,L|303:257,1,80,2|0,0:0|0:0,0:0:0:0:
320,106,81946,5,0,1:0:0:0:
433,141,82184,1,0,0:0:0:0:
350,223,82422,1,2,0:0:0:0:
437,282,82660,2,0,B|486:285|518:257,1,80,0|0,0:0|1:0,0:0:0:0:
296,285,83137,2,0,B|204:264|139:336,1,160,0|0,3:0|3:0,0:0:0:0:
114,237,83851,2,0,L|137:149,1,80,0|0,1:0|0:0,0:0:0:0:
153,72,84327,5,2,0:0:0:0:
220,151,84565,1,0,0:0:0:0:
241,30,84803,1,0,1:0:0:0:
220,151,85041,1,0,0:0:0:0:
366,98,85279,5,2,0:0:0:0:
281,214,85517,1,4,0:0:0:0:
426,245,85756,1,0,1:0:0:0:
426,245,85875,1,0,1:0:0:0:
426,245,85994,1,8,3:0:0:0:
287,306,86232,6,0,B|235:316|180:313,1,80,6|0,0:0|0:0,0:0:0:0:
154,149,86708,2,0,B|204:138|252:143,1,80,0|0,1:0|0:0,0:0:0:0:
348,160,87184,1,2,0:0:0:0:
287,306,87422,1,2,0:0:0:0:
250,221,87660,1,0,1:0:0:0:
377,244,87898,5,2,0:0:0:0:
377,244,88017,1,2,0:0:0:0:
377,244,88137,2,0,B|435:255|477:246,1,80,2|0,0:0|0:0,0:0:0:0:
368,62,88613,1,0,1:0:0:0:
341,168,88851,1,0,0:0:0:0:
278,99,89089,2,0,L|205:109,2,40,2|2|2,0:0|0:0|0:0,0:0:0:0:
384,155,89565,1,0,1:0:0:0:
258,196,89803,1,0,0:0:0:0:
366,270,90041,6,0,B|355:319|369:355,1,80,2|0,0:0|0:0,0:0:0:0:
269,314,90517,1,0,1:0:0:0:
160,251,90756,1,2,0:0:0:0:
160,251,90875,1,2,0:0:0:0:
160,251,90994,1,2,0:0:0:0:
102,314,91232,1,0,0:0:0:0:
83,166,91470,1,0,1:0:0:0:
277,169,91708,6,0,L|355:193,1,80,4|0,1:2|0:0,0:0:0:0:
353,192,92184,1,0,1:0:0:0:
469,181,92422,1,0,1:0:0:0:
358,100,92660,5,0,1:0:0:0:
238,89,92898,1,0,1:0:0:0:
80,139,93137,5,0,1:0:0:0:
100,173,93256,1,0,1:0:0:0:
136,189,93375,1,0,1:0:0:0:
175,185,93494,1,0,1:0:0:0:
208,163,93613,1,4,1:3:0:0:
318,197,93851,6,0,B|302:250|314:297,1,95.9999970703126,4|0,3:1|0:0,0:0:0:0:
405,352,94327,1,0,1:0:0:0:
504,252,94565,1,0,0:0:0:0:
402,276,94803,1,0,3:0:0:0:
331,158,95041,1,0,3:0:0:0:
445,197,95279,1,0,1:0:0:0:
509,82,95517,5,2,0:0:0:0:
509,82,95637,1,2,0:0:0:0:
509,82,95756,1,0,3:0:0:0:
399,49,95994,2,0,B|352:70|296:61,1,95.9999970703126,2|0,0:0|1:0,0:0:0:0:
174,31,96470,2,0,L|214:183,1,143.999995605469,2|0,0:0|0:0,0:0:0:0:
236,192,96946,5,6,0:0:0:0:
112,107,97184,1,0,1:0:0:0:
293,134,97422,1,0,3:0:0:0:
367,179,97660,6,0,B|391:228|375:288,1,95.9999970703126,0|0,3:0|0:0,0:0:0:0:
324,345,98137,1,0,1:0:0:0:
410,358,98375,1,0,0:0:0:0:
241,251,98613,5,0,3:0:0:0:
230,353,98851,1,0,3:0:0:0:
241,251,99089,1,0,1:0:0:0:
127,298,99327,5,0,0:0:0:0:
83,202,99565,1,0,3:0:0:0:
230,174,99803,6,0,L|333:190,1,95.9999970703126,0|0,3:0|1:0,0:0:0:0:
402,129,100279,2,0,L|473:216,1,95.9999970703126,0|0,0:0|3:0,0:0:0:0:
489,298,100756,1,0,3:0:0:0:
396,273,100994,1,0,1:0:0:0:
295,352,101232,5,0,3:0:0:0:
225,277,101470,2,0,B|136:228|20:256,1,191.999994140625,0|0,3:0|1:0,0:0:0:0:
97,157,102184,2,0,B|125:113|119:57,2,95.9999970703126,0|0|0,3:0|3:0|0:0,0:0:0:0:
23,91,102898,1,0,1:0:0:0:
204,132,103137,5,0,0:0:0:0:
204,132,103256,1,0,0:0:0:0:
204,132,103375,2,0,B|281:136|371:110,1,143.999995605469,0|0,3:0|0:0,0:0:0:0:
375,92,103851,2,0,L|354:208,1,95.9999970703126,0|0,1:0|0:0,0:0:0:0:
325,341,104327,1,0,3:0:0:0:
421,232,104565,1,4,3:2:0:0:
270,282,104803,1,0,1:0:0:0:
204,195,105041,5,0,0:0:0:0:
204,195,105160,1,0,0:0:0:0:
204,195,105279,2,0,B|138:200|80:193,2,95.9999970703126,0|0|0,3:0|0:0|1:0,0:0:0:0:
298,171,105994,1,0,0:0:0:0:
358,98,106232,1,0,3:0:0:0:
382,214,106470,1,0,3:0:0:0:
291,59,106708,1,0,1:0:0:0:
434,130,106946,1,0,3:0:0:0:
242,132,107184,5,4,1:0:0:0:
273,291,107422,1,0,3:0:0:0:
409,217,107660,1,0,1:0:0:0:
217,205,107898,2,0,B|145:210|62:194,1,143.999995605469,4|0,1:0|0:0,0:0:0:0:
50,178,108375,1,4,3:0:0:0:
161,45,108613,5,0,1:0:0:0:
196,60,108732,1,0,1:0:0:0:
234,60,108851,1,4,3:0:0:0:
271,51,108970,1,0,3:0:0:0:
305,33,109089,2,0,B|372:25|422:31,1,95.9999970703126,4|0,3:1|0:0,0:0:0:0:
358,181,109565,1,0,1:0:0:0:
438,142,109803,1,0,3:0:0:0:
404,289,110041,2,0,B|340:296|289:288,1,95.9999970703126,0|0,3:0|0:0,0:0:0:0:
216,260,110517,1,0,1:0:0:0:
280,92,110756,6,0,B|383:60|469:107,1,191.999994140625,2|2,0:0|0:0,0:0:0:0:
366,195,111470,2,0,L|268:207,1,95.9999970703126,0|2,1:0|0:0,0:0:0:0:
246,191,111827,1,2,0:0:0:0:
221,176,111946,1,2,0:0:0:0:
98,226,112184,2,0,L|34:205,2,47.9999985351563,0|2|0,0:0|0:0|1:0,0:0:0:0:
203,307,112660,1,2,0:0:0:0:
142,107,112898,5,0,3:0:0:0:
184,229,113137,1,0,0:0:0:0:
315,115,113375,5,0,1:0:0:0:
406,138,113613,1,0,0:0:0:0:
370,29,113851,5,0,3:0:0:0:
391,274,114089,1,0,3:0:0:0:
495,145,114327,1,0,1:0:0:0:
333,192,114565,1,0,3:0:0:0:
419,199,114803,5,0,3:0:0:0:
444,343,115041,2,0,L|495:365,2,47.9999985351563,2|2|0,0:0|0:0|1:0,0:0:0:0:
307,289,115517,2,0,B|262:276|204:286,2,95.9999970703126,2|0|2,0:0|3:0|0:0,0:0:0:0:
474,258,116232,6,0,B|500:209|487:153,1,95.9999970703126,0|0,1:0|0:0,0:0:0:0:
452,89,116708,1,0,3:0:0:0:
380,40,116946,1,0,0:0:0:0:
294,34,117184,5,0,1:0:0:0:
297,228,117422,1,2,0:0:0:0:
369,168,117660,5,4,3:0:0:0:
178,168,117898,1,2,0:0:0:0:
211,257,118137,5,0,1:0:0:0:
258,132,118375,2,0,B|265:79|258:19,2,95.9999970703126,4|0|0,3:1|3:0|3:0,0:0:0:0:
103,117,119089,6,0,B|89:186|101:263,1,143.999995605469,4|0,1:2|1:0,0:0:0:0:
108,287,119565,1,0,1:0:0:0:
187,228,119803,1,8,3:0:0:0:
262,282,120041,1,4,3:0:0:0:
335,233,120279,1,0,3:0:0:0:
408,258,120517,1,4,0:1:0:0:
256,192,120756,12,2,122422,0:0:0:0:
178,241,122898,6,0,L|203:194,1,47.9999985351563,2|0,0:0|0:0,0:0:0:0:
200,198,123375,2,0,B|238:202|265:198,1,47.9999985351563
373,110,123851,2,0,B|339:107|309:111,1,47.9999985351563
203,36,124327,6,0,B|189:64|148:79|114:65,1,95.9999970703126,0|0,3:0|0:0,0:0:0:0:
59,32,125041,1,0,3:0:0:0:
224,121,125279,2,0,L|327:135,1,95.9999970703126,4|0,0:0|0:0,0:0:0:0:
396,113,125994,1,0,0:0:0:0:
396,113,126113,1,0,0:0:0:0:
396,113,126232,2,0,L|415:217,1,95.9999970703126
351,320,126946,5,0,0:0:0:0:
351,320,127184,2,0,B|331:346|283:353|252:332,2,95.9999970703126,0|0|4,0:0|0:0|0:1,0:0:0:0:
256,192,128375,12,2,130041,0:0:0:0:
373,250,130517,5,2,0:0:0:0:
425,198,130756,2,0,L|461:205,2,23.9999992675781,2|0|0,0:0|0:0|0:0,0:0:0:0:
396,132,131232,2,0,B|406:102|411:74,2,47.9999985351563,0|2|0,0:0|0:0|0:0,0:0:0:0:
269,179,131946,6,0,B|166:201,1,95.9999970703126,0|0,3:0|0:0,0:0:0:0:
122,151,132660,1,0,3:0:0:0:
267,255,132898,2,0,B|298:259|320:258,1,47.9999985351563,4|0,0:0|0:0,0:0:0:0:
115,243,133375,2,0,B|99:276|112:309,1,63.9999980468751
134,326,133851,2,0,L|182:340,1,47.9999985351563
276,312,134327,2,0,L|360:298,1,63.9999980468751
368,314,134803,2,0,L|391:214,1,95.9999970703126
422,145,135517,6,0,L|442:125,3,21.3333333333333,0|0|0|2,0:0|0:0|0:0|0:0,0:0:0:0:
344,107,135994,2,0,L|339:65,2,32,0|0|0,0:0|0:0|3:0,0:0:0:0:
265,151,136470,2,0,B|231:145|196:123,2,64,0|2|0,0:0|0:0|0:0,0:0:0:0:
344,181,137184,1,0,3:0:0:0:
402,242,137422,1,0,0:0:0:0:
435,322,137660,6,0,B|385:343|332:340,1,85.3333333333333,2|0,0:0|0:0,0:0:0:0:
330,316,138137,2,0,L|231:304,1,85.3333333333333,0|0,3:0|0:0,0:0:0:0:
227,279,138613,2,0,B|184:265|151:237,1,85.3333333333333,2|0,0:0|0:0,0:0:0:0:
145,204,139089,2,0,L|128:141,1,64,0|0,3:0|0:0,0:0:0:0:
290,158,139565,6,0,B|319:167|353:156|353:156|400:167,1,96,2|0,0:0|0:0,0:0:0:0:
403,155,140041,2,0,L|456:170,1,32,0|0,3:0|0:0,0:0:0:0:
469,250,140279,2,0,L|401:231,1,64,0|2,0:0|0:0,0:0:0:0:
324,233,140756,1,0,0:0:0:0:
195,216,140994,2,0,L|213:145,1,64,0|0,3:0|0:0,0:0:0:0:
153,79,141470,2,0,L|117:216,1,128,2|0,0:0|3:0,0:0:0:0:
268,142,142184,5,0,0:0:0:0:
337,93,142422,2,0,B|339:57|336:23,2,64,2|0|0,0:0|0:0|3:0,0:0:0:0:
377,166,143137,1,0,0:0:0:0:
461,165,143375,6,0,B|458:133|463:93,1,64,2|0,0:0|0:0,0:0:0:0:
313,195,143851,2,0,B|316:232|311:283,1,64,0|0,3:0|0:0,0:0:0:0:
185,109,144327,2,0,B|183:69|188:30,1,64,2|0,0:0|0:0,0:0:0:0:
35,212,144803,2,0,B|40:243|34:279,1,64,0|0,3:0|0:0,0:0:0:0:
192,352,145279,6,0,L|310:337,1,96,2|0,0:0|0:0,0:0:0:0:
287,339,145756,2,0,L|360:357,1,64,0|0,3:0|0:0,0:0:0:0:
170,213,146232,2,0,L|119:264,1,64,2|0,0:0|0:0,0:0:0:0:
370,130,146708,2,0,L|434:147,1,64,0|0,3:0|0:0,0:0:0:0:
177,30,147184,1,4,0:1:0:0:
285,45,147422,5,2,0:0:0:0:
223,131,147660,1,0,3:0:0:0:
299,207,147898,2,0,B|333:268|299:336,1,128,2|2,0:0|0:0,0:0:0:0:
224,352,148613,2,0,L|152:360,1,64,0|0,3:0|0:0,0:0:0:0:
386,303,149089,1,2,0:0:0:0:
256,192,149327,12,2,150994,0:0:0:0:
393,213,151470,6,0,L|326:228,1,64,2|0,0:0|0:0,0:0:0:0:
284,171,151946,2,0,B|190:192|190:192|152:155|95:154,1,192,2|2,0:0|0:0,0:0:0:0:
72,86,152898,2,0,B|142:130|215:95,1,128,2|0,0:0|0:0,0:0:0:0:
281,114,153851,1,0,0:0:0:0:
368,125,154327,1,0,0:0:0:0:
471,237,154803,6,0,B|441:305|349:299,1,128,2|0,0:0|0:0,0:0:0:0:
294,280,155517,1,0,0:0:0:0:
294,280,155756,2,0,B|221:259|148:315,1,128,2|0,0:0|0:0,0:0:0:0:
111,352,156470,1,0,0:0:0:0:
111,352,156708,2,0,B|37:351|1:257|61:199,2,192,2|2|2,0:0|0:0|0:0,0:0:0:0:
253,270,158613,6,0,B|320:284|396:271,1,128,2|0,0:0|0:0,0:0:0:0:
453,274,159327,2,0,B|464:198|449:131,1,128,2|0,0:0|0:0,0:0:0:0:
453,75,160041,2,0,B|413:73|376:75,1,64,2|2,0:0|0:0,0:0:0:0:
317,96,160517,6,0,L|308:30,1,64,2|0,0:0|0:0,0:0:0:0:
218,96,160994,2,0,L|213:164,1,68.0000012969971,2|0,0:0|0:0,0:0:0:0:
331,243,161470,2,0,L|320:161,1,71.9999978027344,2|0,0:0|0:0,0:0:0:0:
191,296,161946,2,0,L|178:360,2,40,2|0|4,0:0|0:0|0:0,0:0:0:0:
341,360,162422,1,4,0:0:0:0:
456,325,162740,6,0,B|405:324|380:276,1,83.9999974365235,0|0,1:0|0:0,0:0:0:0:
326,233,163057,6,0,B|374:266|427:226,1,88.000002685547,0|0,1:0|0:0,0:0:0:0:
475,202,163375,6,0,L|515:168,1,44.0000013427735,4|0,3:0|1:0,3:0:0:0:
512,134,163613,2,0,L|478:162,1,44.0000013427735,0|4,1:0|3:0,0:0:0:0:
480,123,163851,2,0,L|516:91,2,44.0000013427735,0|0|4,1:0|1:0|3:0,3:0:0:0:
372,53,164327,5,4,1:0:0:0:
385,145,164565,1,0,1:0:0:0:
295,158,164803,1,0,1:0:0:0:
187,96,165041,6,0,L|200:255,1,132.00000402832,4|0,1:0|0:0,0:0:0:0:
202,262,165517,1,8,3:0:0:0:
317,238,165756,6,0,L|254:230,1,44.0000013427735,0|0,1:0|1:0,0:0:0:0:
151,332,165994,2,0,L|211:339,1,44.0000013427735,4|0,3:0|0:0,0:0:0:0:
307,354,166232,6,0,B|359:350|408:354,1,95.9999970703126,4|0,3:1|0:0,0:0:0:0:
493,273,166708,2,0,B|444:278|381:272,1,95.9999970703126,0|0,1:0|0:0,0:0:0:0:
304,230,167184,1,0,3:0:0:0:
357,136,167422,1,0,0:0:0:0:
304,230,167660,1,0,1:0:0:0:
269,62,167898,1,2,0:0:0:0:
436,110,168137,1,0,3:0:0:0:
348,40,168375,1,2,0:0:0:0:
375,207,168613,1,0,1:0:0:0:
179,115,168851,5,2,0:0:0:0:
140,116,168970,1,2,0:0:0:0:
102,123,169089,2,0,B|51:133|28:194|62:237,1,143.999995605469,2|2,3:2|0:0,0:0:0:0:
88,267,169565,2,0,B|129:298|183:285,1,95.9999970703126,0|2,1:0|0:0,0:0:0:0:
307,203,170041,5,0,3:0:0:0:
333,351,170279,1,0,0:0:0:0:
462,272,170517,1,0,1:0:0:0:
376,275,170756,1,0,0:0:0:0:
371,87,170994,5,0,3:0:0:0:
376,275,171232,1,0,3:0:0:0:
200,212,171470,1,0,1:0:0:0:
209,119,171708,5,0,3:0:0:0:
209,119,171827,1,0,3:0:0:0:
209,119,171946,2,0,B|165:154|96:135,2,95.9999970703126,4|0|0,3:1|0:0|1:0,0:0:0:0:
274,34,172660,1,0,3:0:0:0:
284,220,172898,1,4,1:2:0:0:
365,152,173137,1,0,1:0:0:0:
160,175,173375,5,0,1:0:0:0:
160,175,173494,1,0,1:0:0:0:
160,175,173613,1,4,3:0:0:0:
160,175,173732,1,4,3:0:0:0:
160,175,173851,1,4,3:1:0:0:
167,263,174089,1,0,3:0:0:0:
85,229,174327,1,0,1:0:0:0:
282,244,174565,6,0,B|298:294|289:348,1,95.9999970703126,0|0,3:0|3:0,0:0:0:0:
449,352,175041,2,0,B|430:298|443:236,1,95.9999970703126,0|0,3:0|1:0,0:0:0:0:
468,165,175517,2,0,B|480:113|460:65,2,95.9999970703126,0|0|0,3:0|3:0|3:0,0:0:0:0:
389,230,176232,5,4,1:2:0:0:
247,248,176470,1,8,3:0:0:0:
181,117,176708,6,0,L|250:129,1,47.9999985351563,4|0,1:0|0:0,0:0:0:0:
264,107,176946,2,0,L|333:119,1,47.9999985351563,0|0,1:0|1:0,0:0:0:0:
364,172,177184,5,0,1:0:0:0:
398,155,177303,1,0,1:0:0:0:
436,155,177422,1,4,3:0:0:0:
472,167,177541,1,4,3:0:0:0:
498,195,177660,1,4,1:2:0:0:
473,84,177898,5,4,1:3:0:0:
487,295,178137,1,4,1:3:0:0:
308,330,178375,6,0,L|192:351,1,95.9999970703126,4|0,1:2|0:0,0:0:0:0:
204,54,178851,2,0,L|320:33,1,95.9999970703126,4|0,1:3|1:0,0:0:0:0:
407,190,179327,6,0,L|290:177,1,95.9999970703126,0|2,1:0|3:0,0:0:0:0:
215,168,179803,1,0,3:0:0:0:
119,151,180041,1,0,1:0:0:0:
23,136,180279,1,8,1:3:0:0:
83,276,180517,5,0,1:0:0:0:
128,258,180637,1,0,1:0:0:0:
175,265,180756,1,0,1:0:0:0:
212,295,180875,1,0,1:0:0:0:
254,317,180994,1,0,1:0:0:0:
301,320,181113,1,0,1:0:0:0:
346,305,181232,1,4,3:0:0:0:
454,303,181470,6,0,B|407:267|419:184|475:166,1,160,4|0,0:1|1:0,0:0:0:0:
353,202,182184,1,2,0:0:0:0:
264,217,182422,2,0,B|206:222|132:227,1,120,2|2,0:0|0:0,0:0:0:0:
119,220,182898,1,0,1:0:0:0:
176,149,183137,1,2,0:0:0:0:
196,300,183375,6,0,B|202:350|203:381,1,80,2|0,0:0|0:0,0:0:0:0:
119,346,183851,1,0,1:0:0:0:
278,334,184089,2,0,B|364:330|443:315,1,160,2|2,0:0|0:0,0:0:0:0:
506,259,184803,1,0,1:0:0:0:
512,107,185041,1,0,1:0:0:0:
420,54,185279,6,0,B|385:10|304:6|261:64,1,160,4|0,0:0|1:0,0:0:0:0:
322,131,185994,1,2,0:0:0:0:
184,97,186232,2,0,B|131:102|86:99,1,80,2|0,0:0|0:0,0:0:0:0:
84,96,186589,1,2,0:0:0:0:
64,92,186708,1,0,1:0:0:0:
149,213,186946,1,2,0:0:0:0:
249,213,187184,6,0,B|296:221|346:202,2,80,2|0|0,0:0|0:0|1:0,0:0:0:0:
166,293,187898,2,0,B|212:309|265:299,1,80,2|0,0:0|0:0,0:0:0:0:
373,357,188375,1,2,0:0:0:0:
466,315,188613,5,0,1:0:0:0:
482,287,188732,1,0,1:0:0:0:
485,255,188851,1,4,3:0:0:0:
473,225,188970,1,4,3:0:0:0:
453,200,189089,2,0,B|376:139|265:185,1,160,4|0,0:0|1:0,0:0:0:0:
165,218,189803,1,2,0:0:0:0:
100,157,190041,1,2,0:0:0:0:
156,313,190279,5,0,0:0:0:0:
156,313,190398,1,2,0:0:0:0:
156,313,190517,1,0,1:0:0:0:
233,165,190756,1,2,0:0:0:0:
336,291,190994,2,0,B|382:318|465:301|485:240,1,160,2|0,0:0|1:0,0:0:0:0:
512,117,191708,2,0,B|466:90|383:107|363:168,1,160,2|2,0:0|0:0,0:0:0:0:
254,191,192422,5,0,1:0:0:0:
182,118,192660,1,0,0:0:0:0:
82,137,192898,2,0,B|76:192|80:240,1,80,2|0,0:0|0:0,0:0:0:0:
119,336,193375,5,0,1:0:0:0:
280,260,193613,1,4,0:0:0:0:
293,269,193732,1,0,1:0:0:0:
306,278,193851,1,0,1:0:0:0:
223,180,194089,5,8,3:0:0:0:
239,332,194327,1,4,3:0:0:0:
302,141,194565,1,4,3:0:0:0:
155,24,194803,1,4,0:1:0:0:
256,192,195041,12,0,198613,0:0:0:0:
