osu file format v14

[General]
AudioFilename: tablo bad.mp3
AudioLeadIn: 0
PreviewTime: 53467
Countdown: 0
SampleSet: Soft
StackLeniency: 0.6
Mode: 0
LetterboxInBreaks: 1
WidescreenStoryboard: 0

[Editor]
DistanceSpacing: 1.3
BeatDivisor: 4
GridSize: 4
TimelineZoom: 1

[Metadata]
Title:Bad
TitleUnicode:나쁘다
Artist:Tablo ft. Jin Sil
ArtistUnicode:Tablo (ft. 진실)
Creator:henryx
Version:Normal
Source:
Tags:fever's end part 1 kpop korean song 타블로 epik high hip hop rap vocals yg
BeatmapID:695984
BeatmapSetID:311609

[Difficulty]
HPDrainRate:3
CircleSize:3
OverallDifficulty:3
ApproachRate:5
SliderMultiplier:1.4
SliderTickRate:2

[Events]
//Background and Video events
0,0,"white_tiger_owl_art-Wallpaper-HD-Desktop-Widescreen.jpg",0,0
//Break Periods
//Storyboard Layer 0 (Background)
//Storyboard Layer 1 (Fail)
//Storyboard Layer 2 (Pass)
//Storyboard Layer 3 (Foreground)
//Storyboard Sound Samples

[TimingPoints]
483,483.870967741935,4,2,1,50,1,0
483,-100,4,2,1,50,0,0
7741,-100,4,2,1,60,0,0
15482,-100,4,2,1,70,0,0
23224,-100,4,1,0,50,0,0
38950,-100,4,2,1,60,0,0
53708,-100,4,1,0,70,0,1
60482,-100,4,1,0,70,0,0
69192,-100,4,1,0,70,0,1
70644,-100,4,1,0,70,0,1
76934,-100,4,2,1,60,0,0
83466,-100,4,2,1,60,0,0

[Colours]
Combo1 : 189,238,249
Combo2 : 176,198,249
Combo3 : 249,151,166
Combo4 : 254,177,254

[HitObjects]
84,88,483,6,0,L|160:88,1,70
228,128,967,2,0,P|296:144|368:132,1,140
440,96,1693,1,0,0:0:0:0:
360,244,2177,5,0,0:0:0:0:
276,228,2419,2,0,L|196:212,1,70
124,196,2903,2,0,P|184:132|264:152,1,140
316,148,3629,1,0,0:0:0:0:
456,60,4112,5,0,0:0:0:0:
468,144,4354,2,0,B|488:216|448:280|448:280|476:356|476:356|400:352,1,280
340,324,5564,5,0,0:0:0:0:
256,324,5806,2,0,L|176:324,1,70
108,292,6290,2,0,L|28:292,1,70
60,212,6774,1,0,0:0:0:0:
60,128,7016,1,0,0:0:0:0:
104,56,7258,2,0,P|152:56|196:44,1,70
424,92,8225,6,0,L|336:108,1,70
272,128,8709,2,0,P|232:132|192:128,1,70,2|0,0:0|0:0,0:0:0:0:
148,196,9193,2,0,B|140:228|140:228|148:264,1,70
16,320,9919,6,0,L|112:352,1,70
168,348,10403,2,0,L|264:348,1,70,0|2,0:0|0:0,0:0:0:0:
320,324,10887,2,0,B|348:260|348:260|332:184,1,140
272,36,11854,5,0,0:0:0:0:
196,76,12096,2,0,P|248:120|324:104,1,140,0|2,0:0|0:0,0:0:0:0:
384,64,12822,1,0,0:0:0:0:
464,88,13064,2,0,B|472:128|472:128|464:188,1,70
384,144,13548,6,0,B|376:184|376:184|384:244,1,70,2|0,0:0|0:0,0:0:0:0:
460,236,14032,2,0,L|452:324,1,70
380,348,14516,2,0,B|391:352|315:324|315:324|251:364|179:344,1,210,2|0,0:0|0:0,0:0:0:0:
44,252,15725,5,0,0:0:0:0:
112,300,15967,1,0,0:0:0:0:
127,217,16209,1,0,0:0:0:0:
140,136,16451,2,0,P|201:122|279:154,2,140,2|0|2,0:0|0:0|0:0,0:0:0:0:
60,168,17661,5,0,0:0:0:0:
128,220,17903,2,0,B|216:196,1,70
200,284,18387,2,0,B|288:260,2,70,2|0|0,0:0|0:0|0:0,0:0:0:0:
120,304,19112,1,0,0:0:0:0:
284,344,19596,5,0,0:0:0:0:
348,292,19838,1,0,0:0:0:0:
388,220,20080,2,0,B|384:188|384:188|400:156|400:156|384:112|412:76,1,140
480,124,20806,5,0,0:0:0:0:
472,208,21048,1,0,0:0:0:0:
464,292,21290,2,0,P|448:332|368:356,2,105,2|0|0,0:0|0:0|0:0,0:0:0:0:
392,244,22258,5,2,0:0:0:0:
324,196,22499,1,0,0:0:0:0:
256,148,22741,2,0,P|212:148|168:148,1,70
64,264,23467,5,0,0:0:0:0:
128,212,23709,1,0,0:0:0:0:
52,180,23951,2,0,B|44:144|44:144|48:88,1,70
128,128,24435,6,0,B|168:128|192:156|192:156|228:148|228:148|276:172,1,140
224,240,25161,2,0,P|284:244|328:204,2,105
255,161,26129,1,0,0:0:0:0:
284,80,26370,2,0,L|208:60,2,70
364,100,27096,1,0,0:0:0:0:
444,120,27338,6,0,B|440:188|440:188|456:228|436:280,1,140
364,228,28064,1,0,0:0:0:0:
376,312,28306,2,0,L|288:320,1,70
232,356,28790,2,0,L|144:364,1,70
112,296,29274,2,0,P|140:268|152:216,2,70
68,224,29999,6,0,P|108:168|188:168,1,140
252,200,30725,2,0,L|336:212,1,70
404,188,31209,5,0,0:0:0:0:
448,116,31451,1,0,0:0:0:0:
484,192,31693,2,0,B|484:232|484:232|472:272,1,70
472,344,32177,2,0,B|436:352|436:352|404:340|404:340|372:356|336:340|336:340|264:356,1,210
176,212,33387,6,0,P|124:256|104:328,2,140
256,232,34596,2,0,B|296:240|296:240|340:232,1,70
404,260,35080,2,0,B|416:228|416:228|404:196|404:196|416:156|416:156|404:128,1,140
324,152,35806,2,0,B|288:144|288:144|268:120|268:120|176:100,1,140
120,76,36532,2,0,B|109:111|109:111|120:140|120:140|93:230,1,140
40,268,37258,6,0,P|32:308|40:348,1,70
116,308,37741,1,0,0:0:0:0:
192,344,37983,2,0,B|256:328,2,35
184,260,38467,2,0,L|236:240,1,35
184,260,39677,5,0,0:0:0:0:
184,260,40645,1,0,0:0:0:0:
184,260,41612,1,0,0:0:0:0:
312,156,42580,6,0,L|296:248,1,70
228,184,43064,2,0,L|216:115,1,70
200,32,43548,5,0,0:0:0:0:
312,156,44516,1,0,0:0:0:0:
148,192,45483,1,0,0:0:0:0:
200,32,46451,5,0,0:0:0:0:
174,112,46935,1,0,0:0:0:0:
148,192,47419,2,0,P|220:200|296:236,1,140
360,256,48145,1,0,0:0:0:0:
192,280,48629,1,0,0:0:0:0:
292,144,49112,5,0,0:0:0:0:
348,80,49354,2,0,P|284:60|220:100,1,140
176,164,50080,1,0,0:0:0:0:
76,300,50564,1,0,0:0:0:0:
240,336,51048,5,0,0:0:0:0:
324,352,51290,2,0,P|400:344|436:292,1,140
352,272,52016,1,0,0:0:0:0:
192,216,52499,1,0,0:0:0:0:
352,172,52983,1,0,0:0:0:0:
100,160,53709,5,0,0:0:0:0:
260,216,54192,1,0,0:0:0:0:
100,260,54676,1,0,0:0:0:0:
260,316,55161,6,0,P|324:296|360:224,1,140,0|0,0:0|0:2,0:0:0:0:
408,76,56129,2,0,P|340:64|268:100,1,140,0|2,0:0|0:2,0:0:0:0:
432,156,57096,2,0,P|468:224|448:296,1,140,0|0,0:2|0:2,0:0:0:0:
288,264,58064,2,0,P|224:248|180:192,1,140,0|2,0:0|0:2,0:0:0:0:
256,192,59032,12,0,60483,0:0:0:0:
64,76,61209,6,0,L|48:164,1,70
116,200,61693,2,0,P|152:228|196:228,1,70
184,148,62177,2,0,P|220:140|260:160,2,70
164,64,62903,6,0,P|236:56|308:88,1,140,0|2,0:0|0:2,0:0:0:0:
448,152,63870,2,0,P|448:224|416:284,1,140,0|2,0:0|0:2,0:0:0:0:
256,332,64838,2,0,P|256:260|204:188,1,140,0|2,0:0|0:2,0:0:0:0:
360,108,65806,2,0,P|315:54|224:40,1,140,0|2,0:0|0:2,0:0:0:0:
92,92,66774,2,0,L|92:236,1,140,0|2,0:0|0:2,0:0:0:0:
312,112,67983,5,0,0:0:0:0:
312,196,68225,1,0,0:0:0:0:
239,154,68467,1,0,0:0:0:0:
312,112,69193,5,0,0:0:0:0:
312,280,69677,1,0,0:0:0:0:
166,196,70161,1,0,0:0:0:0:
213,360,70645,6,0,P|277:340|313:268,1,140,0|0,0:0|0:2,0:0:0:0:
166,196,71613,2,0,P|200:136|288:112,1,140,0|2,0:0|0:2,0:0:0:0:
96,138,72580,2,0,P|76:206|108:268,1,140,0|0,0:0|0:2,0:0:0:0:
260,204,73548,2,0,P|328:192|400:204,1,140,0|2,0:0|0:2,0:0:0:0:
256,192,74516,12,0,76935,0:0:0:0:
116,92,77661,5,0,0:0:0:0:
196,116,77903,2,0,B|240:124|240:124|296:124,1,70
104,176,78629,5,0,0:0:0:0:
80,256,78871,2,0,B|72:300|72:300|72:356,1,70
236,356,79596,5,0,0:0:0:0:
260,276,79838,2,0,B|268:232|268:232|260:176,1,70
412,124,80564,5,0,0:0:0:0:
332,100,80806,2,0,B|296:92|296:92|240:104,1,70
180,240,81532,5,0,0:0:0:0:
348,240,82016,1,0,0:0:0:0:
120,168,83467,6,0,L|212:144,1,70
244,216,83951,2,0,L|311:233,1,70,0|2,0:0|0:0,0:0:0:0:
460,152,84677,5,0,0:0:0:0:
388,196,84919,1,0,0:0:0:0:
260,304,85403,5,2,0:0:0:0:
428,304,85887,1,0,0:0:0:0:
