osu file format v14

[General]
AudioFilename: tablo bad.mp3
AudioLeadIn: 0
PreviewTime: 53467
Countdown: 0
SampleSet: Soft
StackLeniency: 0.7
Mode: 0
LetterboxInBreaks: 1
WidescreenStoryboard: 1

[Editor]
DistanceSpacing: 1.3
BeatDivisor: 4
GridSize: 4
TimelineZoom: 1.2

[Metadata]
Title:Bad
TitleUnicode:나쁘다
Artist:Tablo ft. Jin Sil
ArtistUnicode:Tablo (ft. 진실)
Creator:henryx
Version:Kind Hearts Are Flaws
Source:
Tags:fever's end part 1 kpop korean song 타블로 epik high hip hop rap vocals yg
BeatmapID:945769
BeatmapSetID:311609

[Difficulty]
HPDrainRate:5
CircleSize:4.5
OverallDifficulty:7
ApproachRate:8
SliderMultiplier:1.6
SliderTickRate:1

[Events]
//Background and Video events
0,0,"white_tiger_owl_art-Wallpaper-HD-Desktop-Widescreen.jpg",0,0
//Break Periods
//Storyboard Layer 0 (Background)
//Storyboard Layer 1 (Fail)
//Storyboard Layer 2 (Pass)
//Storyboard Layer 3 (Foreground)
//Storyboard Sound Samples

[TimingPoints]
483,483.870967741935,4,2,1,40,1,0
483,-100,4,2,1,40,0,0
8224,-100,4,2,1,60,0,0
15724,-100,4,2,1,65,0,0
19602,-100,4,2,1,70,0,0
23466,-100,4,1,1,60,0,0
24434,-100,4,2,1,75,0,0
31208,-100,4,2,1,80,0,0
33144,-89.2857142857143,4,2,1,75,0,0
39192,-100,4,2,1,60,0,0
53708,-83.3333333333333,4,2,1,80,0,1
55160,-83.3333333333333,4,2,1,80,0,1
60966,-100,4,2,1,40,0,0
69192,-100,4,2,1,40,0,1
70644,-83.3333333333333,4,2,1,80,0,1
77418,-100,4,2,1,50,0,0
83466,-100,4,2,1,60,0,0
86370,-100,4,2,1,60,0,0

[Colours]
Combo1 : 189,238,249
Combo2 : 176,198,249
Combo3 : 249,151,166
Combo4 : 254,177,254

[HitObjects]
214,146,483,5,0,0:0:0:0:
130,287,725,1,0,0:0:0:0:
124,162,967,1,0,0:0:0:0:
133,335,1209,1,0,0:0:0:0:
34,178,1451,1,0,0:0:0:0:
214,146,1693,1,0,0:0:0:0:
214,146,1935,1,0,0:0:0:0:
214,238,2177,5,0,0:0:0:0:
416,67,2419,1,0,0:0:0:0:
416,67,2661,1,0,0:0:0:0:
353,243,2903,1,0,0:0:0:0:
492,161,3145,1,0,0:0:0:0:
308,88,3387,1,0,0:0:0:0:
359,271,3629,1,0,0:0:0:0:
315,116,3871,1,0,0:0:0:0:
365,299,4112,5,0,0:0:0:0:
225,278,4354,1,0,0:0:0:0:
232,239,4475,1,0,0:0:0:0:
251,204,4596,1,0,0:0:0:0:
280,177,4717,1,0,0:0:0:0:
316,161,4838,1,0,0:0:0:0:
177,41,5080,5,0,0:0:0:0:
316,161,5322,1,0,0:0:0:0:
129,80,5564,5,0,0:0:0:0:
363,124,5806,1,0,0:0:0:0:
363,124,6048,1,0,0:0:0:0:
251,291,6290,5,0,0:0:0:0:
299,38,6532,1,0,0:0:0:0:
328,318,6774,5,0,0:0:0:0:
221,13,7016,1,0,0:0:0:0:
277,158,7258,1,0,0:0:0:0:
277,158,7500,1,0,0:0:0:0:
130,103,8225,5,0,0:0:0:0:
130,103,8467,1,0,0:0:0:0:
55,279,8709,2,0,L|19:356,1,80
190,264,9193,2,0,P|162:234|125:226,1,80,8|0,0:0|0:0,0:0:0:0:
218,339,9677,1,0,0:0:0:0:
260,154,9919,5,0,0:0:0:0:
119,308,10161,1,8,0:0:0:0:
260,154,10403,1,0,0:0:0:0:
287,79,10645,2,0,P|328:109|333:166,1,80
456,38,11129,2,0,P|415:68|410:125,1,80,8|0,0:0|0:0,0:0:0:0:
481,111,11612,1,0,0:0:0:0:
260,154,11854,5,0,0:0:0:0:
162,61,12096,1,8,0:0:0:0:
139,94,12217,1,0,0:0:0:0:
117,127,12338,1,0,0:0:0:0:
94,160,12459,1,0,0:0:0:0:
71,194,12580,2,0,P|47:234|45:281,1,80
162,269,13064,5,8,0:0:0:0:
235,192,13306,2,0,L|235:111,1,80
215,344,13790,1,0,0:0:0:0:
317,236,14032,2,0,L|317:122,1,80,8|0,0:0|0:0,0:0:0:0:
119,207,14516,5,0,0:0:0:0:
225,326,14758,1,0,0:0:0:0:
235,112,15000,1,8,0:0:0:0:
171,271,15242,1,0,0:0:0:0:
341,247,15483,1,0,0:0:0:0:
154,149,15725,5,0,0:0:0:0:
324,72,15967,2,0,P|364:79|391:113,1,80,8|0,0:0|0:0,0:0:0:0:
322,147,16451,1,0,0:0:0:0:
100,84,16693,1,0,0:0:0:0:
60,17,16935,2,0,P|30:43|20:82,1,80,8|0,0:0|0:0,0:0:0:0:
45,234,17419,1,0,0:0:0:0:
235,112,17661,5,0,0:0:0:0:
161,86,17903,2,0,P|156:127|176:166,1,80,8|0,0:0|0:0,0:0:0:0:
292,268,18387,1,0,0:0:0:0:
339,39,18629,1,0,0:0:0:0:
262,40,18871,2,0,P|276:87|306:109,1,80,8|0,0:0|0:0,0:0:0:0:
479,186,19354,1,0,0:0:0:0:
339,39,19596,5,0,0:0:0:0:
207,122,19838,1,8,0:0:0:0:
435,122,20080,1,0,0:0:0:0:
395,116,20201,1,0,0:0:0:0:
357,130,20322,1,0,0:0:0:0:
210,214,20564,5,0,0:0:0:0:
401,196,20806,1,8,0:0:0:0:
210,214,21048,1,0,0:0:0:0:
435,122,21290,1,0,0:0:0:0:
269,0,21532,2,0,B|240:27|240:27|229:75,1,80,0|8,0:0|0:0,0:0:0:0:
222,106,21895,1,0,0:0:0:0:
212,145,22016,1,0,0:0:0:0:
322,291,22258,5,0,0:0:0:0:
304,100,22500,1,0,0:0:0:0:
322,291,22742,1,8,0:0:0:0:
230,66,22983,1,0,0:0:0:0:
230,66,23225,1,0,0:0:0:0:
231,264,23467,5,0,0:0:0:0:
430,316,23709,1,2,1:2:0:0:
217,110,23951,1,0,0:0:0:0:
456,166,24193,1,6,2:0:0:0:
329,330,24435,5,0,0:0:0:0:
293,180,24677,1,8,0:0:0:0:
304,142,24798,1,0,0:0:0:0:
314,103,24919,1,0,0:0:0:0:
231,264,25161,5,0,0:0:0:0:
439,184,25403,2,0,P|445:223|437:262,1,80,0|8,0:0|0:0,0:0:0:0:
422,309,25766,1,0,0:0:0:0:
422,309,25887,1,0,0:0:0:0:
331,216,26129,5,0,0:0:0:0:
292,312,26371,1,0,0:0:0:0:
240,312,26492,1,0,0:0:0:0:
188,312,26612,1,8,0:0:0:0:
76,354,26854,2,0,P|68:316|73:276,1,80
113,170,27338,5,0,0:0:0:0:
19,59,27580,2,0,P|57:66|97:60,1,80,8|0,0:0|0:0,0:0:0:0:
116,196,28064,1,0,0:0:0:0:
172,44,28306,2,0,P|211:56|238:88,1,80,0|8,0:0|0:0,0:0:0:0:
116,196,28790,1,0,0:0:0:0:
141,242,28911,1,0,0:0:0:0:
166,288,29032,1,0,0:0:0:0:
316,111,29274,2,0,P|328:148|353:179,1,80,0|8,0:0|0:0,0:0:0:0:
393,213,29637,1,0,0:0:0:0:
393,213,29758,1,0,0:0:0:0:
166,288,30000,5,0,0:0:0:0:
166,248,30121,1,0,0:0:0:0:
166,208,30242,1,0,0:0:0:0:
166,168,30362,1,0,0:0:0:0:
166,128,30483,1,8,0:0:0:0:
315,250,30725,2,0,P|308:289|315:328,1,80
316,250,31209,5,0,0:0:0:0:
428,294,31451,1,8,0:0:0:0:
257,179,31693,1,0,0:0:0:0:
428,294,31934,1,0,0:0:0:0:
357,185,32177,1,0,0:0:0:0:
397,152,32298,1,0,0:0:0:0:
449,154,32419,1,8,0:0:0:0:
497,268,32661,2,0,P|463:294|417:290,1,80
351,83,33387,5,8,0:0:0:0:
320,115,33508,1,0,0:0:0:0:
304,157,33629,1,0,0:0:0:0:
309,201,33750,1,0,0:0:0:0:
332,239,33871,1,0,0:0:0:0:
391,63,34112,2,0,L|412:150,1,89.60000109375,0|8,0:0|0:0,0:0:0:0:
423,199,34475,1,0,0:0:0:0:
423,199,34596,1,0,0:0:0:0:
247,158,34838,5,0,0:0:0:0:
169,247,35080,1,0,0:0:0:0:
208,269,35201,1,0,0:0:0:0:
253,275,35322,1,8,0:0:0:0:
296,265,35443,1,0,0:0:0:0:
333,240,35564,1,0,0:0:0:0:
141,207,35806,5,0,0:0:0:0:
112,119,36048,2,0,L|136:32,1,89.60000109375,0|8,0:0|0:0,0:0:0:0:
141,207,36532,5,0,0:0:0:0:
229,178,36774,2,0,L|315:202,1,89.60000109375
360,213,37137,1,0,0:0:0:0:
360,213,37258,1,8,0:0:0:0:
318,74,37500,1,0,0:0:0:0:
284,273,37742,1,0,0:0:0:0:
229,178,37983,1,0,0:0:0:0:
233,134,38104,1,0,0:0:0:0:
237,89,38225,1,2,0:0:0:0:
360,213,38467,2,0,L|364:271,1,44.800000546875
296,156,39677,5,0,0:0:0:0:
268,240,40645,1,0,0:0:0:0:
208,172,41612,1,0,0:0:0:0:
401,86,42580,5,0,0:0:0:0:
268,255,42822,1,0,0:0:0:0:
305,31,43064,1,0,0:0:0:0:
370,201,43306,1,0,0:0:0:0:
290,115,43548,5,0,0:0:0:0:
210,115,44516,1,0,0:0:0:0:
130,115,45483,1,0,0:0:0:0:
353,123,46451,6,0,P|394:132|432:125,1,80
246,191,46935,2,0,P|244:240|258:286,1,80
334,47,47419,5,0,0:0:0:0:
338,304,47903,1,0,0:0:0:0:
338,304,48145,1,0,0:0:0:0:
393,105,48629,1,0,0:0:0:0:
163,143,49112,5,0,0:0:0:0:
163,143,49354,1,0,0:0:0:0:
477,124,49838,5,0,0:0:0:0:
477,124,50080,1,0,0:0:0:0:
256,161,50564,1,0,0:0:0:0:
498,48,51048,5,0,0:0:0:0:
498,48,51290,1,0,0:0:0:0:
184,203,51774,1,0,0:0:0:0:
184,203,52016,1,0,0:0:0:0:
357,47,52500,5,0,0:0:0:0:
407,215,52983,1,0,0:0:0:0:
260,264,53709,5,0,0:0:0:0:
171,163,54193,1,0,0:0:0:0:
305,136,54677,1,0,0:0:0:0:
122,341,55161,6,0,P|109:292|117:217,1,95.9999970703126
456,180,55645,2,0,P|404:191|339:182,1,95.9999970703126,8|0,0:0|0:0,0:0:0:0:
183,65,56129,2,0,P|132:56|81:70,1,95.9999970703126
200,288,56612,2,0,P|251:279|294:248,1,95.9999970703126,8|0,0:0|0:0,0:0:0:0:
137,134,57096,2,0,P|134:198|165:255,1,95.9999970703126
59,312,57580,2,0,L|42:203,1,95.9999970703126,8|0,0:0|0:0,0:0:0:0:
218,173,58064,2,0,L|326:178,1,95.9999970703126
220,66,58548,2,0,B|171:72|171:72|103:125,1,95.9999970703126,8|0,0:0|0:0,0:0:0:0:
256,192,59032,12,0,60967,0:0:0:0:
171,118,61209,5,0,0:0:0:0:
392,168,61451,1,0,0:0:0:0:
256,192,61693,1,0,0:0:0:0:
384,304,61935,5,8,0:0:0:0:
85,223,62177,1,0,0:0:0:0:
256,192,62419,1,0,0:0:0:0:
159,328,62661,1,0,0:0:0:0:
155,209,62903,6,0,P|162:153|191:115,1,80,8|0,0:0|0:0,0:0:0:0:
357,175,63387,2,0,P|350:231|321:269,1,80
304,111,63871,2,0,P|357:89|393:99,1,80,8|0,0:0|0:0,0:0:0:0:
156,156,64354,2,0,L|245:168,1,80
84,199,64838,2,0,P|71:142|87:109,1,80
103,352,65322,2,0,L|130:266,1,80,8|0,0:0|0:0,0:0:0:0:
229,87,65806,2,0,B|238:133|238:133|232:188,1,80
313,245,66290,2,0,P|298:286|303:354,1,80,8|0,0:0|0:0,0:0:0:0:
260,186,66774,6,0,P|352:312|291:320,1,320
120,181,67983,1,0,0:0:0:0:
230,89,68225,1,8,0:0:0:0:
163,341,68467,1,0,0:0:0:0:
230,89,69193,5,0,0:0:0:0:
362,62,69677,1,0,0:0:0:0:
318,192,70161,1,0,0:0:0:0:
269,365,70645,6,0,P|243:325|242:270,1,95.9999970703126
453,251,71129,2,0,L|356:296,1,95.9999970703126,8|0,0:0|0:0,0:0:0:0:
450,85,71612,2,0,P|400:60|335:73,1,95.9999970703126
207,192,72096,2,0,L|306:192,1,95.9999970703126,8|0,0:0|0:0,0:0:0:0:
150,61,72580,2,0,P|103:61|62:85,1,95.9999970703126
104,274,73064,2,0,L|132:167,1,95.9999970703126,8|0,0:0|0:0,0:0:0:0:
408,274,73548,2,0,L|380:167,1,95.9999970703126
209,310,74032,2,0,B|256:317|256:317|303:310,1,95.9999970703126,8|0,0:0|0:0,0:0:0:0:
256,192,74516,12,0,77419,0:0:0:0:
334,56,77661,5,0,0:0:0:0:
99,191,77903,1,0,0:2:0:0:
332,326,78144,2,0,B|368:310|353:241,1,80
145,128,78629,5,0,0:0:0:0:
255,317,78871,1,2,0:2:0:0:
360,123,79112,2,0,B|345:88|291:100,1,80
205,278,79596,5,2,0:2:0:0:
355,191,79838,1,0,0:0:0:0:
205,104,80079,2,0,B|169:119|182:173,1,80
321,230,80564,5,0,0:0:0:0:
255,115,80806,1,0,0:0:0:0:
189,230,81048,1,2,0:2:0:0:
256,192,81532,5,0,0:0:0:0:
256,192,82016,1,2,0:2:0:0:
322,76,83467,5,0,0:0:0:0:
134,184,83709,1,0,0:0:0:0:
322,293,83951,1,0,0:0:0:0:
322,76,84193,1,2,0:0:0:0:
220,265,84677,1,0,0:0:0:0:
220,265,84919,1,0,0:0:0:0:
334,56,85403,5,2,0:0:0:0:
370,128,85887,1,0,0:0:0:0:
