osu file format v14

[General]
AudioFilename: tablo bad.mp3
AudioLeadIn: 0
PreviewTime: 53467
Countdown: 0
SampleSet: Soft
StackLeniency: 0.6
Mode: 0
LetterboxInBreaks: 1
WidescreenStoryboard: 1

[Editor]
DistanceSpacing: 1.3
BeatDivisor: 4
GridSize: 4
TimelineZoom: 1.1

[Metadata]
Title:Bad
TitleUnicode:나쁘다
Artist:Tablo ft. Jin Sil
ArtistUnicode:Tablo (ft. 진실)
Creator:henryx
Version:Hard
Source:
Tags:fever's end part 1 kpop korean song 타블로 epik high hip hop rap vocals yg
BeatmapID:706706
BeatmapSetID:311609

[Difficulty]
HPDrainRate:5
CircleSize:4
OverallDifficulty:6.5
ApproachRate:7
SliderMultiplier:1.6
SliderTickRate:2

[Events]
//Background and Video events
0,0,"white_tiger_owl_art-Wallpaper-HD-Desktop-Widescreen.jpg",0,0
//Break Periods
//Storyboard Layer 0 (Background)
//Storyboard Layer 1 (Fail)
//Storyboard Layer 2 (Pass)
//Storyboard Layer 3 (Foreground)
//Storyboard Sound Samples

[TimingPoints]
0,-100,4,2,1,40,0,0
483,483.870967741935,4,2,1,40,1,0
483,-100,4,2,1,65,0,0
7983,-100,4,2,1,60,0,0
19595,-100,4,2,1,70,0,0
23466,-100,4,1,1,60,0,0
24434,-100,4,2,1,75,0,0
31208,-100,4,2,1,80,0,0
33144,-100,4,2,1,75,0,0
39192,-100,4,2,1,60,0,0
53708,-100,4,2,1,80,0,1
55160,-100,4,2,1,80,0,1
60966,-100,4,2,1,40,0,0
69192,-100,4,2,1,40,0,1
70644,-100,4,2,1,80,0,1
77418,-100,4,2,1,50,0,0
83466,-100,4,2,1,60,0,0
86370,-100,4,2,1,60,0,0

[Colours]
Combo1 : 189,238,249
Combo2 : 176,198,249
Combo3 : 249,151,166
Combo4 : 254,177,254

[HitObjects]
127,66,483,5,0,0:0:0:0:
194,221,725,1,0,0:0:0:0:
277,148,967,2,0,P|250:122|210:111,1,80
122,267,1451,2,0,L|125:379,1,80
278,154,2177,5,0,0:0:0:0:
239,288,2419,1,0,0:0:0:0:
209,110,2661,1,0,0:0:0:0:
318,260,2903,2,0,P|361:266|406:262,1,80
469,143,3387,2,0,P|426:137|381:141,1,80
318,260,4112,5,0,0:0:0:0:
439,328,4354,1,0,0:0:0:0:
398,336,4475,1,0,0:0:0:0:
360,343,4596,1,0,0:0:0:0:
321,351,4717,1,0,0:0:0:0:
281,359,4837,1,0,0:0:0:0:
187,315,5080,2,0,P|172:281|177:238,1,80
204,139,5564,5,0,0:0:0:0:
271,218,5806,1,0,0:0:0:0:
306,120,6048,1,0,0:0:0:0:
204,139,6290,1,0,0:0:0:0:
103,160,6532,1,0,0:0:0:0:
103,245,6774,2,0,L|103:352,1,80
204,220,7258,2,0,L|204:327,1,80
204,220,8225,5,0,0:0:0:0:
135,98,8467,1,0,0:0:0:0:
69,171,8709,2,0,L|69:268,1,80
159,302,9193,2,0,P|214:317|248:303,1,80,8|0,0:0|0:0,0:0:0:0:
234,310,9677,1,0,0:0:0:0:
353,303,9919,5,0,0:0:0:0:
367,199,10161,1,8,0:0:0:0:
482,248,10403,1,0,0:0:0:0:
435,133,10645,2,0,P|397:108|336:110,1,80
279,174,11129,2,0,P|229:176|197:165,1,80,8|0,0:0|0:0,0:0:0:0:
199,172,11612,1,0,0:0:0:0:
250,74,11854,5,0,0:0:0:0:
279,174,12096,1,8,0:0:0:0:
293,211,12217,1,0,0:0:0:0:
307,249,12338,1,0,0:0:0:0:
321,287,12459,1,0,0:0:0:0:
334,326,12580,2,0,B|377:334|377:334|424:324,2,80,0|0|8,0:0|0:0|0:0,0:0:0:0:
229,326,13306,2,0,B|186:334|186:334|139:324,2,80
185,231,14032,5,8,0:0:0:0:
82,231,14274,1,0,0:0:0:0:
81,127,14516,1,0,0:0:0:0:
186,127,14758,1,0,0:0:0:0:
214,104,14999,2,0,L|293:104,1,80,8|0,0:0|0:0,0:0:0:0:
294,104,15483,1,0,0:0:0:0:
289,207,15725,5,0,0:0:0:0:
185,231,15967,1,8,0:0:0:0:
257,305,16209,1,0,0:0:0:0:
360,313,16451,2,0,B|406:313|406:313|446:295,1,80
367,220,16935,2,0,L|268:202,1,80,8|0,0:0|0:0,0:0:0:0:
289,207,17419,1,0,0:0:0:0:
343,118,17661,5,0,0:0:0:0:
287,30,17903,1,8,0:0:0:0:
231,118,18145,1,0,0:0:0:0:
174,205,18387,2,0,B|174:254|174:254|187:281,1,80
281,326,18870,2,0,B|281:278|281:278|267:245,1,80,8|0,0:0|0:0,0:0:0:0:
268,248,19354,1,0,0:0:0:0:
298,137,19596,5,0,0:0:0:0:
369,249,19838,1,8,0:0:0:0:
437,134,20080,1,0,0:0:0:0:
406,106,20201,1,0,0:0:0:0:
375,78,20322,2,0,P|345:52|303:41,1,80
306,41,20806,1,8,0:0:0:0:
302,141,21048,6,0,L|213:140,1,80
257,43,21532,6,0,L|168:42,1,80,0|8,0:0|0:0,0:0:0:0:
128,43,21895,1,0,0:0:0:0:
128,43,22016,1,0,0:0:0:0:
73,140,22258,1,0,0:0:0:0:
222,140,22499,1,0,0:0:0:0:
142,264,22741,2,0,L|146:368,1,80,8|0,0:0|0:0,0:0:0:0:
246,224,23225,1,0,0:0:0:0:
222,140,23467,5,0,0:0:0:0:
308,160,23709,1,2,0:2:0:0:
142,180,23951,1,0,0:0:0:0:
269,220,24193,2,0,P|308:213|349:220,1,80,4|0,0:2|0:0,0:0:0:0:
310,309,24677,5,8,0:0:0:0:
310,309,24798,1,0,0:0:0:0:
310,309,24919,1,0,0:0:0:0:
181,303,25161,1,0,0:0:0:0:
181,303,25403,2,0,L|82:303,1,80,0|8,0:0|0:0,0:0:0:0:
49,303,25766,1,0,0:0:0:0:
49,303,25887,1,0,0:0:0:0:
118,223,26129,5,0,0:0:0:0:
24,205,26370,1,0,0:0:0:0:
24,205,26491,1,0,0:0:0:0:
24,205,26612,1,8,0:0:0:0:
77,115,26854,2,0,P|86:75|79:23,1,80
180,74,27338,5,0,0:0:0:0:
144,171,27580,2,0,P|199:177|241:158,1,80,8|0,0:0|0:0,0:0:0:0:
323,193,28064,1,0,0:0:0:0:
420,155,28306,2,0,P|434:101|413:51,1,80,0|8,0:0|0:0,0:0:0:0:
328,108,28790,5,0,0:0:0:0:
328,108,28911,1,0,0:0:0:0:
328,108,29032,1,0,0:0:0:0:
306,209,29274,2,0,L|295:298,1,80,0|8,0:0|0:0,0:0:0:0:
290,340,29637,1,0,0:0:0:0:
290,340,29758,1,0,0:0:0:0:
193,304,29999,6,0,L|183:351,2,40
190,262,30362,1,0,0:0:0:0:
187,220,30483,1,8,0:0:0:0:
215,119,30725,2,0,L|226:208,1,80
108,248,31209,5,0,0:0:0:0:
38,170,31451,1,8,0:0:0:0:
139,146,31693,1,0,0:0:0:0:
99,270,31935,1,0,0:0:0:0:
190,220,32177,1,0,0:0:0:0:
230,220,32297,1,0,0:0:0:0:
270,220,32418,1,8,0:0:0:0:
305,318,32661,2,0,P|338:287|373:281,1,80
466,290,33387,5,8,0:0:0:0:
480,252,33507,1,0,0:0:0:0:
484,212,33628,1,0,0:0:0:0:
479,173,33749,1,0,0:0:0:0:
464,136,33870,1,0,0:0:0:0:
374,85,34112,2,0,L|274:98,1,80,0|8,0:0|0:0,0:0:0:0:
242,101,34475,1,0,0:0:0:0:
242,101,34596,1,0,0:0:0:0:
148,56,34838,5,0,0:0:0:0:
155,167,35080,1,0,0:0:0:0:
155,167,35201,1,0,0:0:0:0:
155,167,35322,2,0,L|155:244,2,40,8|0|0,0:0|0:0|0:0,0:0:0:0:
75,100,35806,2,0,L|75:179,1,80
75,283,36290,1,8,0:0:0:0:
178,297,36532,5,0,0:0:0:0:
240,216,36774,2,0,B|281:197|315:226,1,80
364,254,37137,1,0,0:0:0:0:
364,254,37258,1,8,0:0:0:0:
347,153,37499,1,0,0:0:0:0:
266,289,37741,1,0,0:0:0:0:
148,216,37983,5,0,0:0:0:0:
148,216,38104,1,0,0:0:0:0:
148,216,38225,1,8,0:0:0:0:
97,133,38467,2,0,L|97:63,1,40
382,78,39677,5,0,0:0:0:0:
382,192,40645,1,0,0:0:0:0:
382,306,41612,1,0,0:0:0:0:
244,284,42580,1,0,0:0:0:0:
176,216,42822,1,0,0:0:0:0:
244,148,43064,1,0,0:0:0:0:
312,216,43306,1,0,0:0:0:0:
244,284,43548,5,0,0:0:0:0:
244,170,44516,1,0,0:0:0:0:
244,56,45483,1,0,0:0:0:0:
130,85,46451,6,0,P|119:132|130:184,1,80
80,258,46935,2,0,P|86:303|74:341,1,80
176,304,47419,1,0,0:0:0:0:
294,213,47903,2,0,P|248:219|194:202,1,80
254,120,48629,1,0,0:0:0:0:
254,120,49112,5,0,0:0:0:0:
360,128,49354,2,0,B|385:205|385:205|370:300,1,160
409,368,50080,1,0,0:0:0:0:
466,229,50564,1,0,0:0:0:0:
329,249,51048,6,0,P|274:244|222:260,1,80
127,318,51774,1,0,0:0:0:0:
291,318,52016,1,0,0:0:0:0:
209,131,52499,1,0,0:0:0:0:
209,343,52983,1,0,0:0:0:0:
130,306,53709,5,0,0:0:0:0:
130,192,54193,1,0,0:0:0:0:
130,78,54677,1,0,0:0:0:0:
55,169,55161,6,0,P|102:174|146:212,1,80
213,252,55645,2,0,L|266:349,1,80,8|0,0:0|0:0,0:0:0:0:
307,234,56129,2,0,P|350:245|387:237,1,80
486,258,56612,2,0,L|460:162,1,80,8|0,0:0|0:0,0:0:0:0:
367,144,57096,6,0,P|372:109|407:66,1,80
294,53,57580,2,0,B|253:56|253:56|220:79,1,80,8|0,0:0|0:0,0:0:0:0:
291,155,58064,2,0,P|278:193|246:218,1,80
153,172,58548,2,0,B|121:197|121:197|98:256,1,80,8|0,0:0|0:0,0:0:0:0:
256,192,59032,12,0,60967,0:0:0:0:
225,244,61209,5,0,0:0:0:0:
225,140,61451,1,0,0:0:0:0:
316,192,61693,1,0,0:0:0:0:
316,192,61935,1,8,0:0:0:0:
420,192,62177,1,0,0:0:0:0:
367,282,62419,1,0,0:0:0:0:
431,175,62661,1,0,0:0:0:0:
358,300,62903,5,2,0:0:0:0:
198,300,63387,1,0,0:0:0:0:
278,327,63870,1,2,0:0:0:0:
139,247,64354,1,0,0:0:0:0:
203,303,64838,5,2,0:0:0:0:
123,164,65322,1,0,0:0:0:0:
139,247,65806,1,2,0:0:0:0:
139,87,66289,1,0,0:0:0:0:
123,164,66774,6,0,P|179:156|82:31,1,320
45,114,67983,1,0,0:0:0:0:
45,218,68225,1,8,0:0:0:0:
45,322,68467,1,0,0:0:0:0:
225,244,69193,5,0,0:0:0:0:
316,192,69677,1,0,0:0:0:0:
225,140,70161,1,0,0:0:0:0:
154,289,70645,6,0,P|186:323|226:326,1,80
321,322,71129,2,0,L|414:290,1,80,8|0,0:0|0:0,0:0:0:0:
473,225,71612,2,0,P|456:187|470:125,1,80
355,165,72096,2,0,L|315:247,1,80,8|0,0:0|0:0,0:0:0:0:
287,135,72580,6,0,P|313:101|352:90,1,80
443,46,73064,2,0,B|453:87|453:87|442:141,1,80,8|0,0:0|0:0,0:0:0:0:
394,216,73548,2,0,P|362:234|317:236,1,80
219,212,74032,2,0,B|177:204|177:204|121:213,1,80,8|0,0:0|0:0,0:0:0:0:
256,192,74516,12,0,77419,0:0:0:0:
60,112,77661,5,0,0:0:0:0:
163,133,77903,1,0,0:0:0:0:
255,85,78145,1,0,0:0:0:0:
163,133,78629,5,0,0:0:0:0:
196,232,78871,1,0,0:0:0:0:
283,288,79113,1,0,0:0:0:0:
358,106,79596,5,0,0:0:0:0:
288,184,79838,1,0,0:0:0:0:
283,288,80080,1,0,0:0:0:0:
358,106,80564,5,0,0:0:0:0:
374,200,80806,1,0,0:0:0:0:
391,295,81048,1,0,0:0:0:0:
358,106,81532,5,0,0:0:0:0:
391,295,82016,1,0,0:0:0:0:
151,294,83467,5,0,0:0:0:0:
230,294,83708,1,0,0:0:0:0:
310,294,83950,1,0,0:0:0:0:
390,294,84193,1,2,0:0:0:0:
230,294,84677,5,0,0:0:0:0:
390,294,84919,1,0,0:0:0:0:
310,134,85403,5,2,0:0:0:0:
310,294,85887,1,0,0:0:0:0:
