osu file format v14

[General]
AudioFilename: audio.mp3
AudioLeadIn: 0
PreviewTime: 48412
Countdown: 0
SampleSet: Normal
StackLeniency: 0.7
Mode: 1
LetterboxInBreaks: 0
WidescreenStoryboard: 1

[Editor]
DistanceSpacing: 1.2
BeatDivisor: 4
GridSize: 16
TimelineZoom: 1.149998

[Metadata]
Title:Devil May Cry (feat. Kim Ximya)
TitleUnicode:Devil May Cry (feat. Kim Ximya)
Artist:Tabber
ArtistUnicode:Tabber
Creator:clockbite
Version:Futsuu
Source:
Tags:boaz arcpotato woosungko XXX 김심야 태버 korean english electronic trap hip hop hiphop hip-hop khh Deep End Mix Tape mixtape
BeatmapID:3888812
BeatmapSetID:1886250

[Difficulty]
HPDrainRate:7
CircleSize:5
OverallDifficulty:4
ApproachRate:10
SliderMultiplier:1.4
SliderTickRate:1

[Events]
//Background and Video events
0,0,"jinha-kwon-201701132 (1).jpg",0,-65
//Break Periods
//Storyboard Layer 0 (Background)
//Storyboard Layer 1 (Fail)
//Storyboard Layer 2 (Pass)
//Storyboard Layer 3 (Foreground)
//Storyboard Layer 4 (Overlay)
//Storyboard Sound Samples

[TimingPoints]
25,387.096774193548,100,1,0,30,1,8
12413,387.096774193548,4,1,0,30,1,0
12413,-125,4,1,0,30,0,0
37138,-111.111111111111,4,1,0,40,0,0
49187,-111.111111111111,4,1,0,90,0,0
49574,-86.9565217391304,4,1,0,90,0,1
50348,-93.0232558139535,4,1,0,90,0,0
50542,-100,4,1,0,90,0,0
51800,-93.0232558139535,4,1,0,90,0,0
51994,-100,4,1,0,90,0,0
52671,-86.9565217391304,4,1,0,90,0,1
53445,-93.0232558139535,4,1,0,90,0,0
53638,-100,4,1,0,90,0,0
54896,-93.0232558139535,4,1,0,90,0,0
55090,-100,4,1,0,90,0,0
55767,-86.9565217391304,4,1,0,90,0,1
56542,-93.0232558139535,4,1,0,90,0,0
56638,-100,4,1,0,90,0,0
57993,-93.0232558139535,4,1,0,90,0,0
58187,-100,4,1,0,90,0,0
58864,-86.9565217391304,4,1,0,90,0,1
59638,-93.0232558139535,4,1,0,90,0,0
59735,-100,4,1,0,90,0,0
61187,-93.0232558139535,4,1,0,90,0,0
61961,-86.9565217391304,4,1,0,90,0,1
62735,-93.0232558139535,4,1,0,90,0,0
62832,-100,4,1,0,90,0,0
64235,-93.0232558139535,4,1,0,90,0,0
64332,-100,4,1,0,90,0,0
65058,-86.9565217391304,4,1,0,90,0,1
65832,-93.0232558139535,4,1,0,90,0,0
65929,-100,4,1,0,90,0,0
67332,-93.0232558139535,4,1,0,90,0,0
67429,-100,4,1,0,90,0,0
68154,-86.9565217391304,4,1,0,90,0,1
68929,-93.0232558139535,4,1,0,90,0,0
69025,-100,4,1,0,90,0,0
70429,-93.0232558139535,4,1,0,90,0,0
70526,-100,4,1,0,90,0,0
71251,-86.9565217391304,4,1,0,90,0,1
72025,-93.0232558139535,4,1,0,90,0,0
72122,-100,4,1,0,90,0,0
72800,-107.181136120043,4,1,0,90,0,0
73574,-115.340253748558,4,1,0,90,0,0
74324,-125,4,1,0,55,0,0
99025,-111.111111111111,4,1,0,75,0,0
99509,-111.111111111111,4,1,0,55,0,0
101638,-111.111111111111,4,1,0,75,0,0
102606,-111.111111111111,4,1,0,55,0,0
104929,-111.111111111111,4,1,0,75,0,0
105703,-111.111111111111,4,1,0,55,0,0
108025,-111.111111111111,4,1,0,75,0,0
108800,-111.111111111111,4,1,0,55,0,0
109574,-111.111111111111,4,1,0,35,0,0
111025,-125,4,1,0,35,0,0
111316,-100,4,1,0,90,0,0
111509,-86.9565217391304,4,1,0,90,0,1
112283,-93.0232558139535,4,1,0,90,0,0
112453,-100,4,1,0,90,0,0
113711,-93.0232558139535,4,1,0,90,0,0
113905,-100,4,1,0,90,0,0
114606,-86.9565217391304,4,1,0,90,0,1
115380,-93.0232558139535,4,1,0,90,0,0
115549,-100,4,1,0,90,0,0
116807,-93.0232558139535,4,1,0,90,0,0
117001,-100,4,1,0,90,0,0
117703,-86.9565217391304,4,1,0,90,0,1
118477,-93.0232558139535,4,1,0,90,0,0
118549,-100,4,1,0,90,0,0
119904,-93.0232558139535,4,1,0,90,0,0
120098,-100,4,1,0,90,0,0
120800,-86.9565217391304,4,1,0,90,0,1
121574,-93.0232558139535,4,1,0,90,0,0
121646,-100,4,1,0,90,0,0
123098,-93.0232558139535,4,1,0,90,0,0
123896,-86.9565217391304,4,1,0,90,0,1
124671,-93.0232558139535,4,1,0,90,0,0
124743,-100,4,1,0,90,0,0
126146,-93.0232558139535,4,1,0,90,0,0
126243,-100,4,1,0,90,0,0
126993,-86.9565217391304,4,1,0,90,0,1
127767,-93.0232558139535,4,1,0,90,0,0
127840,-100,4,1,0,90,0,0
129243,-93.0232558139535,4,1,0,90,0,0
129340,-100,4,1,0,90,0,0
130090,-86.9565217391304,4,1,0,90,0,1
130864,-93.0232558139535,4,1,0,90,0,0
130936,-100,4,1,0,90,0,0
132340,-93.0232558139535,4,1,0,90,0,0
132437,-100,4,1,0,90,0,0
133187,-86.9565217391304,4,1,0,90,0,1
133961,-93.0232558139535,4,1,0,90,0,0
134033,-100,4,1,0,90,0,0
134711,-107.181136120043,4,1,0,90,0,0
135485,-115.340253748558,4,1,0,90,0,0
136283,-125,4,1,0,90,0,1
137058,-122.363824358967,4,1,0,90,0,1
137832,-119.836542955409,4,1,0,90,0,1
138606,-117.41140722268,4,1,0,90,0,1
139380,-115.082612053062,4,1,0,90,0,1
140154,-112.844401112194,4,1,0,90,0,1
140929,-110.691589985068,4,1,0,90,0,1
141703,-108.619382477087,4,1,0,90,0,1
142477,-106.623221258111,4,1,0,90,0,1
143251,-104.699214860588,4,1,0,90,0,1
144025,-102.843414730468,4,1,0,90,0,1
144800,-101.052257153742,4,1,0,90,0,1
145574,-99.3224224341542,4,1,0,90,0,1
146348,-97.6508143589663,4,1,0,90,0,1
147122,-96.0344494777166,4,1,0,90,0,1
147896,-94.4708122978325,4,1,0,90,0,1
148671,-92.9572777647121,4,1,0,90,0,1
149445,-91.4914757392054,4,1,0,90,0,1
150219,-90.0711832561273,4,1,0,90,0,1
150993,-88.6942346086677,4,1,0,90,0,1
151767,-87.3588281337359,4,1,0,90,0,1
152542,-86.0630377326176,4,1,0,90,0,1
153316,-84.8051263002746,4,1,0,90,0,1
154090,-83.5834568278908,4,1,0,90,0,1
154864,-82.3964174037713,4,1,0,90,0,1
155638,-81.2426881580658,4,1,0,90,0,1
156412,-80.1208221998774,4,1,0,90,0,1
157187,-79.0295175247955,4,1,0,90,0,1
157961,-77.9675421122187,4,1,0,90,0,1
158735,-76.9337292855934,4,1,0,90,0,1
159509,-38.4615384615385,4,1,0,45,0,0
161058,-125,4,1,0,45,0,0

[HitObjects]
284,165,12413,5,0,0:0:0:0:
275,112,13187,1,0,0:0:0:0:
266,162,13961,1,8,0:0:0:0:
266,162,14735,1,8,0:0:0:0:
302,187,15122,1,0,0:0:0:0:
266,162,15509,1,8,0:0:0:0:
302,187,16283,1,0,0:0:0:0:
302,187,17058,1,8,0:0:0:0:
302,187,17832,1,8,0:0:0:0:
302,187,18219,1,8,0:0:0:0:
302,187,18606,1,0,0:0:0:0:
302,187,19380,1,0,0:0:0:0:
302,187,20154,1,8,0:0:0:0:
302,187,20929,1,8,0:0:0:0:
302,187,21316,1,0,0:0:0:0:
302,187,21703,1,8,0:0:0:0:
302,187,22477,1,0,0:0:0:0:
302,187,23251,1,8,0:0:0:0:
302,187,24025,1,8,0:0:0:0:
302,187,24412,1,8,0:0:0:0:
302,187,24800,1,0,0:0:0:0:
291,169,25574,1,8,0:0:0:0:
291,169,26348,1,0,0:0:0:0:
286,165,27122,1,8,0:0:0:0:
286,165,27509,1,0,0:0:0:0:
291,169,27896,1,8,0:0:0:0:
272,163,28671,1,8,0:0:0:0:
272,163,29445,1,0,0:0:0:0:
272,163,30219,1,8,0:0:0:0:
272,163,30606,1,8,0:0:0:0:
272,163,30993,1,0,0:0:0:0:
272,163,31767,1,8,0:0:0:0:
272,163,32542,1,0,0:0:0:0:
272,163,33316,1,8,0:0:0:0:
272,163,33703,1,0,0:0:0:0:
272,163,34090,1,8,0:0:0:0:
272,163,34864,1,8,0:0:0:0:
272,163,35638,1,0,0:0:0:0:
272,163,36412,1,8,0:0:0:0:
272,163,36800,1,8,0:0:0:0:
272,163,37187,1,0,0:0:0:0:
272,163,37961,1,0,0:0:0:0:
272,163,38735,1,0,0:0:0:0:
272,163,39509,1,0,0:0:0:0:
272,163,40283,1,0,0:0:0:0:
272,163,41058,1,0,0:0:0:0:
272,163,41832,1,0,0:0:0:0:
272,163,42606,1,0,0:0:0:0:
272,163,43380,1,0,0:0:0:0:
272,163,44154,1,0,0:0:0:0:
272,163,44929,1,0,0:0:0:0:
272,163,45703,1,0,0:0:0:0:
272,163,46477,1,0,0:0:0:0:
272,163,47251,1,0,0:0:0:0:
279,162,49574,1,4,0:0:0:0:
152,170,50348,1,12,0:0:0:0:
266,203,50735,1,0,0:0:0:0:
257,195,50929,1,0,0:0:0:0:
248,115,51122,1,8,0:0:0:0:
259,196,51509,1,0,0:0:0:0:
361,238,51896,1,12,0:0:0:0:
361,238,52283,1,8,0:0:0:0:
361,238,52477,1,0,0:0:0:0:
361,238,52671,1,4,0:0:0:0:
252,239,53445,1,12,0:0:0:0:
252,239,53832,1,8,0:0:0:0:
252,239,54025,1,0,0:0:0:0:
252,239,54219,1,8,0:0:0:0:
252,239,54412,1,8,0:0:0:0:
252,239,54606,1,0,0:0:0:0:
252,239,54993,1,12,0:0:0:0:
252,239,55380,1,0,0:0:0:0:
252,239,55767,1,4,0:0:0:0:
200,208,56542,1,12,0:0:0:0:
208,208,56929,1,8,0:0:0:0:
208,208,57122,1,0,0:0:0:0:
233,87,57509,1,8,0:0:0:0:
210,148,57703,1,0,0:0:0:0:
207,163,57896,1,0,0:0:0:0:
215,145,58090,1,12,0:0:0:0:
219,144,58477,1,8,0:0:0:0:
219,143,58671,1,0,0:0:0:0:
225,140,58864,1,4,0:0:0:0:
330,248,59638,1,12,0:0:0:0:
235,171,60025,1,8,0:0:0:0:
252,168,60219,1,0,0:0:0:0:
235,171,60412,1,0,0:0:0:0:
187,130,60606,1,8,0:0:0:0:
235,171,60800,1,0,0:0:0:0:
134,235,61187,2,0,L|180:225,6,37.6250005741119
279,162,61961,1,4,0:0:0:0:
152,170,62735,1,12,0:0:0:0:
266,203,63122,1,0,0:0:0:0:
257,195,63316,1,0,0:0:0:0:
248,115,63509,1,8,0:0:0:0:
259,196,63896,1,0,0:0:0:0:
361,238,64283,1,12,0:0:0:0:
361,238,64671,1,8,0:0:0:0:
361,238,64864,1,0,0:0:0:0:
361,238,65058,1,4,0:0:0:0:
252,239,65832,1,12,0:0:0:0:
252,239,66219,1,0,0:0:0:0:
252,239,66412,1,0,0:0:0:0:
252,239,66606,1,8,0:0:0:0:
252,239,66800,1,8,0:0:0:0:
252,239,66993,1,0,0:0:0:0:
252,239,67380,1,12,0:0:0:0:
252,239,67767,1,0,0:0:0:0:
252,239,68154,1,4,0:0:0:0:
200,208,68929,1,12,0:0:0:0:
208,208,69316,1,0,0:0:0:0:
208,208,69509,1,0,0:0:0:0:
233,87,69896,1,8,0:0:0:0:
210,148,70090,1,0,0:0:0:0:
207,163,70283,1,0,0:0:0:0:
215,145,70477,1,12,0:0:0:0:
219,144,70864,1,8,0:0:0:0:
219,143,71058,1,0,0:0:0:0:
225,140,71251,1,4,0:0:0:0:
330,248,72025,1,12,0:0:0:0:
235,171,72412,5,8,0:0:0:0:
252,168,72606,1,0,0:0:0:0:
92,233,72800,2,0,L|148:237,6,32.6549997060173
179,135,73574,2,0,L|214:140,6,30.3449994767784
221,147,74348,5,0,0:0:0:0:
251,171,75122,1,8,0:0:0:0:
278,184,75509,1,0,0:0:0:0:
287,186,75896,1,8,0:0:0:0:
312,222,76283,1,0,0:0:0:0:
312,222,76671,1,8,0:0:0:0:
393,242,76864,1,0,0:0:0:0:
303,177,77445,1,0,0:0:0:0:
314,198,77832,1,0,0:0:0:0:
317,198,78219,1,8,0:0:0:0:
222,158,78800,1,0,0:0:0:0:
222,158,78993,1,8,0:0:0:0:
308,179,79380,1,0,0:0:0:0:
299,229,79767,1,8,0:0:0:0:
299,229,80154,1,0,0:0:0:0:
221,147,80542,5,0,0:0:0:0:
251,171,81316,1,8,0:0:0:0:
278,184,81703,1,0,0:0:0:0:
287,186,82090,1,8,0:0:0:0:
312,222,82477,1,0,0:0:0:0:
312,222,82864,1,8,0:0:0:0:
393,242,83058,1,0,0:0:0:0:
303,177,83638,1,0,0:0:0:0:
314,198,84025,1,0,0:0:0:0:
161,220,84993,1,0,0:0:0:0:
221,147,86735,5,0,0:0:0:0:
251,171,87509,1,8,0:0:0:0:
278,184,87896,1,0,0:0:0:0:
278,184,88090,1,0,0:0:0:0:
287,186,88283,1,8,0:0:0:0:
312,222,88671,1,0,0:0:0:0:
312,222,89058,1,8,0:0:0:0:
393,242,89251,1,0,0:0:0:0:
190,242,89445,1,8,0:0:0:0:
303,177,89832,1,0,0:0:0:0:
314,198,90025,1,0,0:0:0:0:
314,198,90219,1,0,0:0:0:0:
317,198,90606,1,8,0:0:0:0:
175,128,91187,1,0,0:0:0:0:
222,158,91380,1,8,0:0:0:0:
308,179,91767,1,0,0:0:0:0:
299,229,92154,1,8,0:0:0:0:
299,229,92348,1,8,0:0:0:0:
299,229,92542,1,0,0:0:0:0:
221,147,92929,5,0,0:0:0:0:
251,171,93703,1,8,0:0:0:0:
278,184,94090,1,0,0:0:0:0:
278,184,94283,1,0,0:0:0:0:
287,186,94477,1,8,0:0:0:0:
312,222,94864,1,0,0:0:0:0:
312,222,95251,1,8,0:0:0:0:
393,242,95445,1,0,0:0:0:0:
190,242,95638,1,8,0:0:0:0:
303,177,96025,1,0,0:0:0:0:
314,198,96219,1,0,0:0:0:0:
314,198,96412,1,0,0:0:0:0:
317,198,96800,1,8,0:0:0:0:
222,158,97380,1,0,0:0:0:0:
222,158,97574,1,8,0:0:0:0:
308,179,97961,1,0,0:0:0:0:
299,229,98348,1,8,0:0:0:0:
299,229,98542,1,8,0:0:0:0:
299,229,98735,5,0,0:0:0:0:
299,229,99122,1,4,0:0:0:0:
249,195,99896,1,0,0:0:0:0:
249,195,100671,1,0,0:0:0:0:
249,195,101445,1,0,0:0:0:0:
249,195,101832,1,4,0:0:0:0:
249,195,102219,1,4,0:0:0:0:
249,195,102993,1,0,0:0:0:0:
230,182,103767,1,0,0:0:0:0:
230,182,104542,1,0,0:0:0:0:
230,182,105316,1,4,0:0:0:0:
235,185,106090,1,0,0:0:0:0:
235,185,106864,1,0,0:0:0:0:
235,185,107638,1,0,0:0:0:0:
235,185,108412,1,4,0:0:0:0:
227,209,109187,1,0,0:0:0:0:
292,301,111122,5,0,0:0:0:0:
279,162,111509,1,4,0:0:0:0:
152,170,112283,1,12,0:0:0:0:
266,203,112671,1,0,0:0:0:0:
257,195,112864,1,0,0:0:0:0:
248,115,113058,1,8,0:0:0:0:
259,196,113445,1,0,0:0:0:0:
361,238,113832,1,12,0:0:0:0:
361,238,114219,1,8,0:0:0:0:
361,238,114412,1,0,0:0:0:0:
361,238,114606,1,4,0:0:0:0:
252,239,115380,1,12,0:0:0:0:
252,239,115767,1,8,0:0:0:0:
252,239,115961,1,0,0:0:0:0:
252,239,116154,1,8,0:0:0:0:
252,239,116348,1,8,0:0:0:0:
252,239,116542,1,0,0:0:0:0:
252,239,116929,1,12,0:0:0:0:
252,239,117316,1,0,0:0:0:0:
252,239,117703,1,4,0:0:0:0:
200,208,118477,1,12,0:0:0:0:
208,208,118864,1,8,0:0:0:0:
208,208,119058,1,0,0:0:0:0:
233,87,119445,1,8,0:0:0:0:
210,148,119638,1,0,0:0:0:0:
207,163,119832,1,0,0:0:0:0:
215,145,120025,1,12,0:0:0:0:
219,144,120412,1,8,0:0:0:0:
219,143,120606,1,0,0:0:0:0:
225,140,120800,1,4,0:0:0:0:
330,248,121574,1,12,0:0:0:0:
235,171,121961,1,8,0:0:0:0:
252,168,122154,1,0,0:0:0:0:
235,171,122348,1,0,0:0:0:0:
187,130,122542,1,8,0:0:0:0:
235,171,122735,1,0,0:0:0:0:
128,224,123122,2,0,L|174:211,6,37.6250005741119
279,162,123896,1,4,0:0:0:0:
152,170,124671,1,12,0:0:0:0:
266,203,125058,1,0,0:0:0:0:
257,195,125251,1,0,0:0:0:0:
248,115,125445,1,8,0:0:0:0:
259,196,125832,1,0,0:0:0:0:
361,238,126219,1,12,0:0:0:0:
361,238,126606,1,8,0:0:0:0:
361,238,126800,1,0,0:0:0:0:
361,238,126993,1,4,0:0:0:0:
252,239,127767,1,12,0:0:0:0:
252,239,128154,1,0,0:0:0:0:
252,239,128348,1,0,0:0:0:0:
252,239,128542,1,8,0:0:0:0:
252,239,128735,1,8,0:0:0:0:
252,239,128929,1,0,0:0:0:0:
252,239,129316,1,12,0:0:0:0:
252,239,129703,1,0,0:0:0:0:
252,239,130090,1,4,0:0:0:0:
200,208,130864,1,12,0:0:0:0:
208,208,131251,1,0,0:0:0:0:
208,208,131445,1,0,0:0:0:0:
233,87,131832,1,8,0:0:0:0:
210,148,132025,1,0,0:0:0:0:
207,163,132219,1,0,0:0:0:0:
215,145,132412,1,12,0:0:0:0:
219,144,132800,1,8,0:0:0:0:
219,143,132993,1,0,0:0:0:0:
225,140,133187,1,4,0:0:0:0:
330,248,133961,1,12,0:0:0:0:
235,171,134348,5,8,0:0:0:0:
252,168,134542,1,0,0:0:0:0:
85,262,134735,2,0,L|128:258,6,32.6549997060173
68,245,135509,2,0,L|110:243,6,30.3449994767784
231,249,136283,5,0,0:0:0:0:
363,177,137058,1,0,0:0:0:0:
363,177,137832,1,0,0:0:0:0:
363,177,138606,1,0,0:0:0:0:
363,177,139380,1,0,0:0:0:0:
363,177,140154,1,0,0:0:0:0:
363,177,140929,1,0,0:0:0:0:
363,177,141703,1,0,0:0:0:0:
363,177,142477,1,0,0:0:0:0:
363,177,143251,1,0,0:0:0:0:
363,177,144025,1,0,0:0:0:0:
363,177,144800,1,0,0:0:0:0:
363,177,145574,1,0,0:0:0:0:
363,177,146348,1,0,0:0:0:0:
363,177,147122,1,0,0:0:0:0:
363,177,147896,1,0,0:0:0:0:
363,177,148671,1,0,0:0:0:0:
363,177,149445,1,0,0:0:0:0:
363,177,150219,1,0,0:0:0:0:
363,177,150993,1,0,0:0:0:0:
363,177,151767,1,0,0:0:0:0:
363,177,152542,1,0,0:0:0:0:
363,177,153316,1,0,0:0:0:0:
363,177,154090,1,0,0:0:0:0:
363,177,154864,1,0,0:0:0:0:
363,177,155638,1,0,0:0:0:0:
363,177,156412,1,0,0:0:0:0:
363,177,157187,1,0,0:0:0:0:
363,177,157961,1,0,0:0:0:0:
363,177,158735,1,0,0:0:0:0:
136,186,161058,1,0,0:0:0:0:
