osu file format v14

[General]
AudioFilename: audio.mp3
AudioLeadIn: 0
PreviewTime: 161628
Countdown: 0
SampleSet: None
StackLeniency: 0.2
Mode: 0
LetterboxInBreaks: 0
WidescreenStoryboard: 1

[Editor]
Bookmarks: 25376,398327,658639,720571,955916,1279515,1536536
DistanceSpacing: 0.6
BeatDivisor: 4
GridSize: 8
TimelineZoom: 1.4

[Metadata]
Title:bounce connected DISC1 pt. A
TitleUnicode:bounce connected DISC1 pt. A
Artist:TaQ
ArtistUnicode:TaQ
Creator:rustbell
Version:Marathon
Source:
Tags:Giudecca symbolic Holic stoic DXY! PARANOiA
BeatmapID:1652190
BeatmapSetID:787149

[Difficulty]
HPDrainRate:1
CircleSize:5
OverallDifficulty:9
ApproachRate:8.5
SliderMultiplier:1.6
SliderTickRate:1

[Events]
//Background and Video events
0,0,"bg.png",0,0
//Break Periods
2,137055,147693
2,211374,222012
2,349175,359813
2,386334,395424
2,485427,496065
2,622253,632317
//Storyboard Layer 0 (Background)
//Storyboard Layer 1 (Fail)
//Storyboard Layer 2 (Pass)
//Storyboard Layer 3 (Foreground)
//Storyboard Sound Samples

[TimingPoints]
603,387.080042346557,4,1,0,80,1,0
24989,-100,4,2,1,50,0,0
50149,-100,4,2,0,60,0,0
60987,-50,4,2,0,60,0,0
61374,-33.3333333333333,4,2,0,60,0,0
61568,-25,4,2,0,60,0,0
61761,-40,4,2,0,60,0,0
62535,-100,4,1,0,60,0,0
71825,-80,4,1,0,60,0,0
72599,-100,4,1,0,60,0,0
73374,-133.333333333333,4,1,0,60,0,0
74148,-100,4,1,0,60,0,0
74922,-100,4,2,0,60,0,0
87308,-25,4,1,0,60,0,1
88083,-50,4,1,0,60,0,1
88857,-20,4,1,0,60,0,1
89631,-33.3333333333333,4,1,0,60,0,1
90405,-16.6666666666667,4,1,0,60,0,1
91179,-25,4,1,0,60,0,1
91953,-14.2857142857143,4,1,0,60,0,1
92728,-20,4,1,0,60,0,1
93502,-50,4,1,0,60,0,1
94276,-20,4,1,0,60,0,1
95050,-33.3333333333333,4,1,0,60,0,1
95824,-16.6666666666667,4,1,0,60,0,1
96598,-25,4,1,0,60,0,1
97373,-14.2857142857143,4,1,0,60,0,1
98147,-20,4,1,0,60,0,1
98921,-66.6666666666667,4,1,0,60,0,1
99695,-25,4,1,0,60,0,1
100082,-50,4,1,0,60,0,1
100469,-25,4,1,0,60,0,1
100856,-50,4,1,0,60,0,1
101243,-25,4,1,0,60,0,1
101630,-50,4,1,0,60,0,1
102017,-25,4,1,0,60,0,1
102405,-50,4,1,0,60,0,1
102792,-25,4,1,0,60,0,1
103179,-50,4,1,0,60,0,1
103566,-25,4,1,0,60,0,1
103953,-50,4,1,0,60,0,1
104340,-25,4,1,0,60,0,1
104727,-50,4,1,0,60,0,1
105114,-25,4,1,0,60,0,1
105501,-50,4,1,0,60,0,1
105888,-33.3333333333333,4,1,0,60,0,1
106275,-166.666666666667,4,1,0,60,0,1
106662,-36,4,1,0,60,0,1
107050,-100,4,1,0,60,0,1
107437,-40,4,1,0,60,0,1
107824,-75.187969924812,4,1,0,60,0,1
108211,-45,4,1,0,60,0,1
108598,-56.1797752808989,4,1,0,60,0,1
108985,-25,4,1,0,60,0,1
109372,-100,4,1,0,60,0,1
109759,-25,4,1,0,60,0,1
110146,-100,4,1,0,60,0,1
110533,-50,4,1,0,60,0,1
110727,-33.3333333333333,4,1,0,60,0,1
110920,-25,4,1,0,60,0,1
111114,-20,4,1,0,60,0,1
111307,-33.3333333333333,4,1,0,60,0,1
112082,-100,4,1,0,60,0,0
135500,-80,4,1,0,60,0,0
135693,-66.6666666666667,4,1,0,60,0,0
135887,-57.1428571428571,4,1,0,60,0,0
136081,-66.6666666666667,4,1,0,60,0,0
160079,-133.333333333333,4,1,0,60,0,0
160273,-100,4,1,0,60,0,0
160467,-66.6666666666667,4,1,0,60,0,0
160660,-57.1428571428571,4,1,0,60,0,0
160854,-66.6666666666667,4,1,0,60,0,0
161628,-100,4,1,0,60,0,1
211174,-100,4,1,0,60,0,0
223174,-100,4,2,0,60,0,0
248334,-100,4,1,0,60,0,0
260720,-100,4,2,0,60,0,0
311815,-66.6666666666667,4,2,0,60,0,1
327492,-50,4,2,0,60,0,1
329233,-33.3333333333333,4,2,0,60,0,1
329814,-50,4,2,0,60,0,1
330008,-33.3333333333333,4,2,0,60,0,1
330588,-50,4,2,0,60,0,1
330782,-25,4,2,0,60,0,1
331362,-50,4,2,0,60,0,1
331556,-25,4,2,0,60,0,1
332137,-50,4,2,0,60,0,1
332330,-25,4,2,0,60,0,1
332911,-50,4,2,0,60,0,1
333104,-25,4,2,0,60,0,1
333685,-50,4,2,0,60,0,1
333878,-25,4,2,0,60,0,1
334265,-50,4,2,0,60,0,1
334653,-25,4,2,0,60,0,1
335040,-50,4,2,0,60,0,1
336588,-100,4,2,0,60,0,0
510000,-100,4,2,0,60,0,0
521612,-66.6666666666667,4,2,0,60,0,0
522386,-66.6666666666667,4,2,0,60,0,1
529547,-100,4,2,0,60,0,1
529741,-50,4,2,0,60,0,1
529934,-100,4,2,0,60,0,1
530709,-66.6666666666667,4,2,0,60,0,1
530902,-100,4,2,0,60,0,1
531096,-50,4,2,0,60,0,1
531289,-100,4,2,0,60,0,1
532450,-66.6666666666667,4,2,0,60,0,1
532644,-100,4,2,0,60,0,1
532838,-50,4,2,0,60,0,1
533031,-100,4,2,0,60,0,1
533805,-66.6666666666667,4,2,0,60,0,1
533999,-57.1428571428571,4,2,0,60,0,1
534192,-50,4,2,0,60,0,1
534386,-100,4,2,0,60,0,1
535934,-50,4,2,0,60,0,1
536805,-100,4,2,0,60,0,1
537095,-66.6666666666667,4,2,0,60,0,1
537289,-50,4,2,0,60,0,1
538644,-100,4,2,0,60,0,1
539031,-50,4,2,0,60,0,1
539999,-100,4,2,0,60,0,1
540386,-50,4,2,0,60,0,1
541740,-100,4,2,0,60,0,1
542127,-50,4,2,0,60,0,1
543095,-100,4,2,0,60,0,1
543482,-50,4,2,0,60,0,1
544837,-100,4,2,0,60,0,1
545224,-50,4,2,0,60,0,1
545611,-100,4,2,0,60,0,1
545805,-75.187969924812,4,2,0,60,0,1
545998,-59.8802395209581,4,2,0,60,0,1
546192,-50,4,2,0,60,0,1
546579,-59.8802395209581,4,2,0,60,0,1
546772,-75.187969924812,4,2,0,60,0,1
546966,-100,4,2,0,60,0,1
547160,-100,4,1,0,60,0,0
559643,-100,4,2,0,60,0,0
571933,-100,4,1,0,60,0,1
591674,-66.6666666666667,4,1,0,60,0,1
592254,-100,4,1,0,60,0,1
592835,-66.6666666666667,4,1,0,60,0,1
621479,-100,4,1,0,60,0,0
634059,-100,4,2,0,60,0,0
645284,-66.6666666666667,4,2,0,60,0,0
645671,-50,4,2,0,60,0,0
646058,-40,4,2,0,60,0,0
647994,-100,4,2,0,60,0,0
652445,-50,4,2,0,60,0,0
652832,-100,4,2,0,60,0,0

[HitObjects]
80,304,25085,6,0,L|72:256,2,40
64,200,25376,1,0,0:0:0:0:
48,72,25569,1,0,0:0:0:0:
48,72,25666,1,0,0:0:0:0:
96,320,25859,6,0,L|88:272,2,40
80,216,26150,1,0,0:0:0:0:
64,88,26343,1,0,0:0:0:0:
64,88,26440,1,0,0:0:0:0:
112,328,26633,6,0,L|160:320,2,40
216,312,26923,1,0,0:0:0:0:
344,296,27117,1,0,0:0:0:0:
344,296,27213,1,0,0:0:0:0:
128,344,27407,6,0,L|176:336,2,40
232,328,27697,1,0,0:0:0:0:
360,312,27891,1,0,0:0:0:0:
360,312,27988,1,0,0:0:0:0:
304,260,28182,5,0,0:0:0:0:
290,282,28278,1,0,0:0:0:0:
286,309,28375,1,0,0:0:0:0:
290,335,28472,1,0,0:0:0:0:
432,288,28666,1,0,0:0:0:0:
432,288,28763,1,0,0:0:0:0:
488,236,28956,5,0,0:0:0:0:
501,258,29052,1,0,0:0:0:0:
505,285,29149,1,0,0:0:0:0:
501,311,29246,1,0,0:0:0:0:
360,264,29440,1,0,0:0:0:0:
360,264,29537,1,0,0:0:0:0:
312,320,29730,5,0,0:0:0:0:
334,333,29826,1,0,0:0:0:0:
361,337,29923,1,0,0:0:0:0:
387,333,30020,1,0,0:0:0:0:
416,176,30214,1,0,0:0:0:0:
416,176,30311,1,0,0:0:0:0:
464,232,30504,5,0,0:0:0:0:
442,245,30600,1,0,0:0:0:0:
415,249,30697,1,0,0:0:0:0:
389,245,30794,1,0,0:0:0:0:
360,88,30988,1,0,0:0:0:0:
360,88,31085,1,0,0:0:0:0:
304,200,31279,5,0,0:0:0:0:
277,197,31375,1,0,0:0:0:0:
250,194,31472,1,0,0:0:0:0:
224,192,31569,1,0,0:0:0:0:
48,176,31762,1,0,0:0:0:0:
48,176,31859,1,0,0:0:0:0:
304,200,32053,5,0,0:0:0:0:
277,197,32149,1,0,0:0:0:0:
250,194,32246,1,0,0:0:0:0:
224,192,32343,1,0,0:0:0:0:
16,172,32536,1,0,0:0:0:0:
16,172,32633,1,0,0:0:0:0:
80,216,32827,5,0,0:0:0:0:
106,213,32923,1,0,0:0:0:0:
133,210,33020,1,0,0:0:0:0:
159,208,33117,1,0,0:0:0:0:
336,192,33310,1,0,0:0:0:0:
336,192,33407,1,0,0:0:0:0:
80,216,33601,5,0,0:0:0:0:
106,213,33697,1,0,0:0:0:0:
133,210,33794,1,0,0:0:0:0:
159,208,33891,1,0,0:0:0:0:
368,188,34084,1,0,0:0:0:0:
368,188,34181,1,0,0:0:0:0:
392,320,34375,5,0,0:0:0:0:
406,297,34471,1,0,0:0:0:0:
414,272,34568,1,0,0:0:0:0:
416,245,34665,1,0,0:0:0:0:
231,152,34859,1,0,0:0:0:0:
231,152,34956,1,0,0:0:0:0:
208,288,35149,5,0,0:0:0:0:
194,265,35245,1,0,0:0:0:0:
186,240,35342,1,0,0:0:0:0:
184,213,35439,1,0,0:0:0:0:
369,120,35633,1,0,0:0:0:0:
369,120,35730,1,0,0:0:0:0:
432,176,35924,6,0,L|432:224,2,40
432,64,36214,1,0,0:0:0:0:
432,288,36407,1,0,0:0:0:0:
432,288,36504,1,0,0:0:0:0:
360,248,36698,6,0,L|360:200,2,40
360,360,36988,1,0,0:0:0:0:
360,136,37181,1,0,0:0:0:0:
360,136,37278,1,0,0:0:0:0:
288,320,37472,6,0,L|240:328,1,40
176,296,37665,2,0,L|128:288,1,40
16,320,37956,1,0,0:0:0:0:
16,320,38052,1,0,0:0:0:0:
216,232,38246,6,0,L|264:240,1,40
328,208,38439,2,0,L|376:200,1,40
488,232,38730,1,0,0:0:0:0:
488,232,38826,1,0,0:0:0:0:
280,144,39020,6,0,L|232:152,1,40
168,120,39214,2,0,L|120:112,1,40
8,144,39504,1,0,0:0:0:0:
8,144,39600,1,0,0:0:0:0:
208,56,39794,6,0,L|256:64,1,40
320,32,39988,2,0,L|368:24,1,40
480,56,40278,1,0,0:0:0:0:
480,56,40374,1,0,0:0:0:0:
144,96,40569,6,0,L|144:144,1,40
112,208,40762,2,0,L|112:256,1,40
112,352,41052,1,0,0:0:0:0:
112,352,41149,1,0,0:0:0:0:
8,272,41343,6,0,L|8:224,1,40
40,160,41536,2,0,L|40:112,1,40
40,16,41826,1,0,0:0:0:0:
40,16,41923,1,0,0:0:0:0:
224,120,42117,6,0,L|224:160,1,40
256,232,42310,2,0,L|256:272,1,40
256,376,42600,1,0,0:0:0:0:
256,376,42697,1,0,0:0:0:0:
360,296,42891,6,0,L|360:256,1,40
328,184,43084,2,0,L|328:144,1,40
328,40,43374,1,0,0:0:0:0:
328,40,43471,1,0,0:0:0:0:
456,224,43665,5,0,0:0:0:0:
456,224,43762,1,0,0:0:0:0:
456,224,43859,1,0,0:0:0:0:
456,224,43955,1,0,0:0:0:0:
232,120,44149,1,0,0:0:0:0:
232,120,44246,1,0,0:0:0:0:
456,224,44439,5,0,0:0:0:0:
456,224,44536,1,0,0:0:0:0:
456,224,44633,1,0,0:0:0:0:
456,224,44729,1,0,0:0:0:0:
216,181,44923,1,0,0:0:0:0:
216,181,45020,1,0,0:0:0:0:
56,224,45213,5,0,0:0:0:0:
56,224,45310,1,0,0:0:0:0:
56,224,45407,1,0,0:0:0:0:
56,224,45503,1,0,0:0:0:0:
288,244,45697,1,0,0:0:0:0:
288,244,45794,1,0,0:0:0:0:
56,224,45988,5,0,0:0:0:0:
56,224,46085,1,0,0:0:0:0:
56,224,46182,1,0,0:0:0:0:
56,224,46278,1,0,0:0:0:0:
257,300,46471,1,0,0:0:0:0:
257,300,46568,1,0,0:0:0:0:
456,224,46762,5,0,0:0:0:0:
456,224,46859,1,0,0:0:0:0:
456,224,46956,1,0,0:0:0:0:
456,224,47052,1,0,0:0:0:0:
304,340,47246,1,0,0:0:0:0:
304,340,47342,1,0,0:0:0:0:
456,224,47536,5,0,0:0:0:0:
456,224,47633,1,0,0:0:0:0:
456,224,47730,1,0,0:0:0:0:
456,224,47826,1,0,0:0:0:0:
365,358,48020,1,0,0:0:0:0:
365,358,48117,1,0,0:0:0:0:
56,224,48310,6,0,L|52:176,3,40
124,116,48794,1,0,0:0:0:0:
123,133,48858,1,0,0:0:0:0:
122,151,48923,1,0,0:0:0:0:
121,169,48987,1,0,0:0:0:0:
152,240,49117,1,0,0:0:0:0:
151,257,49181,1,0,0:0:0:0:
149,293,49310,1,0,0:0:0:0:
96,32,49568,5,8,0:0:0:0:
32,360,50149,5,4,1:0:0:0:
104,360,50536,1,0,1:0:0:0:
176,360,50923,1,0,1:0:0:0:
248,360,51310,1,0,1:0:0:0:
32,360,51697,5,0,1:0:0:0:
104,360,52084,1,0,1:0:0:0:
176,360,52471,1,0,1:0:0:0:
248,360,52858,1,0,1:0:0:0:
224,264,53052,1,2,0:0:0:0:
32,360,53245,5,0,1:0:0:0:
104,360,53632,1,0,1:0:0:0:
176,360,54019,1,0,1:0:0:0:
248,360,54406,1,0,1:0:0:0:
32,360,54794,5,0,1:0:0:0:
104,360,55181,1,0,1:0:0:0:
176,360,55568,1,0,1:0:0:0:
152,264,55761,1,2,0:0:0:0:
192,160,55955,1,0,1:0:0:0:
199,170,56019,1,0,2:0:0:0:
203,181,56084,1,0,2:0:0:0:
204,193,56148,1,0,2:0:0:0:
203,204,56213,1,0,2:0:0:0:
198,215,56277,1,0,2:0:0:0:
224,272,56342,6,0,L|272:264,2,40,0|0|2,1:0|0:0|0:0,0:0:0:0:
336,304,56729,1,0,1:0:0:0:
144,280,56923,1,2,0:0:0:0:
448,288,57116,6,0,L|400:280,2,40,0|0|2,1:0|0:0|0:0,0:0:0:0:
480,360,57503,1,0,1:0:0:0:
440,200,57697,1,2,0:0:0:0:
328,312,57890,5,0,1:0:0:0:
328,312,57987,1,0,0:0:0:0:
328,312,58084,1,2,0:0:0:0:
216,300,58277,2,0,L|128:292,1,80,0|2,1:0|0:0,0:0:0:0:
112,192,58665,5,0,1:0:0:0:
112,192,58762,1,0,0:0:0:0:
112,192,58859,1,2,0:0:0:0:
224,204,59052,2,0,L|312:212,1,80,0|2,1:0|0:0,0:0:0:0:
416,144,59439,5,0,1:0:0:0:
496,208,59535,2,0,L|448:200,1,40,0|2,0:0|0:0,0:0:0:0:
352,112,59826,2,0,L|272:120,1,80,0|2,1:0|0:0,0:0:0:0:
96,216,60213,5,0,1:0:0:0:
16,280,60309,2,0,L|64:272,1,40,0|2,0:0|0:0,0:0:0:0:
161,184,60600,2,0,L|241:191,1,80,0|2,1:0|0:0,0:0:0:0:
96,336,61181,6,0,L|112:240,1,80
192,320,61374,6,0,L|213:192,1,120.000004577637
288,304,61568,6,0,L|315:139,1,160
384,288,61761,6,0,L|417:88,1,200,0|8,0:0|0:0,0:0:0:0:
480,240,62342,5,8,0:0:0:0:
224,208,62535,1,4,0:0:0:0:
176,128,62922,1,0,0:0:0:0:
240,56,63309,1,0,0:0:0:0:
288,144,63697,1,0,0:0:0:0:
160,192,64084,5,0,0:0:0:0:
224,120,64471,1,0,0:0:0:0:
272,208,64859,1,0,0:0:0:0:
208,272,65245,1,0,0:0:0:0:
168,96,65632,5,0,0:0:0:0:
216,184,66020,1,0,0:0:0:0:
152,248,66406,1,0,0:0:0:0:
104,168,66793,1,0,0:0:0:0:
208,56,67180,5,0,0:0:0:0:
280,136,67567,1,0,0:0:0:0:
352,64,67954,1,0,0:0:0:0:
424,144,68342,1,0,0:0:0:0:
336,248,68729,6,0,P|408:232|472:288,1,160
448,384,69503,2,0,P|376:400|312:344,1,160
176,160,70277,6,0,P|104:144|40:200,1,160
64,296,71051,2,0,P|136:312|200:256,1,160
288,96,71825,6,0,B|384:72|384:72|475:114,1,200
300,164,72599,2,0,B|377:144|377:144|451:178,1,160
316,232,73374,2,0,B|373:217|373:217|428:243,1,120.000004577637
328,300,74148,2,0,B|366:290|366:290|402:307,1,80,0|0,0:0|2:0,0:0:0:0:
232,256,74535,5,0,0:0:0:0:
216,254,74599,1,0,2:0:0:0:
200,253,74664,1,0,2:0:0:0:
184,251,74728,1,0,2:0:0:0:
168,250,74793,1,0,2:0:0:0:
152,248,74857,1,0,2:0:0:0:
88,288,74922,5,4,1:0:0:0:
88,288,75019,1,0,0:0:0:0:
88,288,75115,1,0,0:0:0:0:
24,144,75309,1,0,1:0:0:0:
40,144,75406,1,0,0:0:0:0:
56,144,75502,1,0,0:0:0:0:
72,144,75599,1,0,0:0:0:0:
128,184,75696,1,0,1:0:0:0:
144,184,75792,1,0,0:0:0:0:
160,184,75889,1,0,0:0:0:0:
336,88,76083,5,0,1:0:0:0:
320,88,76180,1,0,0:0:0:0:
304,88,76276,1,0,0:0:0:0:
288,88,76373,1,0,0:0:0:0:
232,128,76470,1,0,1:0:0:0:
216,128,76566,1,0,0:0:0:0:
200,128,76663,1,0,0:0:0:0:
368,152,76857,5,0,1:0:0:0:
368,168,76954,1,0,0:0:0:0:
368,184,77050,1,0,0:0:0:0:
368,200,77147,1,0,0:0:0:0:
408,256,77244,1,0,1:0:0:0:
408,272,77340,1,0,0:0:0:0:
408,288,77437,1,0,0:0:0:0:
296,360,77631,6,0,L|296:320,1,40,0|0,1:0|0:0,0:0:0:0:
168,280,77825,2,0,L|168:328,1,40,2|0,0:0|0:0,0:0:0:0:
232,224,78019,1,0,1:0:0:0:
232,208,78115,1,0,0:0:0:0:
232,192,78212,1,0,0:0:0:0:
56,56,78406,5,0,1:0:0:0:
45,80,78502,1,0,0:0:0:0:
45,106,78599,1,0,0:0:0:0:
57,130,78696,1,0,0:0:0:0:
127,164,78793,1,0,1:0:0:0:
133,190,78890,1,0,0:0:0:0:
128,216,78986,1,0,0:0:0:0:
272,200,79180,5,0,1:0:0:0:
282,224,79276,1,0,0:0:0:0:
282,250,79373,1,0,0:0:0:0:
270,274,79470,1,0,0:0:0:0:
201,308,79567,1,0,1:0:0:0:
195,334,79664,1,0,0:0:0:0:
200,360,79760,1,0,0:0:0:0:
368,328,79954,5,0,1:0:0:0:
357,303,80050,1,0,0:0:0:0:
357,277,80147,1,0,0:0:0:0:
369,253,80244,1,0,0:0:0:0:
439,220,80341,1,0,1:0:0:0:
445,194,80438,1,0,0:0:0:0:
440,168,80534,1,0,0:0:0:0:
360,24,80728,6,0,L|360:64,1,40,0|0,1:0|0:0,0:0:0:0:
232,104,80922,2,0,L|232:56,1,40,2|0,0:0|0:0,0:0:0:0:
312,152,81115,1,0,1:0:0:0:
307,178,81211,1,0,0:0:0:0:
313,204,81308,1,0,0:0:0:0:
208,264,81502,5,0,1:0:0:0:
181,264,81598,1,0,0:0:0:0:
154,264,81695,1,0,0:0:0:0:
128,264,81792,1,0,0:0:0:0:
208,264,81889,1,0,1:0:0:0:
168,264,81985,1,0,0:0:0:0:
128,264,82082,1,0,0:0:0:0:
304,304,82276,5,0,1:0:0:0:
330,304,82372,1,0,0:0:0:0:
357,304,82469,1,0,0:0:0:0:
384,304,82566,1,0,0:0:0:0:
304,304,82663,1,0,1:0:0:0:
344,304,82759,1,0,0:0:0:0:
384,304,82856,1,0,0:0:0:0:
208,344,83051,5,0,1:0:0:0:
181,344,83147,1,0,0:0:0:0:
154,344,83244,1,0,0:0:0:0:
128,344,83341,1,0,0:0:0:0:
208,344,83438,1,0,1:0:0:0:
168,344,83534,1,0,0:0:0:0:
128,344,83631,1,0,0:0:0:0:
304,304,83825,6,0,L|304:264,1,40,0|0,1:0|0:0,0:0:0:0:
448,224,84019,2,0,L|448:272,1,40,2|0,0:0|0:0,0:0:0:0:
368,168,84212,1,0,1:0:0:0:
368,128,84308,1,0,0:0:0:0:
368,88,84405,1,0,0:0:0:0:
280,32,84599,5,0,1:0:0:0:
240,80,84696,1,0,0:0:0:0:
224,80,84792,1,0,0:0:0:0:
208,80,84889,1,0,0:0:0:0:
160,128,84986,1,0,1:0:0:0:
144,128,85082,1,0,0:0:0:0:
128,128,85179,1,0,0:0:0:0:
112,128,85276,1,0,0:0:0:0:
64,176,85373,1,0,1:0:0:0:
0,232,85567,1,0,0:0:0:0:
16,232,85664,1,0,0:0:0:0:
120,232,87115,5,4,2:0:0:0:
136,160,87308,6,2,P|373:157|171:282,1,640,6|2,0:0|0:0,0:0:0:0:
239,132,88083,6,2,P|300:233|195:177,1,320
368,80,88857,6,2,P|223:338|214:41,1,800
348,212,89631,6,2,P|171:215|322:121,1,480.000018310548
303,367,90405,6,2,P|121:61|435:230,1,960.000036621095
168,276,91179,6,2,P|283:69|291:306,1,640
44,136,91953,6,2,P|459:130|105:348,1,1120.00001068115
214,42,92728,6,2,P|365:296|103:155,1,800
296,148,93502,6,2,P|239:251|235:132,1,320
360,300,94276,6,2,P|102:154|398:145,1,800
187,257,95050,6,2,P|272:101|279:278,1,480.000018310548
121,55,95824,6,2,P|432:228|76:239,1,960.000036621095
283,66,96598,6,2,P|287:302|162:100,1,640
460,240,97373,6,2,P|45:246|399:28,1,1120.00001068115
212,333,98147,6,2,P|209:37|365:289,1,800
222,159,98921,6,2,P|299:202|210:205,1,240.000009155274
16,48,99695,6,2,L|520:48,1,480,6|0,0:0|0:0,0:0:0:0:
336,48,100082,2,0,L|496:48,1,160,2|0,0:0|0:0,0:0:0:0:
16,120,100469,6,2,L|520:120,1,480,2|0,0:0|0:0,0:0:0:0:
256,120,100856,2,0,L|416:120,1,160,2|0,0:0|0:0,0:0:0:0:
16,192,101243,6,2,L|520:192,1,480,2|0,0:0|0:0,0:0:0:0:
176,192,101630,2,0,L|336:192,1,160,2|0,0:0|0:0,0:0:0:0:
16,264,102017,6,2,L|520:264,1,480,2|0,0:0|0:0,0:0:0:0:
96,264,102405,2,0,L|256:264,1,160,2|0,0:0|0:0,0:0:0:0:
496,336,102792,6,2,L|-8:336,1,480,2|0,0:0|0:0,0:0:0:0:
176,336,103179,2,0,L|16:336,1,160,2|0,0:0|0:0,0:0:0:0:
496,264,103566,6,2,L|-8:264,1,480,2|0,0:0|0:0,0:0:0:0:
256,264,103953,2,0,L|96:264,1,160,2|0,0:0|0:0,0:0:0:0:
496,192,104340,6,2,L|-8:192,1,480,2|0,0:0|0:0,0:0:0:0:
336,192,104727,2,0,L|176:192,1,160,2|0,0:0|0:0,0:0:0:0:
496,120,105114,6,2,L|-8:120,1,480,2|0,0:0|0:0,0:0:0:0:
416,120,105502,2,0,L|256:120,1,160,2|0,0:0|0:0,0:0:0:0:
16,48,105888,6,2,L|384:48,1,360.000013732911,6|0,0:0|0:0,0:0:0:0:
448,48,106275,2,0,L|496:48,1,47.9999985351563,2|0,0:0|0:0,0:0:0:0:
16,144,106662,6,2,L|360:144,1,333.333333333333,2|0,0:0|0:0,0:0:0:0:
416,144,107050,2,0,L|496:144,1,80,2|0,0:0|0:0,0:0:0:0:
16,240,107437,6,2,L|336:240,1,300,6|0,0:0|0:0,0:0:0:0:
389,240,107824,2,0,L|496:240,1,106.399995616455,2|0,0:0|0:0,0:0:0:0:
16,336,108211,6,2,L|296:336,1,266.666666666667,2|0,0:0|0:0,0:0:0:0:
353,336,108598,2,0,L|496:336,1,142.400000108643,2|0,0:0|0:0,0:0:0:0:
496,96,108985,6,2,L|-8:96,1,480,6|0,0:0|0:0,0:0:0:0:
16,96,109372,2,0,L|104:96,1,80,2|0,0:0|0:0,0:0:0:0:
496,288,109759,6,2,L|-8:288,1,480,6|0,0:0|0:0,0:0:0:0:
16,288,110146,2,0,L|104:288,1,80,2|0,0:0|0:0,0:0:0:0:
472,368,110533,6,0,L|447:291,1,80,0|0,0:0|2:0,0:0:0:0:
384,352,110727,6,0,L|344:230,1,120.000004577637,0|0,0:0|2:0,0:0:0:0:
296,336,110920,6,0,L|246:183,1,160,0|0,0:0|2:0,0:0:0:0:
208,320,111114,6,0,L|143:122,1,200,0|0,0:0|2:0,0:0:0:0:
112,304,111307,6,0,L|37:75,1,240.000009155274,0|0,0:0|2:0,0:0:0:0:
37,75,111694,5,8,0:0:0:0:
32,352,111985,5,0,0:0:0:0:
32,352,112082,1,4,1:0:0:0:
96,352,112469,1,0,1:0:0:0:
160,352,112856,1,0,1:0:0:0:
224,352,113243,1,0,1:0:0:0:
288,352,113630,5,0,1:0:0:0:
352,352,114017,1,0,1:0:0:0:
416,352,114404,1,0,1:0:0:0:
480,352,114791,1,0,1:0:0:0:
512,288,115178,5,0,0:0:0:0:
448,288,115565,1,0,0:0:0:0:
384,288,115952,1,0,0:0:0:0:
320,288,116339,1,0,0:0:0:0:
256,288,116727,5,0,0:0:0:0:
192,288,117114,1,0,0:0:0:0:
128,288,117501,1,0,0:0:0:0:
64,288,117888,1,0,0:0:0:0:
0,288,118081,1,0,0:0:0:0:
32,224,118275,5,0,0:0:0:0:
32,352,118662,1,0,0:0:0:0:
96,224,119049,1,0,0:0:0:0:
96,352,119436,1,0,0:0:0:0:
160,224,119823,5,0,0:0:0:0:
160,352,120210,1,0,0:0:0:0:
224,224,120597,1,0,0:0:0:0:
224,352,120984,1,0,0:0:0:0:
288,288,121371,5,0,0:0:0:0:
288,160,121759,1,0,0:0:0:0:
352,288,122146,1,0,0:0:0:0:
352,160,122533,1,0,0:0:0:0:
416,288,122920,5,0,0:0:0:0:
416,160,123307,1,0,0:0:0:0:
480,288,123694,1,0,0:0:0:0:
480,160,124081,1,0,0:0:0:0:
480,32,124275,1,0,0:0:0:0:
416,96,124468,6,0,B|336:96|336:96|272:144,1,160,4|0,0:0|0:0,0:0:0:0:
272,144,125242,2,0,B|208:192|208:192|128:192,1,160
128,192,126016,2,0,B|128:112|128:112|80:48,1,160
128,192,126791,2,0,B|128:272|128:272|176:336,1,160
48,288,127565,6,0,B|112:240|112:240|192:240,1,160
192,240,128339,2,0,B|272:240|272:240|336:192,1,160
336,192,129113,2,0,B|336:112|336:112|384:48,1,160
336,192,129887,2,0,B|336:272|336:272|288:336,1,160
464,272,130661,5,4,0:0:0:0:
368,272,131048,1,0,0:0:0:0:
272,272,131436,1,0,0:0:0:0:
176,272,131823,1,0,0:0:0:0:
448,288,132210,5,4,0:0:0:0:
352,288,132597,1,0,0:0:0:0:
256,288,132985,1,0,0:0:0:0:
160,288,133372,1,0,0:0:0:0:
496,208,133758,5,4,0:0:0:0:
464,192,133855,1,0,2:0:0:0:
432,208,133952,1,0,2:0:0:0:
400,192,134048,1,0,2:0:0:0:
368,208,134145,1,0,0:0:0:0:
336,224,134242,1,0,2:0:0:0:
304,208,134339,1,0,2:0:0:0:
272,224,134435,1,0,2:0:0:0:
240,208,134532,5,4,0:0:0:0:
208,192,134629,1,0,2:0:0:0:
176,208,134726,1,0,2:0:0:0:
144,192,134822,1,0,2:0:0:0:
112,208,134919,1,0,0:0:0:0:
80,224,135016,1,0,2:0:0:0:
48,208,135113,1,0,2:0:0:0:
16,224,135209,1,0,2:0:0:0:
64,320,135500,6,0,L|72:256,1,50,0|0,0:0|2:0,0:0:0:0:
80,288,135693,6,0,L|87:224,1,60.0000022888184,0|0,0:0|2:0,0:0:0:0:
96,248,135887,6,0,L|105:174,1,70.000000667572,0|0,0:0|2:0,0:0:0:0:
112,216,136081,6,0,L|128:87,1,120.000004577637,0|8,0:0|2:0,0:0:0:0:
136,24,136468,5,0,0:0:0:0:
32,200,136661,1,0,0:0:0:0:
248,160,136855,1,4,0:0:0:0:
368,256,149241,5,4,0:0:0:0:
400,144,149435,2,0,P|416:176|408:208,1,60.0000022888184,0|0,0:0|2:0,0:0:0:0:
312,312,149628,2,0,L|184:304,1,120.000004577637
440,288,150015,5,0,0:0:0:0:
488,176,150209,2,0,P|496:208|488:240,1,60.0000022888184,0|0,0:0|2:0,0:0:0:0:
376,328,150402,2,0,L|248:320,1,120.000004577637
144,304,150790,5,0,0:0:0:0:
112,184,150984,2,0,P|96:216|104:248,1,60.0000022888184,0|0,0:0|2:0,0:0:0:0:
200,248,151177,2,0,L|328:256,1,120.000004577637
72,272,151564,5,0,0:0:0:0:
32,152,151758,2,0,P|24:184|32:216,1,60.0000022888184,0|0,0:0|2:0,0:0:0:0:
136,232,151951,2,0,L|264:240,1,120.000004577637
320,304,152338,5,0,0:0:0:0:
376,216,152531,2,0,P|392:248|384:280,1,60.0000022888184,0|0,0:0|2:0,0:0:0:0:
480,328,152725,2,0,L|464:208,1,120.000004577637
304,272,153112,5,0,0:0:0:0:
376,312,153305,2,0,P|392:280|384:248,1,60.0000022888184,0|0,0:0|2:0,0:0:0:0:
464,360,153499,2,0,L|480:240,1,120.000004577637
352,184,153886,5,0,0:0:0:0:
256,144,154080,1,0,0:0:0:0:
256,144,154177,1,0,2:0:0:0:
256,144,154273,2,0,L|136:152,1,120.000004577637
184,312,154660,5,0,0:0:0:0:
224,232,154854,1,0,0:0:0:0:
224,232,154951,1,0,2:0:0:0:
224,232,155047,2,0,L|104:240,1,120.000004577637
104,80,155435,6,0,P|88:112|96:144,1,60.0000022888184,4|0,0:0|2:0,0:0:0:0:
160,176,155628,2,0,L|224:168,1,60.0000022888184,0|0,0:0|2:0,0:0:0:0:
32,32,155822,2,0,B|8:88|8:88|16:160,1,120.000004577637
104,240,156209,5,0,0:0:0:0:
208,96,156402,2,0,L|272:104,1,60.0000022888184,0|0,0:0|2:0,0:0:0:0:
328,160,156596,2,0,L|448:144,1,120.000004577637
376,312,156983,5,4,0:0:0:0:
376,312,157080,1,0,2:0:0:0:
376,312,157176,2,0,L|448:320,1,60.0000022888184,0|0,0:0|2:0,0:0:0:0:
280,240,157370,2,0,B|296:296|296:296|272:352,1,120.000004577637
304,152,157757,5,0,0:0:0:0:
248,296,157950,2,0,L|184:288,1,60.0000022888184,0|0,0:0|2:0,0:0:0:0:
128,232,158144,2,0,L|8:248,1,120.000004577637
104,96,158531,6,0,P|128:120|160:128,1,60.0000022888184,4|0,0:0|2:0,0:0:0:0:
208,72,158725,2,0,L|216:0,1,60.0000022888184,0|0,0:0|2:0,0:0:0:0:
0,200,158918,2,0,L|120:192,1,120.000004577637
240,160,159305,6,0,P|264:184|296:192,1,60.0000022888184,4|0,0:0|2:0,0:0:0:0:
344,136,159499,2,0,L|352:64,1,60.0000022888184,0|0,0:0|2:0,0:0:0:0:
136,264,159692,2,0,L|256:256,1,120.000004577637
440,356,160079,6,0,L|480:354,1,30.0000011444092,0|0,2:0|2:0,0:0:0:0:
376,352,160273,6,0,L|440:347,1,40,0|0,0:0|2:0,0:0:0:0:
296,348,160467,6,0,L|360:343,1,60.0000022888184,0|0,0:0|2:0,0:0:0:0:
208,343,160660,6,0,L|281:337,1,70.000000667572,0|0,0:0|2:0,0:0:0:0:
68,340,160854,6,0,L|196:330,1,120.000004577637,0|8,0:0|0:0,0:0:0:0:
464,264,161434,5,0,0:0:0:0:
480,272,161531,1,0,0:0:0:0:
480,192,161628,5,4,0:0:0:0:
400,24,161821,1,2,0:0:0:0:
392,88,161918,1,0,0:0:0:0:
384,152,162015,1,0,0:0:0:0:
380,176,162112,5,0,2:0:0:0:
396,172,162208,1,0,2:0:0:0:
412,168,162305,1,0,2:0:0:0:
428,164,162402,1,0,0:0:0:0:
308,142,162595,5,2,0:0:0:0:
304,162,162692,1,0,0:0:0:0:
300,182,162789,1,0,0:0:0:0:
296,198,162886,5,0,2:0:0:0:
362,181,162982,1,0,2:0:0:0:
428,164,163079,1,0,2:0:0:0:
495,148,163176,1,0,0:0:0:0:
224,144,163370,5,2,0:0:0:0:
160,128,163466,1,0,0:0:0:0:
96,112,163563,1,0,0:0:0:0:
80,120,163660,5,0,2:0:0:0:
64,128,163757,1,0,2:0:0:0:
48,136,163854,1,0,2:0:0:0:
32,144,163950,1,0,0:0:0:0:
288,160,164144,5,2,0:0:0:0:
264,152,164241,1,0,0:0:0:0:
240,144,164337,1,0,0:0:0:0:
216,136,164434,5,0,2:0:0:0:
152,168,164531,1,0,2:0:0:0:
88,200,164628,1,0,2:0:0:0:
24,232,164724,1,0,0:0:0:0:
112,80,164918,5,2,0:0:0:0:
104,152,165015,1,0,0:0:0:0:
96,224,165112,1,0,0:0:0:0:
92,248,165208,5,0,2:0:0:0:
116,240,165305,1,0,2:0:0:0:
140,232,165402,1,0,2:0:0:0:
164,224,165499,1,0,0:0:0:0:
28,176,165692,5,2,0:0:0:0:
24,200,165789,1,0,0:0:0:0:
20,224,165886,1,0,0:0:0:0:
16,244,165982,5,0,2:0:0:0:
82,221,166079,1,0,2:0:0:0:
149,199,166176,1,0,2:0:0:0:
216,177,166273,1,0,0:0:0:0:
336,168,166466,5,2,0:0:0:0:
403,190,166563,1,0,0:0:0:0:
470,212,166660,1,0,0:0:0:0:
488,219,166757,5,0,2:0:0:0:
484,199,166853,1,0,2:0:0:0:
480,175,166950,1,0,2:0:0:0:
476,151,167047,1,0,0:0:0:0:
352,248,167240,5,2,0:0:0:0:
376,256,167337,1,0,0:0:0:0:
400,264,167434,1,0,0:0:0:0:
424,272,167531,5,0,2:0:0:0:
416,200,167627,1,0,2:0:0:0:
408,128,167724,1,0,2:0:0:0:
400,56,167821,1,4,0:0:0:0:
476,151,168015,5,2,0:0:0:0:
409,146,168111,1,0,0:0:0:0:
343,141,168208,1,0,0:0:0:0:
276,136,168305,5,0,2:0:0:0:
250,141,168401,1,0,2:0:0:0:
224,146,168498,1,0,2:0:0:0:
160,128,168595,1,0,0:0:0:0:
476,151,168789,5,2,0:0:0:0:
460,147,168885,1,0,0:0:0:0:
444,143,168982,1,0,0:0:0:0:
428,139,169079,5,0,2:0:0:0:
364,147,169175,1,0,2:0:0:0:
300,155,169272,1,0,2:0:0:0:
236,163,169369,1,0,0:0:0:0:
36,252,169563,5,2,0:0:0:0:
102,247,169659,1,0,0:0:0:0:
168,242,169756,1,0,0:0:0:0:
235,237,169853,5,0,2:0:0:0:
261,242,169949,1,0,2:0:0:0:
287,247,170046,1,0,2:0:0:0:
352,229,170143,1,0,0:0:0:0:
36,252,170337,5,2,0:0:0:0:
52,248,170433,1,0,0:0:0:0:
68,244,170530,1,0,0:0:0:0:
84,240,170627,5,0,2:0:0:0:
148,248,170723,1,0,2:0:0:0:
212,256,170820,1,0,2:0:0:0:
276,264,170917,1,0,0:0:0:0:
336,368,171111,5,2,0:0:0:0:
340,301,171207,1,0,0:0:0:0:
345,235,171304,1,0,0:0:0:0:
324,160,171401,5,0,2:0:0:0:
328,176,171497,1,0,2:0:0:0:
332,192,171594,1,0,2:0:0:0:
356,104,171691,1,0,0:0:0:0:
192,128,171885,5,2,0:0:0:0:
194,147,171982,1,0,0:0:0:0:
196,167,172079,1,0,0:0:0:0:
184,160,172176,5,0,2:0:0:0:
189,226,172272,1,0,2:0:0:0:
194,292,172369,1,0,2:0:0:0:
199,359,172466,1,0,0:0:0:0:
320,208,172660,5,2,0:0:0:0:
328,136,172756,1,0,0:0:0:0:
336,64,172853,2,0,L|328:16,4,40,0|0|0|0|0,0:0|2:0|2:0|2:0|0:0,0:0:0:0:
192,112,173434,5,2,0:0:0:0:
184,184,173530,1,0,0:0:0:0:
176,256,173627,2,0,L|184:304,1,40,0|0,0:0|2:0,0:0:0:0:
208,320,173821,2,0,L|214:359,1,40,0|0,0:0|2:0,0:0:0:0:
56,296,174014,1,0,0:0:0:0:
104,104,174208,5,0,0:0:0:0:
88,208,174305,1,0,0:0:0:0:
80,80,174401,2,0,L|72:32,4,40,0|0|0|0|0,0:0|2:0|2:0|2:0|0:0,0:0:0:0:
208,112,174982,5,0,0:0:0:0:
192,216,175079,1,0,0:0:0:0:
184,88,175175,2,0,L|176:40,4,40,0|0|0|0|0,0:0|2:0|2:0|2:0|0:0,0:0:0:0:
120,168,175756,5,0,0:0:0:0:
240,144,175853,1,0,0:0:0:0:
360,120,175950,2,0,L|408:112,4,40,0|0|0|0|0,0:0|2:0|2:0|2:0|0:0,0:0:0:0:
224,232,176530,5,0,0:0:0:0:
344,208,176627,1,0,0:0:0:0:
464,184,176724,2,0,L|512:176,4,40,0|0|0|0|0,0:0|2:0|2:0|2:0|0:0,0:0:0:0:
400,240,177305,5,2,0:0:0:0:
416,344,177402,1,0,0:0:0:0:
424,216,177498,2,0,L|432:168,4,40,0|0|0|0|0,0:0|2:0|2:0|2:0|0:0,0:0:0:0:
296,280,178079,5,2,0:0:0:0:
312,384,178176,1,0,0:0:0:0:
320,256,178272,2,0,L|328:208,4,40,0|0|0|0|0,0:0|2:0|2:0|2:0|0:0,0:0:0:0:
80,296,178853,5,2,0:0:0:0:
160,288,178950,1,0,0:0:0:0:
80,296,179046,1,0,0:0:0:0:
99,294,179142,5,0,2:0:0:0:
119,292,179239,1,0,2:0:0:0:
139,290,179336,1,0,2:0:0:0:
159,288,179433,1,0,0:0:0:0:
224,200,179627,5,2,0:0:0:0:
144,192,179724,1,0,0:0:0:0:
224,200,179820,1,0,0:0:0:0:
204,198,179916,5,0,2:0:0:0:
184,196,180013,1,0,2:0:0:0:
164,194,180110,1,0,2:0:0:0:
144,192,180207,1,0,0:0:0:0:
166,132,180401,5,2,0:0:0:0:
136,252,180498,1,0,0:0:0:0:
47,165,180595,2,0,L|94:149,4,40,0|0|0|0|0,0:0|2:0|2:0|2:0|0:0,0:0:0:0:
256,219,181175,5,2,0:0:0:0:
136,252,181272,1,0,0:0:0:0:
166,132,181369,2,0,L|203:165,4,40,0|0|0|0|0,0:0|2:0|2:0|2:0|0:0,0:0:0:0:
256,219,181949,5,2,0:0:0:0:
344,128,182046,1,0,0:0:0:0:
377,250,182143,2,0,L|328:239,4,40,0|0|0|0|0,0:0|2:0|2:0|2:0|0:0,0:0:0:0:
463,160,182724,5,2,0:0:0:0:
377,250,182821,1,0,0:0:0:0:
344,128,182918,2,0,L|392:138,4,40,0|0|0|0|0,0:0|2:0|2:0|2:0|0:0,0:0:0:0:
377,250,183498,5,2,0:0:0:0:
463,160,183595,1,0,0:0:0:0:
376,248,183691,5,0,0:0:0:0:
370,228,183787,1,0,2:0:0:0:
364,209,183884,1,0,2:0:0:0:
358,190,183981,1,0,2:0:0:0:
353,171,184078,1,0,0:0:0:0:
255,218,184272,5,2,0:0:0:0:
376,248,184369,1,0,0:0:0:0:
255,218,184465,5,0,0:0:0:0:
268,203,184561,1,0,2:0:0:0:
282,189,184658,1,0,2:0:0:0:
296,174,184755,1,0,2:0:0:0:
310,159,184852,1,0,0:0:0:0:
136,248,185046,5,2,0:0:0:0:
255,218,185143,1,0,0:0:0:0:
136,248,185239,5,0,0:0:0:0:
140,229,185335,1,0,2:0:0:0:
145,210,185432,1,0,2:0:0:0:
150,190,185529,1,0,2:0:0:0:
154,170,185626,1,0,0:0:0:0:
48,168,185820,5,2,0:0:0:0:
136,248,185917,1,0,0:0:0:0:
48,168,186014,6,0,L|56:120,1,40,0|0,0:0|2:0,0:0:0:0:
112,48,186207,2,0,L|104:96,1,40,0|0,0:0|2:0,0:0:0:0:
145,210,186401,6,0,L|224:200,1,80,4|0,0:0|0:0,0:0:0:0:
312,192,186788,1,0,0:0:0:0:
312,192,186885,1,0,2:0:0:0:
312,192,186982,2,0,P|320:168|320:136,1,40,0|0,2:0|2:0,2:0:0:0:
80,320,187175,6,0,L|159:310,1,80
247,302,187562,1,0,0:0:0:0:
247,302,187659,1,0,2:0:0:0:
247,302,187756,2,0,P|255:278|255:246,1,40,0|0,2:0|2:0,2:0:0:0:
184,48,187949,6,0,P|176:88|192:136,1,80
280,176,188336,1,0,0:0:0:0:
280,176,188433,1,0,2:0:0:0:
280,176,188530,2,0,L|328:168,1,40,0|0,2:0|2:0,2:0:0:0:
88,88,188723,6,0,P|80:128|96:176,1,80
184,248,189110,1,0,0:0:0:0:
184,248,189207,1,0,2:0:0:0:
184,248,189304,2,0,L|232:240,1,40,0|0,2:0|2:0,2:0:0:0:
424,200,189498,6,0,L|336:192,1,80
456,96,189885,1,0,0:0:0:0:
456,96,189981,1,0,2:0:0:0:
456,96,190078,2,0,P|464:120|464:144,1,40,0|0,2:0|2:0,2:0:0:0:
280,224,190272,6,0,L|192:216,1,80
376,64,190659,1,0,0:0:0:0:
376,64,190755,1,0,2:0:0:0:
376,64,190852,2,0,P|384:88|384:112,1,40,0|0,2:0|2:0,2:0:0:0:
280,296,191046,6,0,P|264:256|264:208,1,80
296,152,191433,1,0,0:0:0:0:
296,152,191530,1,0,2:0:0:0:
296,152,191627,2,0,L|344:144,1,40,0|0,2:0|2:0,2:0:0:0:
192,360,191820,6,0,P|176:320|176:272,1,80
408,192,192207,1,0,0:0:0:0:
408,192,192304,1,0,2:0:0:0:
408,192,192401,2,0,L|456:184,1,40,0|0,2:0|2:0,2:0:0:0:
224,96,192594,5,0,0:0:0:0:
48,64,192788,1,0,0:0:0:0:
56,136,192885,1,0,0:0:0:0:
64,208,192981,2,0,L|112:200,4,40,0|0|0|0|0,0:0|2:0|2:0|2:0|0:0,0:0:0:0:
176,192,193562,5,0,0:0:0:0:
168,264,193659,1,0,0:0:0:0:
160,336,193755,2,0,L|208:328,4,40,0|0|0|0|0,0:0|2:0|2:0|2:0|0:0,0:0:0:0:
352,336,194336,5,0,0:0:0:0:
344,264,194433,1,0,0:0:0:0:
336,192,194529,2,0,L|384:200,4,40,0|0|0|0|0,0:0|2:0|2:0|2:0|0:0,0:0:0:0:
448,208,195110,5,0,0:0:0:0:
456,136,195207,1,0,0:0:0:0:
464,64,195303,2,0,L|416:72,4,40,0|0|0|0|0,0:0|2:0|2:0|2:0|0:0,0:0:0:0:
336,80,195884,5,0,0:0:0:0:
400,176,196078,1,0,0:0:0:0:
400,176,196175,1,0,2:0:0:0:
400,176,196271,2,0,L|448:168,1,40,0|0,2:0|2:0,2:0:0:0:
504,160,196465,1,0,0:0:0:0:
316,188,196659,5,0,0:0:0:0:
380,284,196853,1,0,0:0:0:0:
380,284,196950,1,0,2:0:0:0:
380,284,197046,2,0,L|428:276,1,40,0|0,2:0|2:0,2:0:0:0:
484,268,197240,1,0,0:0:0:0:
256,296,197433,6,0,L|208:288,1,40,0|0,0:0|2:0,0:0:0:0:
160,320,197626,2,0,L|112:312,1,40,0|0,0:0|2:0,0:0:0:0:
64,336,197820,1,0,2:0:0:0:
44,332,197917,1,0,2:0:0:0:
24,328,198013,1,0,1:0:0:0:
128,64,198207,6,0,L|80:56,1,40,0|0,0:0|2:0,0:0:0:0:
88,160,198400,2,0,L|40:152,1,40,0|0,0:0|2:0,0:0:0:0:
48,256,198594,2,0,L|0:248,1,40,0|0,0:0|2:0,0:0:0:0:
184,216,198787,5,4,0:0:0:0:
208,336,198981,1,0,2:0:0:0:
208,336,199078,2,0,L|216:280,1,40,0|0,2:0|0:0,2:0:0:0:
128,80,199271,5,0,2:0:0:0:
107,113,199367,1,0,2:0:0:0:
104,153,199464,1,0,2:0:0:0:
118,190,199561,1,0,0:0:0:0:
288,336,199755,5,0,2:0:0:0:
288,336,199852,2,0,L|296:280,1,40,0|0,2:0|0:0,2:0:0:0:
208,80,200045,5,0,2:0:0:0:
187,113,200141,1,0,2:0:0:0:
184,153,200238,1,0,2:0:0:0:
198,190,200335,1,0,0:0:0:0:
368,336,200529,5,0,2:0:0:0:
368,336,200626,2,0,L|376:280,1,40,0|0,2:0|0:0,2:0:0:0:
264,136,200819,5,0,2:0:0:0:
285,169,200915,1,0,2:0:0:0:
288,209,201012,1,0,2:0:0:0:
274,246,201109,1,0,0:0:0:0:
448,336,201303,5,0,2:0:0:0:
448,336,201400,2,0,L|456:280,1,40,0|0,2:0|0:0,2:0:0:0:
344,136,201594,5,0,2:0:0:0:
365,169,201690,1,0,2:0:0:0:
368,209,201787,1,0,2:0:0:0:
354,246,201884,1,0,0:0:0:0:
280,112,202078,5,0,2:0:0:0:
264,108,202174,1,0,2:0:0:0:
248,104,202271,1,0,0:0:0:0:
232,136,202369,5,0,2:0:0:0:
199,157,202465,1,0,2:0:0:0:
159,160,202562,1,0,2:0:0:0:
122,146,202659,1,0,0:0:0:0:
176,80,202852,5,0,2:0:0:0:
160,76,202948,1,0,2:0:0:0:
144,72,203045,1,0,0:0:0:0:
128,104,203143,5,0,2:0:0:0:
95,125,203239,1,0,2:0:0:0:
55,128,203336,1,0,2:0:0:0:
18,114,203433,1,0,0:0:0:0:
96,200,203626,5,0,2:0:0:0:
104,272,203723,1,0,2:0:0:0:
112,344,203820,1,0,0:0:0:0:
138,329,203916,1,0,2:0:0:0:
167,329,204013,1,0,2:0:0:0:
194,342,204110,1,0,2:0:0:0:
212,365,204207,1,0,0:0:0:0:
216,208,204400,5,0,2:0:0:0:
224,280,204497,1,0,2:0:0:0:
232,352,204594,1,0,0:0:0:0:
258,337,204690,1,0,2:0:0:0:
287,337,204787,1,0,2:0:0:0:
314,350,204884,1,0,2:0:0:0:
332,373,204981,5,4,0:0:0:0:
456,280,205174,2,0,P|432:296|408:296,1,40,2|0,2:0|2:0,2:0:0:0:
256,256,205368,1,8,0:0:0:0:
192,228,205464,1,0,2:0:0:0:
123,235,205561,1,0,2:0:0:0:
66,274,205658,1,0,2:0:0:0:
34,336,205755,1,0,0:0:0:0:
0,192,205948,6,0,P|24:208|48:208,1,40,2|0,2:0|2:0,2:0:0:0:
24,104,206142,1,8,0:0:0:0:
180,373,206529,5,0,0:0:0:0:
56,280,206723,2,0,P|80:296|104:296,1,40,2|0,2:0|2:0,2:0:0:0:
256,256,206917,1,8,0:0:0:0:
319,228,207013,1,0,2:0:0:0:
388,235,207110,1,0,2:0:0:0:
445,274,207207,1,0,2:0:0:0:
477,336,207304,1,0,0:0:0:0:
512,192,207497,6,0,P|488:208|464:208,1,40,2|0,2:0|2:0,2:0:0:0:
488,104,207691,1,8,0:0:0:0:
332,373,208077,5,4,0:0:0:0:
456,280,208271,2,0,P|432:296|408:296,1,40,2|0,2:0|2:0,2:0:0:0:
296,224,208464,1,8,0:0:0:0:
184,296,208852,5,4,0:0:0:0:
60,203,209046,2,0,P|84:219|108:219,1,40,2|0,2:0|2:0,2:0:0:0:
220,147,209239,1,8,0:0:0:0:
272,72,210013,5,8,0:0:0:0:
232,280,210787,5,0,0:0:0:0:
256,40,210981,1,8,0:0:0:0:
280,376,211174,1,4,0:0:0:0:
376,112,223367,5,0,0:0:0:0:
376,112,223464,1,4,0:0:0:0:
432,224,223754,5,0,0:0:0:0:
432,224,223948,1,0,0:0:0:0:
368,272,224141,1,0,0:0:0:0:
368,272,224238,1,0,0:0:0:0:
304,224,224432,1,0,0:0:0:0:
304,224,224528,1,0,0:0:0:0:
240,272,224722,1,0,0:0:0:0:
176,224,224915,1,0,0:0:0:0:
176,224,225012,1,0,0:0:0:0:
80,160,225302,5,0,0:0:0:0:
80,160,225496,1,0,0:0:0:0:
144,112,225689,1,0,0:0:0:0:
144,112,225786,1,0,0:0:0:0:
208,160,225980,1,0,0:0:0:0:
208,160,226076,1,0,0:0:0:0:
272,112,226270,1,0,0:0:0:0:
336,160,226463,1,0,0:0:0:0:
336,160,226560,1,4,0:0:0:0:
464,336,226851,5,0,0:0:0:0:
464,256,227044,1,0,0:0:0:0:
464,176,227238,1,0,0:0:0:0:
464,176,227335,1,0,0:0:0:0:
464,96,227528,1,0,0:0:0:0:
464,96,227625,1,0,0:0:0:0:
464,16,227818,1,0,0:0:0:0:
384,48,228012,5,0,0:0:0:0:
384,48,228109,1,0,0:0:0:0:
384,48,228206,1,0,0:0:0:0:
384,128,228399,1,0,0:0:0:0:
384,208,228593,1,0,0:0:0:0:
384,288,228786,1,0,0:0:0:0:
384,288,228883,1,0,0:0:0:0:
384,368,229076,1,0,0:0:0:0:
384,368,229173,1,0,0:0:0:0:
384,368,229270,1,0,0:0:0:0:
320,320,229464,5,0,0:0:0:0:
256,320,229560,1,0,0:0:0:0:
192,320,229657,1,4,0:0:0:0:
128,320,229754,6,2,P|80:264|128:208,1,160,2|0,0:0|0:0,0:0:0:0:
176,144,230528,2,2,P|224:200|176:256,1,160,2|0,0:0|0:0,0:0:0:0:
336,320,231302,2,2,P|288:264|336:208,1,160,2|0,0:0|0:0,0:0:0:0:
384,144,232076,2,2,P|432:200|384:256,1,160,2|0,0:0|0:0,0:0:0:0:
376,72,232657,5,2,0:0:0:0:
376,72,232754,1,4,0:0:0:0:
376,72,232851,2,2,B|304:40|304:40|224:72,1,160,2|0,0:0|0:0,0:0:0:0:
232,184,233625,2,2,B|304:216|304:216|384:184,1,160,2|0,0:0|0:0,0:0:0:0:
232,184,234399,6,2,B|160:152|160:152|80:184,1,160,2|0,0:0|0:0,0:0:0:0:
88,288,235173,2,2,B|160:320|160:320|240:288,1,160,2|0,0:0|0:0,0:0:0:0:
336,256,235754,5,2,0:0:0:0:
352,192,235850,1,4,0:0:0:0:
368,128,235947,2,0,L|352:48,1,80,2|0,0:0|0:0,0:0:0:0:
264,128,236334,2,0,L|280:208,1,80
432,88,236721,1,2,0:0:0:0:
432,88,236818,1,0,0:0:0:0:
432,88,236915,1,0,0:0:0:0:
312,24,237108,2,0,L|328:104,1,80
144,224,237495,6,0,L|160:144,1,80,2|0,0:0|0:0,0:0:0:0:
248,224,237882,2,0,L|232:304,1,80
80,184,238269,1,2,0:0:0:0:
80,184,238366,1,0,0:0:0:0:
80,184,238463,1,0,0:0:0:0:
200,120,238656,2,0,L|184:200,1,80
184,198,238947,5,4,0:0:0:0:
184,198,239044,2,0,L|272:198,1,80,2|0,0:0|0:0,0:0:0:0:
136,264,239431,2,0,L|56:264,1,80
136,136,239818,1,2,0:0:0:0:
136,136,239915,1,0,0:0:0:0:
136,136,240012,1,0,0:0:0:0:
232,280,240205,2,0,L|144:280,1,80
248,144,240592,6,0,L|328:144,1,80,2|0,0:0|0:0,0:0:0:0:
456,208,240979,2,0,L|376:208,1,80
416,80,241366,1,2,0:0:0:0:
416,80,241463,1,0,0:0:0:0:
416,80,241560,1,0,0:0:0:0:
496,240,241753,2,0,L|408:240,1,80
360,296,242044,5,4,0:0:0:0:
360,296,242140,2,0,B|320:288|320:288|280:296,1,80,2|0,0:0|0:0,0:0:0:0:
232,360,242528,2,0,B|272:368|272:368|312:360,1,80
264,224,242915,1,2,0:0:0:0:
264,224,243011,1,0,0:0:0:0:
264,224,243108,1,0,0:0:0:0:
192,208,243302,1,0,0:0:0:0:
120,224,243495,1,0,0:0:0:0:
48,240,243689,6,0,B|88:232|88:232|128:240,1,80,2|0,0:0|0:0,0:0:0:0:
176,304,244077,2,0,B|136:312|136:312|96:304,1,80
152,168,244464,1,2,0:0:0:0:
152,168,244560,1,0,0:0:0:0:
152,168,244657,1,0,0:0:0:0:
224,184,244851,1,0,0:0:0:0:
296,168,245044,1,0,0:0:0:0:
296,168,245140,1,4,0:0:0:0:
296,168,245237,6,0,B|288:128|288:128|296:88,1,80,2|0,0:0|0:0,0:0:0:0:
360,48,245624,2,0,B|368:88|368:88|360:128,1,80
224,112,246011,1,2,0:0:0:0:
224,112,246108,1,0,0:0:0:0:
224,112,246205,1,0,0:0:0:0:
408,184,246399,2,0,L|488:184,1,80
352,240,246979,5,0,0:0:0:0:
264,240,247366,1,0,0:0:0:0:
176,240,247753,1,0,0:0:0:0:
88,240,248140,1,0,0:0:0:0:
88,240,248237,1,4,0:0:0:0:
32,192,248334,5,4,0:0:0:0:
256,192,248721,1,0,0:0:0:0:
64,192,249108,1,0,0:0:0:0:
224,192,249495,1,0,0:0:0:0:
96,192,249882,1,0,0:0:0:0:
192,192,250269,1,0,0:0:0:0:
128,192,250656,1,0,0:0:0:0:
160,192,251043,1,0,0:0:0:0:
192,192,251237,5,0,0:0:0:0:
224,128,251334,1,4,2:0:0:0:
256,192,251430,1,0,0:0:0:0:
480,192,251817,1,0,0:0:0:0:
288,192,252205,1,0,0:0:0:0:
464,192,252592,1,0,0:0:0:0:
320,192,252979,1,0,0:0:0:0:
432,192,253366,1,0,0:0:0:0:
352,192,253753,1,0,0:0:0:0:
400,192,254140,1,0,0:0:0:0:
288,192,254333,5,0,0:0:0:0:
368,160,254430,1,4,2:0:0:0:
288,128,254527,1,0,0:0:0:0:
288,256,254914,1,0,0:0:0:0:
288,96,255301,1,0,0:0:0:0:
288,288,255688,1,0,0:0:0:0:
288,176,256075,1,0,0:0:0:0:
288,208,256462,1,0,0:0:0:0:
288,144,256849,1,0,0:0:0:0:
288,240,257237,1,0,0:0:0:0:
224,192,257430,5,0,0:0:0:0:
144,224,257527,1,4,2:0:0:0:
224,256,257624,1,0,0:0:0:0:
224,128,258011,1,0,0:0:0:0:
224,288,258398,1,0,0:0:0:0:
224,96,258785,1,0,0:0:0:0:
224,320,259172,1,0,0:0:0:0:
224,64,259559,1,0,0:0:0:0:
224,240,259946,1,0,0:0:0:0:
224,144,260334,1,0,0:0:0:0:
32,192,260720,5,0,0:0:0:0:
48,184,260817,1,0,0:0:0:0:
96,192,260914,1,0,0:0:0:0:
112,184,261011,1,0,0:0:0:0:
160,192,261107,1,0,0:0:0:0:
176,184,261204,1,0,0:0:0:0:
224,192,261301,1,0,0:0:0:0:
240,184,261398,1,0,0:0:0:0:
336,192,261591,1,0,0:0:0:0:
336,192,261785,1,0,0:0:0:0:
432,88,261978,5,2,0:0:0:0:
426,167,262074,1,0,0:0:0:0:
421,247,262171,1,0,0:0:0:0:
416,327,262269,2,0,L|336:328,1,80,4|0,1:0|0:0,0:0:0:0:
264,288,262656,2,0,L|176:288,1,80,0|0,1:0|0:0,0:0:0:0:
432,336,263043,2,0,L|352:337,1,80,0|0,1:0|0:0,0:0:0:0:
280,297,263430,2,0,L|192:297,1,80,0|0,1:0|0:0,0:0:0:0:
64,232,263817,6,0,L|144:233,1,80,0|0,1:0|0:0,0:0:0:0:
216,193,264204,2,0,L|304:193,1,80,0|0,1:0|0:0,0:0:0:0:
80,240,264591,2,0,L|160:241,1,80,0|0,1:0|0:0,0:0:0:0:
232,201,264978,2,0,L|320:201,1,80,0|0,1:0|0:0,0:0:0:0:
384,152,265365,6,0,B|392:112|392:112|384:72,1,80,0|0,1:0|0:0,0:0:0:0:
296,24,265752,2,0,B|288:64|288:64|296:104,1,80,0|0,1:0|0:0,0:0:0:0:
400,168,266139,2,0,B|408:128|408:128|400:88,1,80,0|0,1:0|0:0,0:0:0:0:
312,40,266526,2,0,B|304:80|304:80|312:120,1,80,0|0,1:0|0:0,0:0:0:0:
280,192,266914,6,0,B|288:232|288:232|280:272,1,80,0|0,1:0|0:0,0:0:0:0:
192,320,267301,2,0,B|184:280|184:280|192:240,1,80,0|0,1:0|0:0,0:0:0:0:
160,104,267688,2,0,B|168:144|168:144|160:184,1,80,0|0,1:0|0:0,0:0:0:0:
72,232,268075,2,0,B|64:192|64:192|72:152,1,80,0|0,1:0|0:0,0:0:0:0:
71,153,268365,5,4,0:0:0:0:
71,153,268462,2,0,L|152:153,1,80,0|0,1:0|0:0,0:0:0:0:
264,232,268849,2,0,L|184:232,1,80,0|0,1:0|0:0,0:0:0:0:
128,136,269236,2,0,L|48:136,1,80,0|0,1:0|0:0,0:0:0:0:
160,216,269623,2,0,L|240:216,1,80,0|0,1:0|0:0,0:0:0:0:
440,216,270010,6,0,L|359:216,1,80,0|0,1:0|0:0,0:0:0:0:
247,295,270397,2,0,L|327:295,1,80,0|0,1:0|0:0,0:0:0:0:
383,199,270784,2,0,L|463:199,1,80,0|0,1:0|0:0,0:0:0:0:
351,279,271171,2,0,L|271:279,1,80,0|0,1:0|0:0,0:0:0:0:
208,200,271559,6,0,L|216:112,1,80,0|0,1:0|0:0,0:0:0:0:
128,176,271946,2,0,L|136:88,1,80,0|0,1:0|0:0,0:0:0:0:
176,136,272333,2,0,L|183:56,1,80,0|0,1:0|0:0,0:0:0:0:
96,112,272720,2,0,L|103:32,1,80,0|0,1:0|0:0,0:0:0:0:
48,352,273107,6,0,L|40:272,1,80,0|0,1:0|0:0,0:0:0:0:
128,328,273494,2,0,L|120:248,1,80,0|0,1:0|0:0,0:0:0:0:
80,288,273881,2,0,L|72:208,1,80,0|0,1:0|0:0,0:0:0:0:
160,264,274268,2,0,L|152:184,1,80,0|2,1:0|0:0,0:0:0:0:
152,184,274558,1,4,0:0:0:0:
152,184,274655,1,4,1:0:0:0:
120,336,274849,5,0,0:0:0:0:
200,336,275042,1,0,0:0:0:0:
280,336,275236,1,0,0:0:0:0:
280,336,275333,1,0,0:0:0:0:
456,256,275526,5,0,0:0:0:0:
376,256,275720,1,0,0:0:0:0:
296,256,275913,1,0,0:0:0:0:
296,256,276010,1,0,0:0:0:0:
296,256,276107,1,0,0:0:0:0:
72,192,276397,5,0,0:0:0:0:
152,192,276591,1,0,0:0:0:0:
232,192,276784,1,0,0:0:0:0:
232,192,276881,1,0,0:0:0:0:
416,112,277074,5,0,0:0:0:0:
336,112,277268,1,0,0:0:0:0:
256,112,277462,1,0,0:0:0:0:
256,112,277558,1,0,0:0:0:0:
256,112,277655,1,0,0:0:0:0:
96,72,277945,5,0,0:0:0:0:
96,80,278042,1,0,0:0:0:0:
96,88,278139,1,0,0:0:0:0:
96,96,278236,1,0,0:0:0:0:
96,104,278332,1,0,0:0:0:0:
96,112,278429,1,0,0:0:0:0:
96,192,278623,1,0,0:0:0:0:
96,272,278816,1,0,0:0:0:0:
96,352,279010,1,0,0:0:0:0:
96,352,279107,1,0,0:0:0:0:
96,352,279203,1,0,0:0:0:0:
168,328,279494,5,0,0:0:0:0:
168,320,279591,1,0,0:0:0:0:
168,312,279688,1,0,0:0:0:0:
168,304,279785,1,0,0:0:0:0:
168,296,279881,1,0,0:0:0:0:
168,288,279978,1,0,0:0:0:0:
168,208,280172,1,0,0:0:0:0:
168,128,280365,1,0,0:0:0:0:
168,48,280559,1,0,0:0:0:0:
168,48,280656,1,0,0:0:0:0:
168,48,280752,1,0,0:0:0:0:
112,88,280848,5,4,0:0:0:0:
224,88,281042,1,0,0:0:0:0:
248,104,281139,1,0,0:0:0:0:
272,88,281236,1,0,0:0:0:0:
288,88,281332,1,0,0:0:0:0:
304,88,281429,1,0,0:0:0:0:
320,88,281526,1,0,0:0:0:0:
392,104,281719,1,0,0:0:0:0:
464,104,281913,1,0,0:0:0:0:
496,176,282106,1,0,0:0:0:0:
496,176,282203,1,0,0:0:0:0:
496,176,282300,1,0,0:0:0:0:
464,248,282397,5,4,0:0:0:0:
336,248,282590,1,0,0:0:0:0:
312,264,282687,1,0,0:0:0:0:
288,248,282784,1,0,0:0:0:0:
272,248,282880,1,0,0:0:0:0:
256,248,282977,1,0,0:0:0:0:
240,248,283074,1,0,0:0:0:0:
168,264,283267,1,0,0:0:0:0:
96,264,283461,1,0,0:0:0:0:
60,336,283654,1,0,0:0:0:0:
60,336,283751,1,0,0:0:0:0:
60,336,283848,1,0,0:0:0:0:
24,264,283945,5,4,0:0:0:0:
96,192,284139,1,0,0:0:0:0:
136,208,284236,1,0,0:0:0:0:
176,192,284332,1,0,0:0:0:0:
216,192,284429,1,0,0:0:0:0:
256,192,284526,1,0,0:0:0:0:
296,192,284623,1,0,0:0:0:0:
344,128,284719,5,4,0:0:0:0:
344,128,284816,1,0,0:0:0:0:
452,128,285010,1,0,0:0:0:0:
400,224,285203,1,0,0:0:0:0:
400,224,285300,1,0,0:0:0:0:
400,224,285397,1,0,0:0:0:0:
400,296,285493,5,0,1:0:0:0:
296,248,285687,1,2,0:0:0:0:
272,296,285784,1,0,1:0:0:0:
168,248,285977,1,2,0:0:0:0:
144,296,286074,1,0,1:0:0:0:
24,296,286268,1,0,1:0:0:0:
24,296,286461,1,2,0:0:0:0:
104,192,286751,5,0,0:0:0:0:
112,188,286848,1,0,0:0:0:0:
120,184,286945,1,0,0:0:0:0:
128,180,287042,1,4,1:0:0:0:
32,160,287235,1,2,2:0:0:0:
200,208,287332,1,0,2:0:0:0:
172,228,287526,5,0,0:0:0:0:
179,222,287623,1,0,0:0:0:0:
186,217,287720,1,0,0:0:0:0:
193,212,287817,1,0,1:0:0:0:
95,208,288010,1,2,2:0:0:0:
269,227,288107,1,0,2:0:0:0:
244,252,288300,5,0,0:0:0:0:
251,246,288397,1,0,0:0:0:0:
257,239,288494,1,0,0:0:0:0:
263,233,288591,1,0,1:0:0:0:
166,247,288784,1,2,2:0:0:0:
340,234,288881,1,0,2:0:0:0:
320,264,289074,5,0,0:0:0:0:
324,257,289171,1,0,0:0:0:0:
329,249,289268,1,0,0:0:0:0:
334,242,289365,1,0,1:0:0:0:
241,272,289558,1,2,2:0:0:0:
411,230,289655,1,0,2:0:0:0:
444,240,289848,5,0,0:0:0:0:
435,237,289945,1,0,0:0:0:0:
426,234,290042,1,0,0:0:0:0:
418,232,290139,1,0,1:0:0:0:
509,195,290332,1,2,2:0:0:0:
352,272,290429,1,0,2:0:0:0:
383,287,290623,5,0,0:0:0:0:
375,282,290720,1,0,0:0:0:0:
367,278,290817,1,0,0:0:0:0:
359,275,290914,1,0,1:0:0:0:
455,254,291107,1,2,2:0:0:0:
287,303,291204,1,0,2:0:0:0:
316,323,291397,5,0,0:0:0:0:
308,318,291494,1,0,0:0:0:0:
301,312,291591,1,0,0:0:0:0:
294,307,291688,1,0,1:0:0:0:
392,304,291881,1,2,2:0:0:0:
218,322,291978,1,0,2:0:0:0:
243,348,292171,5,0,0:0:0:0:
238,342,292268,1,0,0:0:0:0:
232,335,292365,1,0,0:0:0:0:
226,329,292462,1,0,1:0:0:0:
322,342,292655,1,2,2:0:0:0:
148,330,292752,1,0,2:0:0:0:
128,344,292945,5,0,0:0:0:0:
125,290,293041,1,0,0:0:0:0:
122,237,293138,1,0,0:0:0:0:
120,184,293235,1,4,1:0:0:0:
112,48,293429,1,2,2:0:0:0:
48,200,293622,5,0,1:0:0:0:
53,239,293718,1,0,0:0:0:0:
78,268,293815,1,0,0:0:0:0:
116,279,293912,1,0,0:0:0:0:
154,268,294009,1,0,1:0:0:0:
296,208,294203,1,2,0:0:0:0:
184,40,294396,5,0,1:0:0:0:
182,79,294492,1,0,0:0:0:0:
180,119,294589,1,0,0:0:0:0:
178,159,294686,1,0,0:0:0:0:
176,199,294783,1,0,1:0:0:0:
168,336,294977,1,2,2:0:0:0:
104,184,295170,5,0,1:0:0:0:
109,145,295266,1,0,0:0:0:0:
134,116,295363,1,0,0:0:0:0:
172,105,295460,1,0,0:0:0:0:
210,116,295557,1,0,1:0:0:0:
352,176,295751,1,2,0:0:0:0:
280,312,295945,5,0,1:0:0:0:
281,292,296041,1,0,0:0:0:0:
283,272,296138,1,0,0:0:0:0:
285,252,296235,1,0,0:0:0:0:
287,232,296332,1,0,1:0:0:0:
287,232,296525,1,2,0:0:0:0:
320,104,296719,5,0,1:0:0:0:
321,119,296815,1,0,0:0:0:0:
322,135,296912,1,0,0:0:0:0:
324,151,297009,1,0,0:0:0:0:
325,167,297106,1,0,1:0:0:0:
325,167,297299,1,2,0:0:0:0:
376,264,297493,5,0,1:0:0:0:
377,252,297589,1,0,0:0:0:0:
378,240,297686,1,0,0:0:0:0:
379,228,297783,1,0,0:0:0:0:
380,216,297880,1,0,1:0:0:0:
380,216,298073,1,2,0:0:0:0:
400,139,298267,5,0,1:0:0:0:
400,148,298363,1,0,0:0:0:0:
401,157,298460,1,0,0:0:0:0:
402,167,298557,1,0,0:0:0:0:
403,177,298654,1,0,1:0:0:0:
403,177,298847,1,2,0:0:0:0:
408,256,299041,5,0,1:0:0:0:
424,192,299138,1,0,0:0:0:0:
440,128,299235,1,0,1:0:0:0:
496,232,299428,5,0,1:0:0:0:
336,216,299622,1,2,0:0:0:0:
340,224,299719,1,0,0:0:0:0:
344,232,299815,5,0,1:0:0:0:
304,231,299911,1,0,0:0:0:0:
264,230,300008,1,0,0:0:0:0:
224,229,300105,1,0,0:0:0:0:
184,228,300202,1,0,1:0:0:0:
32,224,300396,1,2,0:0:0:0:
32,224,300493,1,0,0:0:0:0:
32,224,300590,5,0,1:0:0:0:
81,222,300686,1,0,0:0:0:0:
131,220,300783,1,0,0:0:0:0:
181,218,300880,1,0,0:0:0:0:
231,216,300977,1,0,1:0:0:0:
456,112,301170,1,2,0:0:0:0:
452,128,301267,1,0,0:0:0:0:
448,144,301364,5,0,1:0:0:0:
390,141,301460,1,0,0:0:0:0:
333,139,301557,1,0,0:0:0:0:
276,137,301654,1,0,0:0:0:0:
219,134,301751,1,0,1:0:0:0:
88,40,301944,1,2,0:0:0:0:
88,40,302041,1,0,0:0:0:0:
88,40,302138,5,0,1:0:0:0:
48,83,302234,1,0,0:0:0:0:
47,141,302331,1,0,0:0:0:0:
85,186,302428,1,0,0:0:0:0:
143,194,302525,1,0,1:0:0:0:
376,232,302718,1,2,0:0:0:0:
384,248,302815,1,0,0:0:0:0:
392,264,302912,5,0,1:0:0:0:
328,256,303008,1,0,0:0:0:0:
264,248,303105,1,0,0:0:0:0:
232,304,303202,1,0,0:0:0:0:
200,360,303299,1,0,1:0:0:0:
32,256,303493,1,2,0:0:0:0:
32,256,303589,1,0,0:0:0:0:
32,256,303686,5,0,1:0:0:0:
75,278,303782,1,0,0:0:0:0:
122,265,303879,1,0,0:0:0:0:
146,223,303976,1,0,0:0:0:0:
135,175,304073,1,0,1:0:0:0:
344,88,304267,1,2,0:0:0:0:
360,96,304364,1,0,0:0:0:0:
376,104,304460,5,0,1:0:0:0:
379,143,304556,1,0,0:0:0:0:
383,183,304653,1,0,0:0:0:0:
387,223,304750,1,0,0:0:0:0:
391,263,304847,1,0,1:0:0:0:
192,336,305041,1,2,0:0:0:0:
192,336,305138,1,0,0:0:0:0:
192,336,305234,5,0,1:0:0:0:
176,304,305331,1,0,0:0:0:0:
144,320,305428,1,0,0:0:0:0:
128,288,305525,1,0,0:0:0:0:
96,304,305622,1,0,1:0:0:0:
136,168,305815,1,2,0:0:0:0:
136,168,305912,1,0,0:0:0:0:
64,200,306105,5,0,0:0:0:0:
64,200,306202,1,0,0:0:0:0:
64,200,306299,1,0,0:0:0:0:
208,184,306396,1,0,1:0:0:0:
248,96,306589,1,2,0:0:0:0:
248,96,306686,1,0,0:0:0:0:
172,120,306880,5,0,0:0:0:0:
172,120,306977,1,0,0:0:0:0:
172,120,307074,1,0,0:0:0:0:
316,136,307171,1,0,1:0:0:0:
356,224,307364,1,2,0:0:0:0:
356,224,307461,1,0,0:0:0:0:
288,272,307654,5,0,0:0:0:0:
288,272,307751,1,0,0:0:0:0:
288,272,307848,1,0,0:0:0:0:
432,256,307945,1,0,1:0:0:0:
472,168,308138,1,2,0:0:0:0:
472,168,308235,1,0,0:0:0:0:
488,336,308428,5,0,0:0:0:0:
488,336,308525,1,0,0:0:0:0:
488,336,308621,1,0,0:0:0:0:
488,336,308718,1,0,1:0:0:0:
256,192,308815,12,0,311041,1:0:0:0:
256,312,311234,5,8,1:0:0:0:
256,72,311428,1,4,0:0:0:0:
120,256,311815,5,4,1:0:0:0:
432,232,312008,1,2,1:0:0:0:
436,244,312105,1,0,0:0:0:0:
440,256,312202,2,0,L|372:252,3,60.0000022888184,0|0|0|0,1:0|0:0|0:0|0:0,0:0:0:0:
504,224,312589,1,0,1:0:0:0:
280,312,312783,5,2,1:0:0:0:
276,324,312880,1,0,0:0:0:0:
272,336,312977,2,0,L|340:332,3,60.0000022888184,0|0|0|0,1:0|0:0|0:0|0:0,0:0:0:0:
208,304,313364,1,0,1:0:0:0:
376,248,313557,5,2,1:0:0:0:
384,216,313654,1,0,0:0:0:0:
392,184,313750,2,0,L|384:112,3,60.0000022888184,0|0|0|0,1:0|0:0|0:0|0:0,0:0:0:0:
432,296,314138,1,0,1:0:0:0:
248,176,314331,5,2,1:0:0:0:
240,144,314428,1,0,0:0:0:0:
232,112,314524,2,0,L|240:40,3,60.0000022888184,0|0|0|0,1:0|0:0|0:0|0:0,0:0:0:0:
192,224,314912,1,0,1:0:0:0:
432,152,315105,5,2,1:0:0:0:
432,152,315202,1,0,0:0:0:0:
432,152,315299,2,0,P|400:144|360:144,1,60.0000022888184,0|0,1:0|0:0,0:0:0:0:
360,240,315492,2,0,P|392:248|432:248,1,60.0000022888184
488,96,315686,1,0,1:0:0:0:
229,321,315879,5,2,1:0:0:0:
229,321,315976,1,0,0:0:0:0:
229,321,316073,2,0,P|259:319|288:312,1,60.0000022888184,0|0,1:0|0:0,0:0:0:0:
274,214,316266,2,0,P|244:216|216:224,1,60.0000022888184
152,376,316460,1,0,1:0:0:0:
416,328,316653,6,0,L|424:264,1,60.0000022888184,2|0,1:0|0:0,0:0:0:0:
432,88,316847,1,0,1:0:0:0:
439,117,316943,1,0,0:0:0:0:
436,146,317040,1,0,0:0:0:0:
424,174,317137,1,0,0:0:0:0:
404,196,317234,1,0,1:0:0:0:
224,288,317428,5,2,1:0:0:0:
280,280,317524,1,0,0:0:0:0:
328,272,317621,2,0,L|264:264,1,60.0000022888184,0|0,1:0|0:0,0:0:0:0:
128,224,317815,2,0,L|187:216,1,60.0000022888184
40,176,318008,1,0,1:0:0:0:
208,120,318202,5,2,0:0:0:0:
208,120,318298,1,0,0:0:0:0:
256,176,318395,1,0,1:0:0:0:
229,190,318491,1,0,0:0:0:0:
200,193,318588,1,0,0:0:0:0:
171,184,318685,1,0,0:0:0:0:
148,165,318782,1,0,1:0:0:0:
96,272,318976,5,2,0:0:0:0:
96,272,319073,1,0,0:0:0:0:
72,336,319169,1,0,1:0:0:0:
86,338,319265,1,0,0:0:0:0:
101,337,319362,1,0,0:0:0:0:
116,334,319459,1,0,0:0:0:0:
130,329,319556,1,0,1:0:0:0:
240,136,319750,5,2,0:0:0:0:
240,136,319847,1,0,0:0:0:0:
288,200,319944,1,0,1:0:0:0:
231,215,320040,1,0,0:0:0:0:
179,188,320137,1,0,0:0:0:0:
160,133,320234,1,0,0:0:0:0:
184,79,320331,1,0,1:0:0:0:
56,280,320524,5,2,0:0:0:0:
56,280,320621,1,0,0:0:0:0:
40,352,320718,1,0,1:0:0:0:
77,351,320814,1,0,0:0:0:0:
109,333,320911,1,0,0:0:0:0:
127,301,321008,1,0,0:0:0:0:
128,264,321105,1,0,1:0:0:0:
224,208,321298,5,2,0:0:0:0:
224,184,321395,1,0,0:0:0:0:
224,160,321492,1,0,1:0:0:0:
224,190,321588,1,0,0:0:0:0:
224,220,321685,1,0,0:0:0:0:
224,250,321782,1,0,0:0:0:0:
224,280,321879,1,0,1:0:0:0:
136,168,322072,5,2,0:0:0:0:
136,192,322169,1,0,0:0:0:0:
136,216,322266,1,0,1:0:0:0:
136,177,322362,1,0,0:0:0:0:
136,137,322459,1,0,0:0:0:0:
136,97,322556,1,0,0:0:0:0:
136,57,322653,1,0,1:0:0:0:
48,176,322847,5,2,0:0:0:0:
48,152,322944,1,0,0:0:0:0:
48,131,323041,1,0,1:0:0:0:
48,176,323137,1,0,0:0:0:0:
48,221,323234,1,0,0:0:0:0:
48,266,323331,1,0,0:0:0:0:
48,311,323428,1,0,1:0:0:0:
136,304,323621,5,2,0:0:0:0:
136,328,323718,1,0,0:0:0:0:
136,352,323814,2,0,L|200:344,1,60.0000022888184,0|0,1:0|0:0,0:0:0:0:
296,320,324008,2,0,L|368:312,1,60.0000022888184,0|0,1:0|0:0,0:0:0:0:
456,296,324201,1,0,1:0:0:0:
388,232,324395,5,2,0:0:0:0:
388,232,324492,1,0,0:0:0:0:
388,232,324588,2,0,L|324:224,3,60.0000022888184,0|0|0|0,1:0|0:0|0:0|0:0,0:0:0:0:
260,216,324976,1,0,1:0:0:0:
108,164,325169,5,2,0:0:0:0:
108,164,325266,1,0,0:0:0:0:
108,164,325362,2,0,L|172:156,3,60.0000022888184,0|0|0|0,1:0|0:0|0:0|0:0,0:0:0:0:
236,148,325750,1,0,1:0:0:0:
400,128,325943,5,2,0:0:0:0:
400,128,326040,1,0,0:0:0:0:
400,128,326136,2,0,P|400:160|392:192,3,60.0000022888184,0|0|0|0,1:0|0:0|0:0|0:0,0:0:0:0:
368,248,326524,1,0,1:0:0:0:
112,72,326717,5,2,0:0:0:0:
112,72,326814,1,0,0:0:0:0:
112,72,326910,2,0,P|112:104|120:136,3,60.0000022888184,0|0|0|0,1:0|0:0|0:0|0:0,0:0:0:0:
144,192,327298,1,0,1:0:0:0:
464,328,327492,6,0,L|368:320,1,80,2|0,1:0|0:0,0:0:0:0:
280,176,327685,1,0,1:0:0:0:
267,197,327781,1,0,0:0:0:0:
263,222,327878,1,0,0:0:0:0:
269,246,327975,1,0,0:0:0:0:
282,267,328072,1,0,1:0:0:0:
48,200,328266,6,0,L|144:192,1,80,2|0,1:0|0:0,0:0:0:0:
232,48,328459,1,0,1:0:0:0:
245,69,328555,1,0,0:0:0:0:
249,94,328652,1,0,0:0:0:0:
243,118,328749,1,0,0:0:0:0:
230,139,328846,1,0,1:0:0:0:
424,192,329040,6,0,B|384:184|384:184|352:208,1,80,2|0,1:0|0:0,0:0:0:0:
360,312,329233,2,0,B|420:324|420:324|467:288,1,120.000004577637,6|0,1:0|0:0,0:0:0:0:
400,252,329427,1,0,0:0:0:0:
400,252,329524,1,0,0:0:0:0:
400,252,329621,1,0,1:0:0:0:
48,184,329814,6,0,P|72:216|112:232,1,80,2|0,1:0|0:0,0:0:0:0:
216,124,330008,2,0,P|180:76|126:52,1,120.000004577637,6|0,1:0|0:0,0:0:0:0:
128,144,330201,1,0,0:0:0:0:
128,144,330298,1,0,0:0:0:0:
128,144,330395,1,0,1:0:0:0:
352,216,330588,6,0,L|440:208,1,80,2|0,1:0|0:0,0:0:0:0:
431,208,330782,2,0,L|272:192,1,160,6|0,1:0|0:0,0:0:0:0:
424,136,330975,1,0,0:0:0:0:
443,134,331071,1,0,0:0:0:0:
463,132,331168,1,0,1:0:0:0:
224,144,331362,6,0,P|208:112|208:56,1,80,2|0,1:0|0:0,0:0:0:0:
205,68,331556,2,0,L|192:240,1,160,6|0,1:0|0:0,0:0:0:0:
136,144,331749,1,0,0:0:0:0:
132,132,331846,1,0,0:0:0:0:
128,120,331943,1,0,1:0:0:0:
56,320,332137,6,0,L|136:328,1,80,2|0,1:0|0:0,0:0:0:0:
248,160,332330,2,0,P|248:256|200:296,1,160,6|0,1:0|0:0,0:0:0:0:
24,248,332524,1,0,0:0:0:0:
16,224,332620,1,0,0:0:0:0:
8,200,332717,1,0,1:0:0:0:
320,264,332911,6,0,L|328:352,1,80,2|0,1:0|0:0,0:0:0:0:
144,120,333104,2,0,P|200:200|264:216,1,160,6|0,1:0|0:0,0:0:0:0:
448,176,333298,1,0,0:0:0:0:
456,152,333395,1,0,0:0:0:0:
464,128,333491,1,0,1:0:0:0:
496,256,333685,6,0,L|416:248,1,80,2|0,1:0|0:0,0:0:0:0:
336,320,333878,2,0,L|8:296,1,320,6|0,1:0|1:0,1:0:0:0:
8,128,334265,5,0,1:0:0:0:
8,128,334362,1,0,0:0:0:0:
8,128,334459,2,0,L|88:120,1,80,2|0,1:0|0:0,0:0:0:0:
168,192,334653,2,0,L|496:168,1,320,6|0,1:0|1:0,1:0:0:0:
456,280,335040,5,0,1:0:0:0:
456,280,335136,1,0,0:0:0:0:
456,280,335233,2,0,P|432:248|432:200,1,80,2|0,1:0|0:0,0:0:0:0:
304,336,335427,5,2,1:0:0:0:
256,192,335524,2,0,L|248:280,1,80,0|0,1:0|0:0,0:0:0:0:
120,352,335717,5,0,1:0:0:0:
144,152,335814,2,0,P|160:192|160:232,1,80,2|0,1:0|0:0,0:0:0:0:
8,280,336007,6,0,L|96:272,1,80,0|0,1:0|0:0,0:0:0:0:
24,240,336298,5,0,1:0:0:0:
320,304,336394,1,8,1:0:0:0:
0,352,336588,5,4,1:0:0:0:
0,352,336782,1,0,0:0:0:0:
0,352,336975,1,0,0:0:0:0:
0,352,337169,1,0,0:0:0:0:
0,352,337362,1,0,0:0:0:0:
0,352,337556,1,0,0:0:0:0:
0,352,337749,1,0,0:0:0:0:
0,352,337943,5,0,0:0:0:0:
32,224,338040,1,0,0:0:0:0:
64,376,338136,1,0,0:0:0:0:
64,376,338330,1,0,0:0:0:0:
64,376,338523,1,0,0:0:0:0:
64,376,338717,1,0,0:0:0:0:
64,376,338910,1,0,0:0:0:0:
64,376,339104,1,0,0:0:0:0:
64,376,339298,1,0,0:0:0:0:
64,376,339491,5,0,0:0:0:0:
200,336,339588,1,4,0:0:0:0:
336,296,339685,1,0,0:0:0:0:
336,296,339878,1,0,0:0:0:0:
336,296,340072,1,0,0:0:0:0:
336,296,340265,1,0,0:0:0:0:
336,296,340459,1,0,0:0:0:0:
336,296,340652,1,0,0:0:0:0:
336,296,340846,1,0,0:0:0:0:
336,296,341039,5,0,0:0:0:0:
216,272,341136,1,0,0:0:0:0:
368,224,341233,1,0,0:0:0:0:
368,224,341426,1,0,0:0:0:0:
368,224,341620,1,0,0:0:0:0:
368,224,341814,1,0,0:0:0:0:
368,224,342007,1,0,0:0:0:0:
368,224,342201,1,0,0:0:0:0:
368,224,342394,1,0,0:0:0:0:
368,224,342588,5,0,0:0:0:0:
416,360,342684,1,4,0:0:0:0:
440,184,342781,5,0,1:0:0:0:
384,128,342975,1,0,0:0:0:0:
440,184,343168,1,0,1:0:0:0:
440,104,343362,1,0,0:0:0:0:
440,184,343555,1,0,1:0:0:0:
496,128,343749,1,0,0:0:0:0:
440,184,343942,1,0,1:0:0:0:
496,240,344136,5,0,0:0:0:0:
344,232,344233,1,0,0:0:0:0:
192,224,344330,1,0,1:0:0:0:
136,280,344524,1,0,0:0:0:0:
192,224,344717,1,0,1:0:0:0:
192,304,344911,1,0,0:0:0:0:
192,224,345104,1,0,1:0:0:0:
248,280,345298,1,0,0:0:0:0:
192,224,345491,1,0,1:0:0:0:
112,224,345684,5,0,0:0:0:0:
272,224,345781,1,4,0:0:0:0:
136,152,345878,5,0,1:0:0:0:
136,296,346071,1,0,0:0:0:0:
272,296,346265,1,0,1:0:0:0:
272,152,346459,1,0,0:0:0:0:
200,224,346652,5,0,1:0:0:0:
200,368,346845,1,0,0:0:0:0:
336,368,347039,1,0,1:0:0:0:
336,224,347233,1,0,0:0:0:0:
448,280,347329,1,0,0:0:0:0:
272,280,347426,1,0,1:0:0:0:
272,280,348781,1,0,0:0:0:0:
200,280,348878,1,4,0:0:0:0:
128,280,348975,1,4,1:0:0:0:
64,128,361361,5,4,0:0:0:0:
64,128,361748,1,0,1:0:0:0:
64,128,362135,1,0,1:0:0:0:
64,128,362522,1,0,1:0:0:0:
64,128,362909,5,0,1:0:0:0:
104,176,363006,1,0,0:0:0:0:
120,176,363103,1,0,0:0:0:0:
192,128,363296,1,0,1:0:0:0:
232,176,363393,1,0,0:0:0:0:
248,176,363490,1,0,0:0:0:0:
264,176,363587,1,0,0:0:0:0:
320,128,363684,1,0,1:0:0:0:
360,176,363781,1,0,0:0:0:0:
376,176,363878,1,0,0:0:0:0:
392,176,363975,1,0,0:0:0:0:
448,128,364071,1,0,1:0:0:0:
448,240,364264,5,0,0:0:0:0:
448,128,364361,1,4,0:0:0:0:
448,240,364458,1,0,1:0:0:0:
448,240,364845,1,0,1:0:0:0:
448,240,365232,1,0,1:0:0:0:
448,240,365619,1,0,1:0:0:0:
448,240,366006,5,0,1:0:0:0:
432,240,366103,1,0,0:0:0:0:
416,240,366200,1,0,0:0:0:0:
368,304,366393,1,0,1:0:0:0:
352,304,366490,1,0,0:0:0:0:
336,304,366587,1,0,0:0:0:0:
320,304,366683,1,0,0:0:0:0:
272,240,366780,1,0,1:0:0:0:
256,240,366877,1,0,0:0:0:0:
240,240,366974,1,0,0:0:0:0:
224,240,367071,1,0,0:0:0:0:
176,304,367167,1,0,1:0:0:0:
176,304,367361,5,0,0:0:0:0:
64,304,367458,1,4,0:0:0:0:
64,192,367554,1,0,1:0:0:0:
64,192,367941,1,0,1:0:0:0:
64,192,368329,1,0,1:0:0:0:
64,192,368716,1,0,1:0:0:0:
64,192,369103,5,0,1:0:0:0:
80,176,369199,1,0,0:0:0:0:
96,160,369296,1,0,0:0:0:0:
112,144,369393,1,0,0:0:0:0:
160,192,369490,1,0,1:0:0:0:
176,208,369586,1,0,0:0:0:0:
192,224,369683,1,0,0:0:0:0:
208,240,369780,1,0,0:0:0:0:
256,192,369877,1,0,1:0:0:0:
272,176,369973,1,0,0:0:0:0:
288,160,370070,1,0,0:0:0:0:
304,144,370167,1,0,0:0:0:0:
320,128,370264,1,0,1:0:0:0:
368,192,370457,1,0,0:0:0:0:
496,192,370554,1,4,0:0:0:0:
432,112,370651,5,0,1:0:0:0:
432,272,371038,1,0,1:0:0:0:
432,112,371425,1,0,1:0:0:0:
432,272,371812,1,0,1:0:0:0:
384,192,372199,5,0,1:0:0:0:
368,192,372296,1,0,0:0:0:0:
352,192,372393,1,0,0:0:0:0:
336,192,372490,1,0,0:0:0:0:
384,192,372586,5,0,1:0:0:0:
345,182,372682,1,0,0:0:0:0:
306,172,372779,1,0,0:0:0:0:
267,162,372876,1,0,0:0:0:0:
384,192,372974,5,0,1:0:0:0:
332,207,373070,1,0,0:0:0:0:
281,222,373167,1,0,0:0:0:0:
230,237,373264,1,0,0:0:0:0:
384,192,373361,5,0,1:0:0:0:
448,192,373457,1,0,0:0:0:0:
368,192,373554,5,2,0:0:0:0:
464,192,373651,1,4,0:0:0:0:
336,128,373748,6,0,L|352:80,3,40,4|0|0|0,1:0|0:0|0:0|0:0,0:0:0:0:
272,128,374135,2,0,L|288:80,3,40,0|0|0|0,1:0|0:0|0:0|0:0,0:0:0:0:
208,128,374522,2,0,L|224:80,3,40,0|0|0|0,1:0|0:0|0:0|0:0,0:0:0:0:
144,128,374909,2,0,L|160:80,3,40,0|0|0|0,1:0|0:0|0:0|0:0,0:0:0:0:
128,224,375296,6,0,L|112:176,3,40,0|0|0|0,1:0|0:0|0:0|0:0,0:0:0:0:
192,224,375683,2,0,L|176:176,3,40,0|0|0|0,1:0|0:0|0:0|0:0,0:0:0:0:
256,224,376070,2,0,L|240:176,3,40,0|0|0|0,1:0|0:0|0:0|0:0,0:0:0:0:
320,224,376457,2,0,L|304:176,3,40,0|0|0|4,1:0|0:0|0:0|0:0,0:0:0:0:
352,288,376844,6,0,L|400:288,3,40,0|0|0|0,1:0|0:0|0:0|0:0,0:0:0:0:
240,288,377231,2,0,L|288:288,3,40,0|0|0|0,1:0|0:0|0:0|0:0,0:0:0:0:
128,288,377618,2,0,L|176:288,3,40,0|0|0|0,1:0|0:0|0:0|0:0,0:0:0:0:
16,288,378005,2,0,L|64:288,3,40,0|0|0|0,1:0|0:0|0:0|0:0,0:0:0:0:
128,288,378393,6,0,L|80:288,3,40,0|0|0|0,1:0|0:0|0:0|0:0,0:0:0:0:
240,288,378780,2,0,L|192:288,3,40,0|0|0|0,1:0|0:0|0:0|0:0,0:0:0:0:
352,288,379167,2,0,L|304:288,3,40,0|0|0|0,1:0|0:0|0:0|0:0,0:0:0:0:
464,288,379554,2,0,L|416:288,3,40,0|0|0|4,1:0|0:0|0:0|0:0,0:0:0:0:
400,224,379941,5,0,1:0:0:0:
400,224,380038,1,0,0:0:0:0:
400,224,380134,2,0,L|384:176,1,40
360,120,380328,1,0,1:0:0:0:
360,120,380425,1,0,0:0:0:0:
360,120,380521,2,0,L|344:72,1,40
360,120,380715,5,0,1:0:0:0:
360,120,380812,1,0,0:0:0:0:
360,120,380908,2,0,L|344:168,1,40
320,224,381102,1,0,1:0:0:0:
320,224,381199,1,0,0:0:0:0:
320,224,381295,2,0,L|304:272,1,40
288,328,381489,5,0,1:0:0:0:
288,328,381586,1,0,0:0:0:0:
288,328,381683,2,0,L|336:328,1,40
216,328,381876,1,0,1:0:0:0:
216,328,381973,1,0,0:0:0:0:
216,328,382070,2,0,L|168:328,1,40
72,328,382263,1,0,1:0:0:0:
72,328,382360,1,0,0:0:0:0:
72,328,382457,2,0,L|120:328,1,40
216,328,382651,1,0,1:0:0:0:
216,328,382748,1,0,0:0:0:0:
216,328,382845,2,0,L|264:328,1,40,0|4,0:0|0:0,0:0:0:0:
336,328,383038,6,0,L|320:288,1,40,0|0,1:0|0:0,0:0:0:0:
296,232,383231,2,0,L|280:192,1,40
256,136,383425,2,0,L|240:96,1,40,0|0,1:0|0:0,0:0:0:0:
216,40,383618,2,0,L|200:0,1,40
288,40,383812,6,0,L|272:80,1,40,0|0,1:0|0:0,0:0:0:0:
248,136,384005,2,0,L|232:176,1,40
208,232,384199,2,0,L|192:272,1,40,0|0,1:0|0:0,0:0:0:0:
168,328,384392,2,0,L|152:368,1,40
96,328,384586,5,0,1:0:0:0:
96,288,384682,1,0,0:0:0:0:
96,248,384779,1,0,0:0:0:0:
96,208,384876,1,0,0:0:0:0:
96,168,384973,1,0,1:0:0:0:
96,128,385069,1,0,0:0:0:0:
96,88,385166,1,0,0:0:0:0:
96,48,385263,1,0,0:0:0:0:
96,8,385360,5,0,1:0:0:0:
96,48,385456,1,0,0:0:0:0:
96,88,385553,1,0,0:0:0:0:
96,128,385650,1,0,0:0:0:0:
96,168,385747,1,0,1:0:0:0:
96,208,385843,1,0,0:0:0:0:
96,248,385940,1,0,1:0:0:0:
96,288,386037,1,2,0:0:0:0:
96,328,386134,5,4,1:2:0:0:
256,192,396972,5,4,0:0:0:0:
256,192,398327,1,4,0:0:0:0:
72,328,398714,5,0,1:0:0:0:
72,328,398908,1,0,1:0:0:0:
104,256,399101,1,2,0:0:0:0:
192,328,399295,1,0,1:0:0:0:
224,256,399488,1,2,0:0:0:0:
312,328,399682,1,0,1:0:0:0:
344,256,399875,1,2,0:0:0:0:
488,184,400069,5,0,1:0:0:0:
456,112,400262,1,2,0:0:0:0:
376,184,400456,1,0,1:0:0:0:
344,112,400649,1,2,0:0:0:0:
264,184,400843,1,0,1:0:0:0:
232,112,401036,1,2,0:0:0:0:
152,184,401230,1,0,1:0:0:0:
120,112,401423,1,2,0:0:0:0:
120,112,401521,1,4,0:0:0:0:
120,264,401811,5,2,0:0:0:0:
40,296,402005,1,0,1:0:0:0:
200,296,402198,1,2,0:0:0:0:
176,216,402392,1,0,1:0:0:0:
336,216,402585,1,2,0:0:0:0:
320,136,402779,1,0,1:0:0:0:
480,136,402972,1,2,0:0:0:0:
464,56,403166,5,0,1:0:0:0:
464,216,403359,1,2,0:0:0:0:
400,88,403553,1,0,1:0:0:0:
400,248,403746,1,2,0:0:0:0:
336,280,403940,1,0,1:0:0:0:
336,128,404133,1,2,0:0:0:0:
272,168,404327,1,0,1:0:0:0:
272,312,404521,1,2,0:0:0:0:
272,312,404617,1,4,0:0:0:0:
288,328,404714,6,0,L|232:320,1,40,0|0,1:0|0:0,0:0:0:0:
128,368,405004,1,0,0:0:0:0:
128,368,405101,1,0,1:0:0:0:
8,272,405488,6,0,L|64:264,1,40,0|0,1:0|0:0,0:0:0:0:
168,312,405778,1,0,0:0:0:0:
168,312,405875,1,0,1:0:0:0:
192,248,406262,5,0,1:0:0:0:
184,224,406359,1,0,0:0:0:0:
224,360,406553,1,0,0:0:0:0:
224,360,406649,1,0,1:0:0:0:
80,304,407037,6,0,P|104:336|152:344,1,80,0|0,1:0|0:0,0:0:0:0:
264,296,407424,2,0,L|352:288,1,80,0|0,1:0|0:0,0:0:0:0:
488,272,407714,1,4,0:0:0:0:
472,336,407811,6,0,L|464:280,1,40,0|0,1:0|0:0,0:0:0:0:
512,176,408101,1,0,0:0:0:0:
512,176,408198,1,0,1:0:0:0:
416,56,408585,6,0,L|408:112,1,40,0|0,1:0|0:0,0:0:0:0:
456,216,408875,1,0,0:0:0:0:
456,216,408972,1,0,1:0:0:0:
456,296,409165,5,0,0:0:0:0:
456,296,409262,1,0,0:0:0:0:
456,296,409359,2,0,L|376:296,1,80,0|0,1:0|0:0,0:0:0:0:
320,352,409746,2,0,L|240:352,1,80,0|0,1:0|0:0,0:0:0:0:
184,296,410133,1,0,1:0:0:0:
176,296,410230,1,0,0:0:0:0:
168,296,410327,1,0,0:0:0:0:
160,296,410423,1,0,0:0:0:0:
152,296,410520,1,0,1:0:0:0:
56,296,410714,1,0,0:0:0:0:
56,296,410811,1,4,0:0:0:0:
96,352,410907,5,0,1:0:0:0:
104,216,411004,1,0,0:0:0:0:
112,320,411198,1,0,0:0:0:0:
112,320,411294,1,0,1:0:0:0:
176,336,411682,5,0,1:0:0:0:
184,240,411778,1,0,0:0:0:0:
192,304,411972,1,0,0:0:0:0:
192,304,412069,1,0,1:0:0:0:
256,320,412456,5,0,1:0:0:0:
264,264,412649,1,0,0:0:0:0:
264,264,412746,1,0,0:0:0:0:
264,264,412843,1,0,1:0:0:0:
328,304,413230,5,0,1:0:0:0:
336,301,413327,1,0,0:0:0:0:
344,299,413423,1,0,0:0:0:0:
352,296,413520,1,0,0:0:0:0:
400,336,413617,2,0,L|480:312,1,80,0|0,1:0|0:0,0:0:0:0:
476,313,413907,1,4,0:0:0:0:
432,264,414004,6,0,P|432:240|440:216,1,40,0|0,1:0|0:0,0:0:0:0:
496,128,414294,1,0,0:0:0:0:
496,128,414391,1,0,1:0:0:0:
288,208,414778,6,0,P|308:220|336:224,1,40,0|0,1:0|0:0,0:0:0:0:
496,128,415068,1,0,0:0:0:0:
496,128,415165,1,0,1:0:0:0:
256,144,415552,5,0,1:0:0:0:
264,224,415746,1,0,0:0:0:0:
272,304,415939,1,0,1:0:0:0:
120,368,416326,5,0,1:0:0:0:
121,348,416422,1,0,0:0:0:0:
123,328,416519,1,0,0:0:0:0:
125,308,416616,1,0,0:0:0:0:
127,288,416713,1,0,1:0:0:0:
200,328,416907,5,0,0:0:0:0:
48,312,417004,1,4,0:0:0:0:
24,224,417294,5,2,0:0:0:0:
88,216,417488,1,0,0:0:0:0:
152,208,417681,1,2,0:0:0:0:
320,168,418068,5,2,0:0:0:0:
256,160,418262,1,0,0:0:0:0:
192,152,418455,1,2,0:0:0:0:
208,248,418649,5,0,0:0:0:0:
216,184,418842,1,2,0:0:0:0:
232,256,419036,1,0,0:0:0:0:
216,184,419230,1,2,0:0:0:0:
144,232,419423,5,0,0:0:0:0:
272,208,419617,1,2,0:0:0:0:
344,232,419810,1,0,0:0:0:0:
472,208,420004,1,2,0:0:0:0:
416,256,420197,6,0,L|424:168,1,80,0|2,0:0|0:0,0:0:0:0:
320,232,420584,2,0,L|357:152,1,80,0|2,0:0|0:0,0:0:0:0:
240,176,420971,2,0,L|302:113,1,80,0|2,0:0|0:0,0:0:0:0:
184,96,421358,2,0,L|264:58,1,80,0|2,0:0|0:0,0:0:0:0:
80,120,421746,5,0,0:0:0:0:
64,24,421939,1,2,0:0:0:0:
168,192,422133,1,0,0:0:0:0:
184,96,422326,1,2,0:0:0:0:
80,320,422520,1,0,0:0:0:0:
64,224,422713,1,2,0:0:0:0:
448,352,423294,5,4,0:0:0:0:
424,256,423487,1,2,0:0:0:0:
384,320,423681,1,0,0:0:0:0:
360,224,423875,1,2,0:0:0:0:
343,199,423971,1,0,0:0:0:0:
336,170,424068,1,0,0:0:0:0:
338,140,424165,1,0,0:0:0:0:
351,113,424262,1,2,0:0:0:0:
416,184,424455,1,0,0:0:0:0:
264,176,424649,5,2,0:0:0:0:
264,176,424745,1,0,0:0:0:0:
264,176,424842,2,0,L|184:176,3,80,0|2|0|2,0:0|0:0|0:0|0:0,0:0:0:0:
120,232,425616,1,0,0:0:0:0:
120,232,425713,1,0,0:0:0:0:
120,232,425810,1,2,0:0:0:0:
48,128,426003,2,0,L|128:128,1,80
32,304,426295,5,4,0:0:0:0:
32,304,426391,1,0,0:0:0:0:
56,208,426584,1,2,0:0:0:0:
96,272,426778,1,0,0:0:0:0:
120,176,426971,1,2,0:0:0:0:
137,151,427067,1,0,0:0:0:0:
144,122,427164,1,0,0:0:0:0:
142,92,427261,1,0,0:0:0:0:
129,65,427358,1,2,0:0:0:0:
192,216,427552,1,0,0:0:0:0:
312,144,427745,5,2,0:0:0:0:
312,144,427842,1,0,0:0:0:0:
312,144,427939,2,0,L|392:136,3,80,0|2|0|2,0:0|0:0|0:0|0:0,0:0:0:0:
480,200,428713,1,0,0:0:0:0:
480,200,428810,1,0,0:0:0:0:
480,200,428907,1,2,0:0:0:0:
380,308,429100,2,0,L|388:220,1,80
400,56,429390,5,4,0:0:0:0:
400,56,429487,1,0,0:0:0:0:
328,120,429681,1,2,0:0:0:0:
464,144,429874,1,0,0:0:0:0:
264,40,430068,1,2,0:0:0:0:
264,40,430165,1,0,0:0:0:0:
264,40,430261,1,0,0:0:0:0:
280,192,430455,1,2,0:0:0:0:
208,96,430648,1,0,0:0:0:0:
224,248,430842,5,2,0:0:0:0:
224,248,430939,1,0,0:0:0:0:
224,248,431036,1,0,0:0:0:0:
64,224,431229,1,2,0:0:0:0:
176,192,431423,1,0,0:0:0:0:
48,296,431616,1,2,0:0:0:0:
48,296,431713,1,0,0:0:0:0:
48,296,431810,1,0,0:0:0:0:
88,144,432003,1,2,0:0:0:0:
104,344,432197,1,0,0:0:0:0:
40,200,432390,5,0,0:0:0:0:
40,200,432487,1,4,0:0:0:0:
40,200,432584,1,0,0:0:0:0:
208,232,432777,1,2,0:0:0:0:
72,272,432971,1,0,0:0:0:0:
208,152,433164,1,2,0:0:0:0:
208,152,433261,1,0,0:0:0:0:
208,152,433358,1,0,0:0:0:0:
352,264,433552,1,2,0:0:0:0:
208,232,433745,1,0,0:0:0:0:
384,192,433939,1,2,0:0:0:0:
384,192,434035,1,0,0:0:0:0:
384,192,434132,5,0,1:0:0:0:
300,232,434519,1,0,1:0:0:0:
212,192,434906,1,0,1:0:0:0:
128,232,435293,5,0,0:0:0:0:
144,304,435390,1,0,0:0:0:0:
128,240,435487,5,0,0:0:0:0:
144,312,435584,1,0,0:0:0:0:
72,280,435680,5,4,0:0:0:0:
176,280,435874,1,2,0:0:0:0:
232,312,436068,1,0,0:0:0:0:
288,280,436261,1,2,0:0:0:0:
344,312,436455,1,0,0:0:0:0:
400,280,436648,1,2,0:0:0:0:
456,312,436842,1,0,0:0:0:0:
512,280,437035,1,2,0:0:0:0:
336,72,437422,5,2,0:0:0:0:
280,104,437616,1,0,0:0:0:0:
224,72,437809,1,2,0:0:0:0:
168,104,438003,1,0,0:0:0:0:
112,72,438196,1,2,0:0:0:0:
56,104,438390,1,0,0:0:0:0:
0,72,438583,1,2,0:0:0:0:
0,72,438680,1,4,0:0:0:0:
80,296,438971,5,2,0:0:0:0:
152,296,439164,1,0,0:0:0:0:
224,296,439358,1,2,0:0:0:0:
296,296,439551,1,0,0:0:0:0:
368,296,439745,1,2,0:0:0:0:
440,296,439938,1,0,0:0:0:0:
512,296,440132,1,2,0:0:0:0:
432,88,440519,5,2,0:0:0:0:
360,88,440712,1,0,0:0:0:0:
288,88,440906,1,2,0:0:0:0:
216,88,441099,1,0,0:0:0:0:
144,88,441293,1,2,0:0:0:0:
72,88,441486,1,0,0:0:0:0:
0,88,441680,1,2,0:0:0:0:
0,88,441777,1,4,0:0:0:0:
424,272,442067,5,2,0:0:0:0:
424,200,442260,1,0,0:0:0:0:
424,128,442454,1,2,0:0:0:0:
360,384,442647,1,0,0:0:0:0:
360,312,442841,1,2,0:0:0:0:
360,240,443035,1,0,0:0:0:0:
360,168,443228,1,2,0:0:0:0:
464,200,443616,5,2,0:0:0:0:
464,128,443809,1,0,0:0:0:0:
464,56,444003,1,2,0:0:0:0:
400,368,444196,1,0,0:0:0:0:
400,296,444390,1,2,0:0:0:0:
400,224,444584,1,0,0:0:0:0:
400,152,444777,1,2,0:0:0:0:
400,152,444874,1,4,0:0:0:0:
80,256,445164,5,2,0:0:0:0:
152,272,445357,1,0,0:0:0:0:
56,252,445551,1,2,0:0:0:0:
152,272,445745,1,0,0:0:0:0:
32,248,445938,1,2,0:0:0:0:
152,272,446132,1,0,0:0:0:0:
8,244,446325,1,2,0:0:0:0:
152,272,446519,6,0,L|200:264,1,40,0|0,1:0|0:0,0:0:0:0:
152,272,446712,6,0,L|200:264,1,40,0|0,1:0|0:0,0:0:0:0:
152,272,446906,6,0,L|200:264,1,40,0|0,1:0|0:0,0:0:0:0:
152,272,447099,6,0,L|200:264,1,40,0|0,1:0|0:0,0:0:0:0:
191,265,447293,6,0,L|152:272,1,40,0|0,1:0|0:0,0:0:0:0:
191,265,447486,6,0,L|152:272,1,40,0|0,1:0|0:0,0:0:0:0:
191,265,447680,6,0,L|152:272,1,40,0|0,1:0|0:0,0:0:0:0:
191,265,447873,6,0,L|152:272,1,40,0|0,1:0|0:0,0:0:0:0:
256,352,448067,5,4,1:0:0:0:
256,352,451164,5,4,1:0:0:0:
256,352,453873,5,0,1:0:0:0:
256,352,454067,1,0,1:0:0:0:
256,352,454260,1,4,1:0:0:0:
256,192,457357,12,4,460067,1:0:0:0:
256,304,460454,5,4,1:0:0:0:
256,240,460841,1,0,1:0:0:0:
256,304,461228,1,0,1:0:0:0:
256,240,461615,1,0,1:0:0:0:
256,304,462002,1,0,1:0:0:0:
256,240,462389,1,0,1:0:0:0:
256,304,462776,1,0,1:0:0:0:
256,240,463163,1,2,1:0:0:0:
256,272,463260,1,0,0:0:0:0:
256,304,463357,1,2,0:0:0:0:
256,336,463453,1,0,0:0:0:0:
256,176,463550,5,4,1:0:0:0:
256,112,463937,1,0,1:0:0:0:
256,176,464324,1,0,1:0:0:0:
256,112,464711,1,0,1:0:0:0:
256,176,465098,1,0,1:0:0:0:
256,112,465485,1,0,1:0:0:0:
256,176,465872,1,0,1:0:0:0:
256,112,466259,1,2,1:0:0:0:
256,144,466356,1,0,0:0:0:0:
256,176,466453,1,2,0:0:0:0:
256,208,466549,1,0,0:0:0:0:
176,128,466646,5,4,1:0:0:0:
336,128,467034,1,0,1:0:0:0:
176,128,467421,1,0,1:0:0:0:
336,128,467809,1,0,1:0:0:0:
176,128,468195,1,0,1:0:0:0:
336,128,468583,1,0,1:0:0:0:
176,128,468969,1,0,1:0:0:0:
336,128,469357,1,2,1:0:0:0:
304,128,469453,1,0,0:0:0:0:
272,128,469550,1,2,0:0:0:0:
240,128,469647,1,0,0:0:0:0:
384,176,469744,5,4,1:0:0:0:
128,176,470131,1,0,1:0:0:0:
384,176,470518,1,0,1:0:0:0:
128,176,470906,1,0,1:0:0:0:
384,176,471292,1,0,1:0:0:0:
128,176,471680,1,0,1:0:0:0:
384,176,472066,1,0,1:0:0:0:
144,176,472454,1,0,1:0:0:0:
208,176,472550,1,0,0:0:0:0:
272,176,472647,1,2,0:0:0:0:
336,176,472744,1,0,0:0:0:0:
192,112,472841,5,4,1:0:0:0:
320,112,473227,1,4,1:0:0:0:
48,240,473614,1,0,1:0:0:0:
52,216,473711,1,0,0:0:0:0:
56,192,473808,1,2,0:0:0:0:
60,168,473905,1,0,0:0:0:0:
108,292,474001,1,0,1:0:0:0:
112,268,474098,1,0,0:0:0:0:
116,244,474195,1,2,0:0:0:0:
120,220,474292,1,0,0:0:0:0:
176,288,474388,6,0,L|256:272,1,80,0|0,1:0|0:0,0:0:0:0:
288,208,474776,2,0,L|368:192,1,80,0|0,1:0|0:0,0:0:0:0:
416,304,475163,1,0,1:0:0:0:
420,280,475260,1,0,0:0:0:0:
424,256,475357,1,2,0:0:0:0:
428,232,475454,1,0,0:0:0:0:
476,356,475550,1,0,1:0:0:0:
480,332,475647,1,0,0:0:0:0:
484,308,475744,1,2,0:0:0:0:
488,284,475841,1,0,0:0:0:0:
448,128,475937,5,4,1:0:0:0:
448,128,476324,1,0,1:0:0:0:
336,32,476711,1,0,1:0:0:0:
335,58,476807,1,0,0:0:0:0:
340,84,476904,1,2,0:0:0:0:
350,109,477001,1,0,0:0:0:0:
224,16,477098,1,0,1:0:0:0:
232,41,477194,1,0,0:0:0:0:
246,64,477291,1,2,0:0:0:0:
264,83,477388,1,0,0:0:0:0:
304,176,477485,6,0,L|224:168,1,80,0|0,1:0|0:0,0:0:0:0:
184,232,477872,2,0,L|104:224,1,80,0|0,1:0|0:0,0:0:0:0:
64,344,478259,1,0,1:0:0:0:
64,317,478355,1,0,0:0:0:0:
59,291,478452,1,2,0:0:0:0:
49,266,478549,1,0,0:0:0:0:
168,384,478646,1,0,1:0:0:0:
160,359,478742,1,0,0:0:0:0:
146,336,478839,1,2,0:0:0:0:
128,317,478936,1,0,0:0:0:0:
224,320,479033,5,4,1:0:0:0:
224,320,479421,1,0,1:0:0:0:
320,344,479808,2,0,L|360:344,1,40,0|0,1:0|0:0,0:0:0:0:
424,312,480001,1,2,0:0:0:0:
424,312,480098,1,0,0:0:0:0:
360,264,480195,2,0,L|320:264,1,40,0|0,1:0|0:0,0:0:0:0:
256,232,480388,1,2,0:0:0:0:
256,232,480485,1,0,0:0:0:0:
320,184,480582,5,0,1:0:0:0:
320,184,480969,1,0,1:0:0:0:
192,184,481356,2,0,L|152:184,1,40,0|0,1:0|0:0,0:0:0:0:
88,152,481549,1,2,0:0:0:0:
88,152,481646,1,0,0:0:0:0:
152,104,481743,5,0,1:0:0:0:
224,104,481840,1,0,0:0:0:0:
296,104,481937,1,2,0:0:0:0:
368,104,482033,1,0,0:0:0:0:
440,104,482130,1,4,1:0:0:0:
440,104,482517,1,0,1:0:0:0:
480,192,482904,5,0,1:0:0:0:
454,198,483000,1,0,0:0:0:0:
427,200,483097,1,2,0:0:0:0:
400,200,483194,1,0,0:0:0:0:
488,272,483291,5,0,1:0:0:0:
435,282,483387,1,0,0:0:0:0:
382,283,483484,1,2,0:0:0:0:
330,273,483581,1,0,0:0:0:0:
496,352,483678,5,0,1:0:0:0:
496,352,484065,1,0,1:0:0:0:
496,352,484453,1,0,1:0:0:0:
496,352,484840,5,0,1:0:0:0:
426,350,484936,1,0,0:0:0:0:
356,348,485033,1,0,1:0:0:0:
286,346,485130,1,0,0:0:0:0:
216,344,485227,1,4,1:0:0:0:
256,192,497613,5,4,0:0:0:0:
256,144,497807,1,2,0:0:0:0:
304,192,498194,1,2,0:0:0:0:
256,240,498581,1,2,0:0:0:0:
208,192,498968,1,2,0:0:0:0:
296,152,499355,5,2,0:0:0:0:
296,232,499742,1,2,0:0:0:0:
216,232,500129,1,2,0:0:0:0:
216,152,500516,1,2,0:0:0:0:
304,192,500903,5,2,0:0:0:0:
256,240,501290,1,2,0:0:0:0:
208,192,501677,1,2,0:0:0:0:
256,144,502064,1,2,0:0:0:0:
296,232,502451,5,2,0:0:0:0:
216,232,502838,1,2,0:0:0:0:
216,152,503225,1,2,0:0:0:0:
296,152,503612,1,2,0:0:0:0:
256,232,504000,5,2,0:0:0:0:
176,232,504387,1,2,0:0:0:0:
96,232,504774,1,2,0:0:0:0:
16,232,505161,1,2,0:0:0:0:
256,232,505548,5,2,0:0:0:0:
336,232,505935,1,2,0:0:0:0:
416,232,506322,1,2,0:0:0:0:
496,232,506709,1,2,0:0:0:0:
256,152,507097,5,2,0:0:0:0:
256,296,507484,1,2,0:0:0:0:
256,152,507871,1,2,0:0:0:0:
256,296,508258,1,2,0:0:0:0:
80,248,508645,6,0,B|160:248|160:248|72:248,1,160
24,160,509226,6,0,P|16:176|24:200,1,40,2|0,0:0|0:0,0:0:0:0:
216,328,509419,2,0,P|224:312|216:288,1,40
96,56,509613,1,2,0:0:0:0:
100,84,509710,1,0,0:0:0:0:
104,112,509806,1,0,1:0:0:0:
24,360,510000,5,4,0:0:0:0:
136,304,510193,5,0,1:0:0:0:
144,232,510290,1,2,0:0:0:0:
136,296,510387,1,0,1:0:0:0:
224,248,510580,1,2,0:0:0:0:
224,248,510677,1,0,0:0:0:0:
216,320,510774,1,0,1:0:0:0:
304,264,510968,1,2,0:0:0:0:
304,264,511065,1,0,0:0:0:0:
296,336,511162,1,0,1:0:0:0:
384,280,511355,1,2,0:0:0:0:
384,280,511452,1,0,0:0:0:0:
376,352,511549,1,0,1:0:0:0:
448,168,511742,6,0,L|456:216,1,40,2|0,0:0|0:0,0:0:0:0:
468,272,511935,1,0,1:0:0:0:
360,160,512129,2,0,L|368:208,1,40,2|0,0:0|0:0,0:0:0:0:
380,264,512322,1,0,1:0:0:0:
264,152,512516,2,0,L|272:200,1,40,2|0,0:0|0:0,0:0:0:0:
284,256,512709,1,0,1:0:0:0:
176,144,512903,2,0,L|184:192,1,40,2|0,0:0|0:0,0:0:0:0:
196,248,513096,1,0,1:0:0:0:
112,304,513290,5,2,0:0:0:0:
112,304,513387,1,0,0:0:0:0:
48,288,513484,1,0,1:0:0:0:
96,224,513677,1,2,0:0:0:0:
96,224,513774,1,0,0:0:0:0:
32,208,513871,1,0,1:0:0:0:
80,144,514064,1,2,0:0:0:0:
80,144,514161,1,0,0:0:0:0:
16,128,514258,1,0,1:0:0:0:
64,64,514451,1,2,0:0:0:0:
64,64,514548,1,0,0:0:0:0:
0,48,514645,1,0,1:0:0:0:
144,112,514838,6,0,L|192:112,1,40,2|0,0:0|0:0,0:0:0:0:
336,144,515032,1,0,1:0:0:0:
336,144,515225,2,0,L|288:144,1,40,2|0,0:0|0:0,0:0:0:0:
144,176,515419,1,0,1:0:0:0:
144,176,515612,2,0,L|192:176,1,40,2|0,0:0|0:0,0:0:0:0:
336,208,515806,1,0,1:0:0:0:
336,208,515999,2,0,L|288:208,1,40,2|0,0:0|0:0,0:0:0:0:
240,256,516193,6,0,L|256:336,1,80,0|2,1:0|0:0,0:0:0:0:
416,240,516483,1,0,0:0:0:0:
416,240,516580,2,0,L|400:160,1,80,0|2,1:0|0:0,0:0:0:0:
304,144,516871,1,0,0:0:0:0:
304,144,516967,2,0,L|320:224,1,80,0|2,1:0|0:0,0:0:0:0:
512,272,517257,1,0,0:0:0:0:
512,272,517354,2,0,L|496:192,1,80,0|2,1:0|0:0,0:0:0:0:
336,64,517645,5,0,0:0:0:0:
336,64,517741,2,0,L|256:80,1,80,0|2,1:0|0:0,0:0:0:0:
400,192,518031,1,0,0:0:0:0:
400,192,518128,2,0,L|480:176,1,80,0|2,1:0|0:0,0:0:0:0:
240,160,518419,1,0,0:0:0:0:
240,160,518515,2,0,L|160:176,1,80,0|2,1:0|0:0,0:0:0:0:
304,288,518805,1,0,0:0:0:0:
304,288,518902,2,0,L|384:272,1,80,0|2,1:0|0:0,0:0:0:0:
128,256,519193,5,0,0:0:0:0:
128,256,519290,1,0,1:0:0:0:
80,80,519483,1,2,0:0:0:0:
80,80,519580,1,0,0:0:0:0:
80,80,519677,1,0,1:0:0:0:
48,352,519870,1,2,0:0:0:0:
48,352,519967,1,0,0:0:0:0:
48,352,520064,1,0,1:0:0:0:
288,240,520257,1,2,0:0:0:0:
288,240,520354,1,0,0:0:0:0:
288,240,520451,1,0,1:0:0:0:
0,192,520645,1,2,0:0:0:0:
0,192,520741,1,0,0:0:0:0:
32,272,520838,5,0,0:0:0:0:
192,224,521032,2,0,B|112:232|112:232|192:224,1,160
272,320,521612,6,0,P|248:336|208:336,1,60.0000022888184,2|0,0:0|0:0,0:0:0:0:
88,256,521806,2,0,P|72:232|72:192,1,60.0000022888184
248,120,521999,1,0,0:0:0:0:
248,120,522096,1,0,0:0:0:0:
152,384,522386,5,4,0:0:0:0:
24,328,522580,1,0,1:0:0:0:
32,240,522677,1,2,0:0:0:0:
24,320,522773,1,0,1:0:0:0:
120,224,522967,1,2,0:0:0:0:
120,224,523064,1,0,0:0:0:0:
112,312,523161,6,0,B|160:312|160:312|144:328,1,60.0000022888184,0|0,1:0|0:0,0:0:0:0:
248,352,523354,2,0,L|240:280,1,60.0000022888184,2|0,0:0|0:0,0:0:0:0:
72,80,523548,2,0,P|56:112|64:144,1,60.0000022888184,4|0,0:0|0:0,0:0:0:0:
280,224,523741,1,0,0:0:0:0:
276,192,523838,1,0,0:0:0:0:
272,160,523935,1,0,1:0:0:0:
384,240,524128,5,2,0:0:0:0:
384,240,524225,1,0,0:0:0:0:
368,336,524322,1,0,1:0:0:0:
112,312,524516,6,0,B|160:312|160:312|144:328,1,60.0000022888184,2|0,0:0|0:0,0:0:0:0:
248,352,524709,2,0,L|240:280,1,60.0000022888184,0|0,1:0|0:0,0:0:0:0:
72,80,524903,2,0,P|56:112|64:144,1,60.0000022888184,4|0,0:0|0:0,0:0:0:0:
280,224,525096,1,0,1:0:0:0:
276,192,525193,1,0,0:0:0:0:
272,160,525290,1,2,0:0:0:0:
344,280,525483,5,0,1:0:0:0:
448,256,525677,1,2,0:0:0:0:
392,256,525773,1,0,0:0:0:0:
344,280,525870,1,0,1:0:0:0:
448,256,526064,1,2,0:0:0:0:
384,224,526160,1,0,0:0:0:0:
344,280,526257,6,0,B|296:280|296:280|312:296,1,60.0000022888184,0|0,1:0|0:0,0:0:0:0:
208,320,526450,2,0,L|216:248,1,60.0000022888184,2|0,0:0|0:0,0:0:0:0:
328,96,526644,2,0,P|344:128|336:160,1,60.0000022888184,4|0,0:0|0:0,0:0:0:0:
112,264,526837,1,0,0:0:0:0:
116,232,526934,1,0,0:0:0:0:
120,200,527031,1,0,1:0:0:0:
344,280,527225,5,2,0:0:0:0:
416,304,527321,1,0,0:0:0:0:
480,264,527418,1,0,1:0:0:0:
344,280,527612,6,0,B|296:280|296:280|312:296,1,60.0000022888184,2|0,0:0|0:0,0:0:0:0:
208,320,527805,2,0,L|216:248,1,60.0000022888184,0|0,1:0|0:0,0:0:0:0:
328,96,527999,2,0,P|344:128|336:160,1,60.0000022888184,4|0,0:0|0:0,0:0:0:0:
112,264,528192,1,0,1:0:0:0:
116,232,528289,1,0,0:0:0:0:
120,200,528386,1,2,0:0:0:0:
304,368,528580,5,0,1:0:0:0:
288,256,528773,1,2,0:0:0:0:
288,256,528870,1,0,0:0:0:0:
304,360,528967,5,0,1:0:0:0:
288,240,529160,1,2,0:0:0:0:
288,240,529257,1,0,0:0:0:0:
304,352,529354,6,0,L|240:352,1,60.0000022888184,0|0,1:0|0:0,0:0:0:0:
40,368,529547,2,0,L|88:368,1,40,2|0,0:0|0:0,0:0:0:0:
456,312,529741,2,0,L|368:312,1,80,4|0,0:0|0:0,0:0:0:0:
136,328,529934,2,0,L|192:328,1,40,2|0,0:0|0:0,0:0:0:0:
304,352,530128,5,0,1:0:0:0:
320,216,530322,1,2,0:0:0:0:
320,216,530418,1,0,0:0:0:0:
320,216,530515,1,0,1:0:0:0:
304,352,530709,6,0,L|240:352,1,60.0000022888184,2|0,0:0|0:0,0:0:0:0:
40,368,530902,2,0,L|88:368,1,40,0|0,1:0|0:0,0:0:0:0:
456,312,531096,2,0,L|368:312,1,80,4|0,0:0|0:0,0:0:0:0:
144,328,531289,1,0,1:0:0:0:
160,328,531386,1,0,0:0:0:0:
176,328,531483,1,2,0:0:0:0:
112,256,531676,5,0,1:0:0:0:
128,144,531869,1,2,0:0:0:0:
128,144,531966,1,0,0:0:0:0:
112,248,532063,5,0,1:0:0:0:
128,128,532256,1,2,0:0:0:0:
128,128,532353,1,0,0:0:0:0:
112,240,532450,6,0,L|176:240,1,60.0000022888184,0|0,1:0|0:0,0:0:0:0:
248,312,532644,2,0,L|200:312,1,40,2|0,0:0|0:0,0:0:0:0:
48,312,532838,2,0,L|136:312,1,80,4|0,0:0|0:0,0:0:0:0:
312,384,533031,2,0,L|256:384,1,40,2|0,0:0|0:0,0:0:0:0:
112,240,533225,5,0,1:0:0:0:
72,80,533418,1,2,1:0:0:0:
72,80,533515,1,0,0:0:0:0:
72,80,533612,1,0,1:0:0:0:
112,240,533805,6,0,L|176:240,1,60.0000022888184,2|0,0:0|0:0,0:0:0:0:
272,312,533999,2,0,L|200:312,1,70.000000667572,0|0,1:0|0:0,0:0:0:0:
48,312,534193,2,0,L|136:312,1,80,4|0,0:0|0:0,0:0:0:0:
352,376,534386,1,0,1:0:0:0:
328,376,534483,1,0,0:0:0:0:
400,312,534579,1,4,0:0:0:0:
496,312,534773,5,2,0:0:0:0:
448,240,534966,1,0,1:0:0:0:
256,240,535160,1,0,1:0:0:0:
256,240,535257,1,0,0:0:0:0:
120,328,535547,6,0,L|64:328,1,40,0|0,1:0|0:0,0:0:0:0:
160,192,535741,2,0,L|120:192,1,40,2|0,0:0|0:0,0:0:0:0:
160,56,535934,2,0,L|240:56,1,80,4|0,0:0|0:0,0:0:0:0:
64,120,536128,1,0,0:0:0:0:
40,192,536225,1,0,0:0:0:0:
16,264,536321,5,0,1:0:0:0:
16,264,536418,1,0,0:0:0:0:
256,264,536612,1,0,0:0:0:0:
256,264,536708,1,0,1:0:0:0:
120,328,536902,6,0,L|64:328,1,40,2|0,0:0|0:0,0:0:0:0:
120,192,537095,2,0,L|180:192,1,60.0000022888184,0|0,1:0|0:0,0:0:0:0:
240,56,537289,2,0,L|160:56,1,80,4|0,0:0|0:0,0:0:0:0:
312,192,537483,1,0,0:0:0:0:
336,260,537580,1,0,0:0:0:0:
360,328,537676,5,6,1:0:0:0:
432,328,537773,1,0,0:0:0:0:
256,288,537966,1,0,0:0:0:0:
256,288,538062,1,0,0:0:0:0:
152,328,538257,1,6,1:0:0:0:
80,328,538354,1,0,0:0:0:0:
400,128,538644,6,0,L|384:80,1,40,0|0,1:0|0:0,0:0:0:0:
368,192,538837,2,0,L|380:229,1,40,2|0,0:0|0:0,0:0:0:0:
375,52,539031,6,0,L|400:127,1,80,4|0,0:0|0:0,0:0:0:0:
394,267,539224,2,0,L|368:191,1,80,2|0,0:0|0:0,0:0:0:0:
464,208,539418,5,0,1:0:0:0:
464,208,539515,1,0,0:0:0:0:
304,128,539708,1,0,0:0:0:0:
304,128,539805,1,0,1:0:0:0:
401,127,539999,6,0,L|417:79,1,40,2|0,0:0|0:0,0:0:0:0:
369,191,540192,2,0,L|356:228,1,40,0|0,1:0|0:0,0:0:0:0:
426,51,540386,6,0,L|400:126,1,80,4|0,0:0|0:0,0:0:0:0:
343,266,540579,2,0,L|263:266,1,80,0|0,1:0|0:0,0:0:0:0:
304,336,540773,6,2,L|464:336,1,160,6|0,1:0|1:0,1:0:0:0:
256,192,541160,1,0,0:0:0:0:
48,336,541353,2,2,L|208:336,1,160,6|0,1:0|0:0,1:0:0:0:
144,128,541740,6,0,L|144:80,1,40,0|0,1:0|0:0,0:0:0:0:
176,208,541934,2,0,L|176:256,1,40,2|0,0:0|0:0,0:0:0:0:
96,192,542127,2,0,L|256:144,1,160,4|2,0:0|0:0,0:0:0:0:
368,288,542418,5,0,0:0:0:0:
368,288,542515,1,0,1:0:0:0:
384,176,542708,1,2,0:0:0:0:
384,176,542805,1,0,0:0:0:0:
384,176,542902,1,0,1:0:0:0:
128,104,543095,6,0,L|128:56,1,40,2|0,0:0|0:0,0:0:0:0:
176,240,543289,2,0,L|176:288,1,40,0|0,1:0|0:0,0:0:0:0:
96,192,543482,2,0,L|256:144,1,160,4|0,0:0|1:0,0:0:0:0:
368,288,543773,5,0,0:0:0:0:
504,256,543869,2,2,P|480:168|416:152,1,160,6|0,1:0|1:0,1:0:0:0:
256,344,544256,1,0,0:0:0:0:
8,256,544450,2,2,P|32:168|96:152,1,160,6|0,1:0|0:0,1:0:0:0:
328,248,544837,6,0,P|336:224|336:192,1,40,0|0,1:0|0:0,0:0:0:0:
208,104,545031,2,0,P|207:129|217:159,1,40,2|0,0:0|0:0,0:0:0:0:
336,136,545224,2,0,B|256:144|272:176|288:208|200:216,1,160,4|0,0:0|0:0,0:0:0:0:
160,328,545514,1,0,0:0:0:0:
160,336,545611,6,0,L|120:336,1,40,0|0,1:0|0:0,0:0:0:0:
144,256,545805,2,0,L|80:256,1,53.1999978082276,0|0,1:0|0:0,0:0:0:0:
128,176,545998,2,0,L|48:176,1,66.7999979104615,0|0,1:0|0:0,0:0:0:0:
112,96,546192,2,0,L|32:96,1,80,0|0,1:0|0:0,0:0:0:0:
192,48,546385,6,0,L|272:48,1,80,0|0,1:0|0:0,0:0:0:0:
208,128,546579,2,0,L|288:128,1,66.7999979104615,0|0,1:0|0:0,0:0:0:0:
224,208,546772,2,0,L|288:208,1,53.1999978082276,0|0,1:0|0:0,0:0:0:0:
240,288,546966,2,0,L|280:288,1,40,0|0,1:0|0:0,0:0:0:0:
256,368,547160,1,4,1:0:0:0:
256,368,550256,5,4,1:0:0:0:
256,368,553159,5,0,1:0:0:0:
256,368,553353,1,4,1:0:0:0:
256,368,556256,5,0,0:0:0:0:
256,368,556449,1,4,0:0:0:0:
256,368,559159,5,4,0:0:0:0:
256,368,559353,1,0,0:0:0:0:
256,240,559546,5,4,0:0:0:0:
272,240,559643,1,0,0:0:0:0:
288,240,559740,1,0,0:0:0:0:
304,240,559836,1,0,0:0:0:0:
352,304,559933,1,0,0:0:0:0:
368,304,560030,1,0,0:0:0:0:
384,304,560127,1,0,0:0:0:0:
400,304,560223,1,0,0:0:0:0:
448,240,560320,1,0,0:0:0:0:
448,224,560417,1,0,0:0:0:0:
448,208,560514,1,0,0:0:0:0:
448,192,560611,1,0,0:0:0:0:
448,176,560707,1,0,0:0:0:0:
448,160,560804,1,0,0:0:0:0:
448,32,560998,1,0,0:0:0:0:
400,96,561094,5,0,0:0:0:0:
384,96,561191,1,0,0:0:0:0:
368,96,561288,1,0,0:0:0:0:
352,96,561384,1,0,0:0:0:0:
304,160,561481,1,0,0:0:0:0:
288,160,561578,1,0,0:0:0:0:
272,160,561675,1,0,0:0:0:0:
256,160,561771,1,0,0:0:0:0:
208,224,561868,1,0,0:0:0:0:
208,240,561965,1,0,0:0:0:0:
208,256,562062,1,0,0:0:0:0:
208,272,562159,1,0,0:0:0:0:
160,336,562256,6,0,L|112:336,1,40,4|0,1:0|0:0,0:0:0:0:
64,48,562449,2,0,L|112:48,1,40,4|0,1:0|0:0,0:0:0:0:
256,208,562643,5,4,1:0:0:0:
240,208,562740,1,0,0:0:0:0:
224,208,562837,1,0,0:0:0:0:
208,208,562933,1,0,0:0:0:0:
160,144,563030,1,0,0:0:0:0:
144,144,563127,1,0,0:0:0:0:
128,144,563224,1,0,0:0:0:0:
112,144,563320,1,0,0:0:0:0:
64,208,563417,1,0,0:0:0:0:
64,224,563514,1,0,0:0:0:0:
64,240,563611,1,0,0:0:0:0:
64,256,563708,1,0,0:0:0:0:
64,272,563804,1,0,0:0:0:0:
64,288,563901,1,0,0:0:0:0:
64,384,564095,1,0,0:0:0:0:
128,336,564191,5,0,0:0:0:0:
144,336,564288,1,0,0:0:0:0:
160,336,564385,1,0,0:0:0:0:
176,336,564481,1,0,0:0:0:0:
224,272,564578,1,0,0:0:0:0:
240,272,564675,1,0,0:0:0:0:
256,272,564772,1,0,0:0:0:0:
272,272,564868,1,0,0:0:0:0:
320,208,564965,1,0,0:0:0:0:
320,192,565062,1,0,0:0:0:0:
320,176,565159,6,0,L|368:176,1,40,4|0,1:0|0:0,0:0:0:0:
432,320,565352,2,0,L|384:320,1,40,4|0,1:0|0:0,0:0:0:0:
384,80,565546,2,0,L|432:80,1,40,4|0,1:0|0:0,0:0:0:0:
496,224,565739,5,4,1:0:0:0:
480,224,565836,1,0,0:0:0:0:
464,224,565933,1,0,0:0:0:0:
448,224,566030,1,0,0:0:0:0:
384,256,566126,1,0,0:0:0:0:
368,256,566223,1,0,0:0:0:0:
352,256,566320,1,0,0:0:0:0:
336,256,566417,1,0,0:0:0:0:
272,304,566514,1,0,0:0:0:0:
256,304,566610,1,0,0:0:0:0:
240,304,566707,1,0,0:0:0:0:
224,304,566804,1,0,0:0:0:0:
160,352,566901,1,0,0:0:0:0:
144,352,566997,1,0,0:0:0:0:
128,352,567094,1,0,0:0:0:0:
112,352,567191,1,0,0:0:0:0:
48,304,567288,5,0,0:0:0:0:
48,304,567384,1,0,0:0:0:0:
48,304,567481,1,0,0:0:0:0:
48,304,567578,1,0,0:0:0:0:
112,240,567675,1,0,0:0:0:0:
112,240,567772,1,0,0:0:0:0:
112,240,567868,1,0,0:0:0:0:
112,240,567965,1,0,0:0:0:0:
176,176,568062,1,0,0:0:0:0:
176,176,568159,1,0,0:0:0:0:
176,176,568255,1,0,0:0:0:0:
176,176,568352,1,0,0:0:0:0:
240,112,568449,1,0,0:0:0:0:
240,112,568546,1,0,0:0:0:0:
240,112,568642,1,0,0:0:0:0:
240,112,568739,1,0,0:0:0:0:
304,48,568836,6,0,L|352:48,1,40,0|0,1:0|0:0,0:0:0:0:
344,48,569030,6,0,L|304:48,1,40,0|0,1:0|0:0,0:0:0:0:
304,48,569223,6,0,L|352:48,1,40,0|0,1:0|0:0,0:0:0:0:
344,48,569417,6,0,L|304:48,1,40,0|0,1:0|0:0,0:0:0:0:
304,48,569610,6,0,L|264:48,1,40,0|0,1:0|0:0,0:0:0:0:
344,48,569803,6,0,L|384:48,1,40,0|0,1:0|0:0,0:0:0:0:
304,48,569997,6,0,L|264:48,1,40,0|0,1:0|0:0,0:0:0:0:
344,48,570190,5,0,1:0:0:0:
384,48,570288,2,0,L|424:48,1,40,0|0,1:0|0:0,0:0:0:0:
496,144,570481,5,0,1:0:0:0:
432,144,570578,1,0,1:0:0:0:
368,144,570676,2,0,L|328:144,1,40,0|0,1:0|0:0,0:0:0:0:
416,240,570868,5,0,1:0:0:0:
352,240,570965,1,0,1:0:0:0:
288,240,571063,2,0,L|248:240,1,40,0|0,1:0|0:0,0:0:0:0:
336,336,571255,6,0,L|296:336,1,40,0|0,1:0|0:0,0:0:0:0:
224,336,571449,2,0,L|184:336,1,40,0|0,1:0|0:0,0:0:0:0:
112,336,571642,2,0,L|72:336,1,40,0|0,1:0|0:0,0:0:0:0:
0,336,571836,1,0,1:0:0:0:
16,192,571933,5,4,1:0:0:0:
96,192,572320,1,0,1:0:0:0:
176,192,572707,1,0,1:0:0:0:
256,192,573094,1,0,1:0:0:0:
336,192,573481,1,0,0:0:0:0:
416,192,573868,1,0,0:0:0:0:
496,192,574255,1,0,0:0:0:0:
16,192,574642,5,0,0:0:0:0:
136,192,574739,1,0,2:0:0:0:
256,192,574836,1,2,2:0:0:0:
376,192,574933,1,0,2:0:0:0:
496,192,575029,5,4,1:0:0:0:
416,192,575416,1,0,1:0:0:0:
336,192,575803,1,0,1:0:0:0:
256,192,576190,1,0,1:0:0:0:
176,192,576577,1,0,0:0:0:0:
96,192,576964,1,0,0:0:0:0:
16,192,577351,1,0,0:0:0:0:
496,192,577739,5,0,0:0:0:0:
376,176,577836,1,0,2:0:0:0:
256,208,577933,1,0,1:0:0:0:
136,176,578030,1,0,2:0:0:0:
16,192,578126,5,4,0:0:0:0:
74,272,578513,1,0,0:0:0:0:
158,325,578900,1,0,0:0:0:0:
256,343,579287,1,0,0:0:0:0:
353,325,579674,1,0,0:0:0:0:
437,271,580061,1,0,0:0:0:0:
496,191,580448,1,0,0:0:0:0:
16,192,580835,5,0,0:0:0:0:
136,136,580932,1,0,2:0:0:0:
256,192,581029,1,0,1:0:0:0:
376,136,581126,1,0,2:0:0:0:
496,192,581223,5,4,0:0:0:0:
437,272,581610,1,0,0:0:0:0:
353,325,581997,1,0,0:0:0:0:
256,312,582384,1,0,0:0:0:0:
256,224,582577,1,0,1:0:0:0:
158,325,582771,5,4,0:0:0:0:
256,224,582964,1,0,0:0:0:0:
74,271,583158,1,4,0:0:0:0:
256,224,583352,1,0,0:0:0:0:
15,191,583545,1,4,0:0:0:0:
256,224,583739,1,0,0:0:0:0:
216,104,583932,5,4,0:0:0:0:
256,224,584029,1,0,0:0:0:0:
296,104,584126,1,0,0:0:0:0:
192,176,584222,1,0,0:0:0:0:
320,176,584319,1,4,0:0:0:0:
320,176,584706,1,4,0:0:0:0:
448,320,585093,6,0,P|416:336|384:336,1,40,0|0,0:0|2:0,0:0:0:0:
288,96,585287,1,2,2:0:0:0:
288,96,585384,1,0,2:0:0:0:
288,96,585480,2,0,P|256:80|224:80,1,40,0|0,0:0|2:0,0:0:0:0:
144,256,585674,1,2,2:0:0:0:
144,256,585771,1,0,2:0:0:0:
144,256,585868,1,0,0:0:0:0:
65,271,586061,6,2,L|144:256,1,80,2|0,0:0|0:0,0:0:0:0:
208,320,586642,6,0,P|240:336|272:336,1,40,0|0,0:0|2:0,0:0:0:0:
368,96,586835,2,0,P|400:80|432:80,1,40,2|0,2:0|2:0,0:0:0:0:
508,288,587029,5,0,0:0:0:0:
496,284,587126,1,0,0:0:0:0:
484,280,587223,1,0,0:0:0:0:
472,276,587320,1,0,0:0:0:0:
320,224,587416,1,4,0:0:0:0:
320,224,587803,1,4,0:0:0:0:
64,48,588190,6,0,P|48:80|48:112,1,40,0|0,0:0|2:0,0:0:0:0:
240,160,588384,1,2,2:0:0:0:
240,160,588481,1,0,2:0:0:0:
240,160,588577,2,0,P|256:192|256:224,1,40,0|0,0:0|2:0,0:0:0:0:
32,304,588771,1,2,2:0:0:0:
32,304,588868,1,0,2:0:0:0:
32,304,588965,1,0,0:0:0:0:
16,382,589158,6,2,L|32:304,1,80,2|0,0:0|0:0,0:0:0:0:
32,304,589545,1,0,0:0:0:0:
160,336,589738,2,0,P|192:336|224:320,1,40,0|0,0:0|2:0,0:0:0:0:
272,224,589932,2,0,P|280:200|280:160,1,40,2|0,2:0|2:0,0:0:0:0:
200,40,590125,5,0,0:0:0:0:
192,112,590222,1,0,0:0:0:0:
208,48,590319,5,0,0:0:0:0:
200,120,590416,1,0,0:0:0:0:
128,0,590512,5,4,0:0:0:0:
128,0,590900,1,4,0:0:0:0:
80,248,591287,2,0,L|128:240,1,40,0|0,0:0|2:0,0:0:0:0:
208,288,591480,1,2,2:0:0:0:
0,233,591674,2,2,L|120:241,1,120.000004577637,2|0,0:0|0:0,0:0:0:0:
224,376,591964,1,0,0:0:0:0:
224,376,592061,1,0,0:0:0:0:
280,192,592254,6,0,L|272:144,1,40,2|0,2:0|2:0,0:0:0:0:
272,208,592641,2,0,P|296:216|320:216,1,40,0|0,0:0|2:0,0:0:0:0:
190,223,592835,2,2,L|310:216,1,120.000004577637
424,248,593222,5,0,0:0:0:0:
443,246,593318,1,0,0:0:0:0:
463,245,593415,1,0,0:0:0:0:
483,244,593512,1,0,0:0:0:0:
384,176,593609,5,4,0:0:0:0:
384,320,593803,1,0,0:0:0:0:
240,176,593996,1,4,0:0:0:0:
240,320,594190,1,0,0:0:0:0:
304,96,594383,5,4,0:0:0:0:
304,240,594577,1,0,0:0:0:0:
160,96,594770,1,4,0:0:0:0:
160,240,594964,1,0,0:0:0:0:
144,160,595061,1,4,0:0:0:0:
64,336,595254,5,0,0:0:0:0:
48,256,595351,1,4,0:0:0:0:
64,336,595448,1,0,0:0:0:0:
240,288,595641,5,0,0:0:0:0:
224,208,595738,1,4,0:0:0:0:
240,288,595835,1,0,0:0:0:0:
432,240,596609,5,0,0:0:0:0:
448,128,596706,2,0,L|320:128,1,120.000004577637,4|0,0:0|0:0,0:0:0:0:
368,192,597093,2,0,L|240:192,1,120.000004577637,4|0,0:0|0:0,0:0:0:0:
304,256,597480,2,0,L|176:256,1,120.000004577637,4|0,0:0|0:0,0:0:0:0:
224,320,597867,2,0,L|96:320,1,120.000004577637,4|0,0:0|0:0,0:0:0:0:
224,320,598254,6,0,L|352:320,1,120.000004577637,4|0,0:0|0:0,0:0:0:0:
144,256,598641,2,0,L|272:256,1,120.000004577637,4|0,0:0|0:0,0:0:0:0:
64,192,599028,2,0,L|192:192,1,120.000004577637,4|0,0:0|0:0,0:0:0:0:
0,128,599415,1,4,0:0:0:0:
256,128,599706,5,0,0:0:0:0:
256,128,599802,2,0,L|256:0,1,120.000004577637,4|0,0:0|0:0,0:0:0:0:
320,192,600189,2,0,L|448:192,1,120.000004577637,4|0,0:0|0:0,0:0:0:0:
256,256,600577,2,0,L|256:384,1,120.000004577637,4|0,0:0|0:0,0:0:0:0:
192,192,600964,2,0,L|64:192,1,120.000004577637,4|0,0:0|0:0,0:0:0:0:
301,146,601351,6,0,L|391:56,1,120.000004577637,4|0,0:0|0:0,0:0:0:0:
301,237,601738,2,0,L|391:327,1,120.000004577637,4|0,0:0|0:0,0:0:0:0:
210,237,602126,2,0,L|120:327,1,120.000004577637,4|0,0:0|0:0,0:0:0:0:
210,146,602512,1,4,0:0:0:0:
152,92,602706,1,0,0:0:0:0:
92,36,602899,6,0,P|64:96|80:160,1,120.000004577637,4|0,0:0|0:0,0:0:0:0:
144,192,603286,2,0,P|172:252|156:316,1,120.000004577637,4|0,0:0|0:0,0:0:0:0:
80,320,603673,6,0,P|140:292|204:308,1,120.000004577637,4|0,0:0|0:0,0:0:0:0:
256,352,604060,2,0,P|316:380|380:364,1,120.000004577637,4|0,0:0|0:0,0:0:0:0:
432,320,604447,6,0,L|448:192,1,120.000004577637,4|0,0:0|0:0,0:0:0:0:
400,128,604834,2,0,L|416:0,1,120.000004577637,4|0,0:0|0:0,0:0:0:0:
480,64,605222,6,0,P|420:92|356:76,1,120.000004577637,4|0,0:0|0:0,0:0:0:0:
304,32,605609,2,0,L|176:16,1,120.000004577637,4|0,0:0|0:0,0:0:0:0:
48,160,605899,5,0,0:0:0:0:
48,160,605996,2,0,L|64:32,1,120.000004577637,4|0,0:0|0:0,0:0:0:0:
144,240,606383,2,0,L|137:111,1,120.000004577637,4|0,0:0|0:0,0:0:0:0:
256,304,606770,2,0,L|227:178,1,120.000004577637,4|0,0:0|0:0,0:0:0:0:
373,346,607157,2,0,L|322:227,1,120.000004577637,4|0,0:0|0:0,0:0:0:0:
480,352,607447,5,0,0:0:0:0:
480,352,607544,1,4,0:0:0:0:
480,272,607738,1,0,0:0:0:0:
480,192,607931,1,4,0:0:0:0:
480,112,608125,1,0,0:0:0:0:
384,384,608318,5,4,0:0:0:0:
384,304,608512,1,0,0:0:0:0:
384,256,608608,1,0,0:0:0:0:
384,208,608705,1,4,0:0:0:0:
384,160,608802,1,0,0:0:0:0:
384,112,608899,1,0,0:0:0:0:
384,64,608995,1,0,0:0:0:0:
384,16,609092,6,0,L|320:16,1,60.0000022888184,4|0,0:0|2:0,0:0:0:0:
256,16,609286,2,0,L|192:16,1,60.0000022888184,0|0,0:0|2:0,0:0:0:0:
196,16,609479,2,0,L|132:16,1,60.0000022888184,4|0,0:0|2:0,0:0:0:0:
68,16,609673,2,0,L|4:16,1,60.0000022888184,0|0,0:0|2:0,0:0:0:0:
68,16,609866,6,0,L|132:16,1,60.0000022888184,4|0,0:0|2:0,0:0:0:0:
196,16,610060,2,0,L|260:16,1,60.0000022888184,0|0,0:0|2:0,0:0:0:0:
256,16,610253,2,0,L|320:16,1,60.0000022888184,4|0,0:0|2:0,0:0:0:0:
384,16,610447,2,0,L|448:16,1,60.0000022888184,0|0,0:0|2:0,0:0:0:0:
512,16,610641,6,0,L|448:16,1,60.0000022888184,4|0,0:0|2:0,0:0:0:0:
316,16,610834,2,0,L|380:16,1,60.0000022888184,0|0,0:0|2:0,0:0:0:0:
448,16,611028,2,0,L|384:16,1,60.0000022888184,4|0,0:0|2:0,0:0:0:0:
256,16,611221,2,0,L|320:16,1,60.0000022888184,0|0,0:0|2:0,0:0:0:0:
256,16,611415,6,0,L|192:16,1,60.0000022888184,4|0,0:0|2:0,0:0:0:0:
128,16,611608,2,0,L|64:16,1,60.0000022888184,0|0,0:0|2:0,0:0:0:0:
0,16,611802,1,4,0:0:0:0:
0,384,612092,5,0,0:0:0:0:
0,384,612189,2,0,L|64:384,1,60.0000022888184,4|0,0:0|2:0,0:0:0:0:
256,384,612383,2,0,L|192:384,1,60.0000022888184,0|0,0:0|2:0,0:0:0:0:
0,320,612576,2,0,L|64:320,1,60.0000022888184,4|0,0:0|2:0,0:0:0:0:
256,320,612770,2,0,L|192:320,1,60.0000022888184,0|0,0:0|2:0,0:0:0:0:
196,384,612963,6,0,L|256:384,1,60.0000022888184,4|0,0:0|2:0,0:0:0:0:
60,384,613157,2,0,L|0:384,1,60.0000022888184,0|0,0:0|2:0,0:0:0:0:
196,320,613350,2,0,L|256:320,1,60.0000022888184,4|0,0:0|2:0,0:0:0:0:
60,320,613544,2,0,L|0:320,1,60.0000022888184,0|0,0:0|2:0,0:0:0:0:
256,384,613737,6,0,L|320:384,1,60.0000022888184,4|0,0:0|2:0,0:0:0:0:
316,320,613931,2,0,L|256:320,1,60.0000022888184,0|0,0:0|2:0,0:0:0:0:
452,384,614124,2,0,L|512:384,1,60.0000022888184,4|0,0:0|2:0,0:0:0:0:
512,320,614318,2,0,L|448:320,1,60.0000022888184,0|0,0:0|2:0,0:0:0:0:
316,384,614511,6,0,L|256:384,1,60.0000022888184,4|0,0:0|2:0,0:0:0:0:
452,320,614705,2,0,L|512:320,1,60.0000022888184,0|0,0:0|2:0,0:0:0:0:
320,240,614899,5,4,0:0:0:0:
320,168,614995,1,0,0:0:0:0:
256,132,615092,1,0,0:0:0:0:
192,168,615189,1,0,0:0:0:0:
192,240,615286,1,4,0:0:0:0:
256,48,615479,5,0,0:0:0:0:
256,276,615673,2,0,L|256:336,1,60.0000022888184,4|0,0:0|2:0,0:0:0:0:
48,276,615866,2,0,L|48:336,1,60.0000022888184,0|0,0:0|2:0,0:0:0:0:
256,144,616060,6,0,L|256:204,1,60.0000022888184,4|0,0:0|2:0,0:0:0:0:
464,144,616253,2,0,L|464:204,1,60.0000022888184,0|0,0:0|2:0,0:0:0:0:
256,16,616447,6,0,L|256:76,1,60.0000022888184,4|0,0:0|2:0,0:0:0:0:
48,16,616640,2,0,L|48:76,1,60.0000022888184,0|0,0:0|2:0,0:0:0:0:
256,76,616834,6,0,L|256:16,1,60.0000022888184,4|0,0:0|2:0,0:0:0:0:
464,76,617027,2,0,L|464:16,1,60.0000022888184,0|0,0:0|2:0,0:0:0:0:
256,204,617221,6,0,L|256:144,1,60.0000022888184,4|0,0:0|2:0,0:0:0:0:
48,204,617415,2,0,L|48:144,1,60.0000022888184,0|0,0:0|2:0,0:0:0:0:
256,336,617608,6,0,L|256:276,1,60.0000022888184,4|0,0:0|2:0,0:0:0:0:
464,336,617801,2,0,L|464:276,1,60.0000022888184,0|0,0:0|2:0,0:0:0:0:
256,192,617995,5,4,0:0:0:0:
256,184,618092,1,0,0:0:0:0:
256,176,618189,1,0,0:0:0:0:
256,168,618285,1,0,0:0:0:0:
256,48,618382,1,4,0:0:0:0:
80,160,618576,5,0,0:0:0:0:
432,160,618769,1,4,0:0:0:0:
256,64,618963,1,0,0:0:0:0:
144,352,619156,5,4,0:0:0:0:
368,352,619350,1,0,0:0:0:0:
256,144,619543,1,4,0:0:0:0:
256,288,619737,1,0,0:0:0:0:
256,296,619834,1,0,0:0:0:0:
256,304,619931,5,4,0:0:0:0:
205,282,620028,1,0,0:0:0:0:
154,304,620125,1,0,0:0:0:0:
105,282,620222,1,0,0:0:0:0:
54,304,620318,5,4,0:0:0:0:
105,282,620415,1,0,0:0:0:0:
154,304,620512,1,0,0:0:0:0:
205,282,620609,1,0,0:0:0:0:
256,304,620705,5,4,0:0:0:0:
305,282,620802,1,0,0:0:0:0:
356,304,620899,1,0,0:0:0:0:
405,282,620996,1,0,0:0:0:0:
456,304,621092,5,4,0:0:0:0:
405,282,621189,1,0,0:0:0:0:
356,304,621286,1,0,0:0:0:0:
208,368,621672,5,0,0:0:0:0:
304,16,621866,1,4,0:0:0:0:
448,272,633865,5,4,2:0:0:0:
432,352,634059,1,0,1:0:0:0:
432,352,634253,1,4,1:0:0:0:
400,208,634446,5,2,0:0:0:0:
400,208,634543,1,0,0:0:0:0:
408,128,634833,1,2,0:0:0:0:
408,128,634930,1,0,0:0:0:0:
416,48,635220,1,2,0:0:0:0:
416,48,635317,1,0,0:0:0:0:
416,48,635414,1,0,0:0:0:0:
336,144,635607,5,2,0:0:0:0:
320,24,635801,1,8,0:0:0:0:
264,160,635994,1,2,0:0:0:0:
224,96,636188,1,0,0:0:0:0:
224,96,636285,1,0,0:0:0:0:
224,96,636381,1,2,0:0:0:0:
264,240,636575,1,8,0:0:0:0:
144,328,636769,1,2,0:0:0:0:
144,328,636865,1,0,0:0:0:0:
48,256,637156,5,2,0:0:0:0:
48,256,637253,1,0,0:0:0:0:
120,264,637543,1,2,0:0:0:0:
120,264,637639,1,0,0:0:0:0:
192,272,637930,1,2,0:0:0:0:
192,272,638027,1,0,0:0:0:0:
264,280,638317,1,2,0:0:0:0:
264,280,638413,1,0,0:0:0:0:
264,280,638510,1,0,0:0:0:0:
184,200,638704,5,2,0:0:0:0:
200,352,638897,1,8,0:0:0:0:
184,200,639091,1,2,0:0:0:0:
168,56,639285,1,0,0:0:0:0:
168,56,639381,1,0,0:0:0:0:
168,56,639478,1,2,0:0:0:0:
184,200,639672,1,8,0:0:0:0:
200,352,639865,1,2,0:0:0:0:
200,352,639962,1,0,0:0:0:0:
120,288,640252,5,2,0:0:0:0:
120,288,640349,1,0,0:0:0:0:
112,208,640639,1,2,0:0:0:0:
112,208,640736,1,0,0:0:0:0:
104,128,641026,1,2,0:0:0:0:
104,128,641123,1,0,0:0:0:0:
96,48,641413,1,2,0:0:0:0:
96,48,641510,1,0,0:0:0:0:
96,48,641607,1,0,0:0:0:0:
32,184,641800,5,2,0:0:0:0:
184,144,641994,1,8,0:0:0:0:
96,232,642187,1,2,0:0:0:0:
144,72,642381,1,0,0:0:0:0:
144,72,642478,1,0,0:0:0:0:
144,72,642574,1,2,0:0:0:0:
208,280,642768,1,8,0:0:0:0:
8,256,642962,1,2,0:0:0:0:
8,256,643058,1,0,0:0:0:0:
248,280,643349,5,2,0:0:0:0:
248,280,643446,1,0,0:0:0:0:
320,272,643735,1,2,0:0:0:0:
320,272,643832,1,0,0:0:0:0:
392,264,644123,1,2,0:0:0:0:
392,264,644219,1,0,0:0:0:0:
464,256,644509,1,2,0:0:0:0:
464,256,644606,1,0,0:0:0:0:
464,256,644704,1,0,0:0:0:0:
384,352,644897,6,0,L|392:272,1,80,2|0,0:0|0:0,0:0:0:0:
312,336,645284,6,0,L|324:212,1,120.000004577637,2|0,0:0|0:0,0:0:0:0:
240,320,645671,6,0,L|256:152,1,160,2|0,1:0|0:0,0:0:0:0:
168,304,646058,6,2,L|192:88,1,200,2|6,1:0|1:0,0:0:0:0:
196,32,646446,5,2,0:0:0:0:
104,64,646542,1,0,0:0:0:0:
188,44,646833,5,2,0:0:0:0:
96,76,646929,1,0,0:0:0:0:
176,56,647220,5,2,0:0:0:0:
84,88,647316,1,0,0:0:0:0:
168,68,647607,5,2,0:0:0:0:
76,100,647703,1,0,0:0:0:0:
240,128,647994,6,0,L|288:120,1,40,2|0,0:0|0:0,0:0:0:0:
352,160,648187,2,0,L|440:168,1,80,0|2,0:0|0:0,0:0:0:0:
431,167,648478,1,0,0:0:0:0:
512,240,648768,6,0,L|464:232,1,40,2|0,0:0|0:0,0:0:0:0:
400,272,648961,2,0,L|312:280,1,80,0|2,0:0|0:0,0:0:0:0:
320,279,649252,1,0,0:0:0:0:
224,352,649542,5,2,0:0:0:0:
132,320,649638,1,0,0:0:0:0:
216,340,649929,5,2,0:0:0:0:
124,308,650025,1,0,0:0:0:0:
204,328,650316,5,2,0:0:0:0:
112,296,650412,1,0,0:0:0:0:
196,316,650703,5,2,0:0:0:0:
104,284,650799,1,0,0:0:0:0:
232,200,651091,5,2,0:0:0:0:
208,296,651188,1,0,0:0:0:0:
128,152,651478,5,2,0:0:0:0:
220,184,651574,1,0,0:0:0:0:
92,268,651866,5,2,0:0:0:0:
116,172,651963,1,0,0:0:0:0:
256,368,652252,5,2,0:0:0:0:
256,368,652349,1,0,0:0:0:0:
256,368,652445,2,0,B|240:304|240:304|280:352|336:344,1,160,4|2,0:0|0:0,0:0:0:0:
376,304,652736,1,0,0:0:0:0:
512,280,653026,1,2,0:0:0:0:
456,238,653123,1,0,0:0:0:0:
264,216,653413,1,2,0:0:0:0:
319,174,653510,1,0,0:0:0:0:
480,136,653800,1,2,0:0:0:0:
424,94,653897,1,0,0:0:0:0:
208,24,654187,5,2,0:0:0:0:
200,96,654284,1,0,0:0:0:0:
192,168,654381,2,0,L|184:72,1,80,8|2,0:0|0:0,0:0:0:0:
184,88,654671,1,0,0:0:0:0:
32,56,654961,5,2,0:0:0:0:
40,128,655058,1,0,0:0:0:0:
48,200,655155,2,0,L|56:104,1,80,8|2,0:0|0:0,0:0:0:0:
56,120,655445,1,0,0:0:0:0:
112,320,655735,5,2,0:0:0:0:
120,248,655832,1,0,0:0:0:0:
240,288,656123,1,2,0:0:0:0:
222,217,656220,1,0,0:0:0:0:
360,232,656510,1,2,0:0:0:0:
319,171,656607,1,0,0:0:0:0:
456,128,656897,1,2,0:0:0:0:
397,85,656994,1,0,0:0:0:0:
152,192,657284,5,2,0:0:0:0:
216,192,657381,1,0,0:0:0:0:
280,192,657477,2,0,L|360:192,1,80,0|2,0:0|0:0,0:0:0:0:
488,192,657768,5,0,0:0:0:0:
424,192,657864,2,0,L|336:192,1,80,0|4,0:0|0:0,0:0:0:0:
128,192,658155,5,0,0:0:0:0:
192,192,658251,2,0,L|280:192,1,80,0|4,0:0|0:0,0:0:0:0:
0,192,658639,5,4,1:0:0:0:
