osu file format v14

[General]
AudioFilename: audio.mp3
AudioLeadIn: 0
PreviewTime: 77359
Countdown: 0
SampleSet: Normal
StackLeniency: 0.7
Mode: 3
LetterboxInBreaks: 0
SpecialStyle: 0
WidescreenStoryboard: 1

[Editor]
DistanceSpacing: 1.5
BeatDivisor: 4
GridSize: 4
TimelineZoom: 2.1

[Metadata]
Title:Positive (feat. Looci)
TitleUnicode:Positive (feat. Looci)
Artist:Ta9-5
ArtistUnicode:Ta9-5
Creator:Dubstek
Version:Hard
Source:
Tags:Tone Sphere Bit192 Show Me Your World Rhythm Action game Electronic EDM Submission 2019 Future Core English dance music AHHHHHHHHHHHHHH
BeatmapID:2288729
BeatmapSetID:1026168

[Difficulty]
HPDrainRate:7.5
CircleSize:4
OverallDifficulty:7.5
ApproachRate:5
SliderMultiplier:2.99999990463257
SliderTickRate:1

[Events]
//Background and Video events
0,0,"BG.jpg",0,0
//Break Periods
//Storyboard Layer 0 (Background)
//Storyboard Layer 1 (Fail)
//Storyboard Layer 2 (Pass)
//Storyboard Layer 3 (Foreground)
//Storyboard Layer 4 (Overlay)
//Storyboard Sound Samples
Sample,21025,0,"snare1.wav",40
Sample,21359,0,"snare2.wav",40
Sample,21692,0,"snare3.wav",40
Sample,22025,0,"snare3.wav",40
Sample,22359,0,"snare4.wav",40
Sample,22692,0,"Reverse2.ogg",70
Sample,35359,0,"Growl.wav",70
Sample,35609,0,"Growl.wav",70
Sample,35859,0,"Growl.wav",70
Sample,44359,0,"snare2.wav",40
Sample,44692,0,"snare3.wav",40
Sample,45025,0,"snare4.wav",40
Sample,45359,0,"Cymbal2.wav",70
Sample,76025,0,"Reverse2.ogg",70
Sample,88692,0,"Growl.wav",70
Sample,88942,0,"Growl.wav",70
Sample,89192,0,"Growl.wav",70
Sample,90025,0,"Cymbal2.wav",70
Sample,93692,0,"POW.wav",70
Sample,97359,0,"Reverse2.ogg",70
Sample,131359,0,"Growl.wav",70
Sample,131609,0,"Growl.wav",70
Sample,131859,0,"Growl.wav",70
Sample,140359,0,"snare2.wav",40
Sample,140692,0,"snare3.wav",40
Sample,141025,0,"snare4.wav",40

[TimingPoints]
26,333.333333333333,4,1,1,60,1,0
35359,-100,4,1,1,60,0,1
45359,-100,4,1,1,60,0,0
77359,-100,4,1,1,60,0,1
97359,-100,4,1,1,60,0,0
131359,-100,4,1,1,60,0,1
141359,-100,4,1,1,60,0,0

[HitObjects]
448,192,359,128,0,2692:0:0:0:0:
64,192,2692,1,0,0:0:0:30:Finish.wav
320,192,2692,128,2,3359:0:0:0:0:
448,192,3025,1,8,0:0:0:0:
192,192,3359,128,0,4025:0:0:0:0:
320,192,3692,1,8,0:0:0:0:
448,192,4025,128,0,4692:0:0:0:0:
64,192,4359,1,8,0:0:0:0:
192,192,4692,128,0,5025:0:0:0:0:
320,192,5025,1,8,0:0:0:0:
192,192,5192,1,0,0:0:0:0:
448,192,5359,128,0,6359:0:0:0:0:
64,192,5692,1,8,0:0:0:0:
192,192,5859,1,0,0:0:0:0:
320,192,6025,1,0,0:0:0:0:
192,192,6192,1,0,0:0:0:0:
320,192,6359,128,8,6692:0:0:0:0:
192,192,6525,1,0,0:0:0:0:
448,192,6692,1,0,0:0:0:0:
64,192,6692,1,0,0:0:0:0:
448,192,7025,128,0,7359:0:0:0:0:
192,192,7025,1,8,0:0:0:0:
320,192,7192,1,0,0:0:0:0:
192,192,7359,128,0,7692:0:0:0:0:
64,192,7525,1,0,0:0:0:0:
320,192,7692,128,8,8025:0:0:0:0:
192,192,7859,1,0,0:0:0:0:
64,192,8025,1,0,0:0:0:0:
448,192,8025,1,0,0:0:0:0:
448,192,8359,1,0,0:0:0:0:
192,192,8359,1,8,0:0:0:0:
320,192,8525,128,0,8692:0:0:0:0:
192,192,8692,128,0,8859:0:0:0:0:
320,192,8859,1,0,0:0:0:0:
64,192,9025,1,8,0:0:0:0:
448,192,9025,1,0,0:0:0:0:
192,192,9192,1,0,0:0:0:0:
320,192,9359,128,0,9525:0:0:0:0:
192,192,9525,1,0,0:0:0:0:
448,192,9692,1,8,0:0:0:0:
64,192,9692,1,0,0:0:0:0:
320,192,9859,128,0,10025:0:0:0:0:
192,192,10025,128,0,10192:0:0:0:0:
320,192,10192,1,0,0:0:0:0:
64,192,10359,1,0,0:0:0:0:
448,192,10359,1,8,0:0:0:0:
192,192,10525,1,0,0:0:0:0:
320,192,10692,1,0,0:0:0:0:
64,192,10859,1,0,0:0:0:0:
448,192,11025,1,0,0:0:0:0:
192,192,11025,1,8,0:0:0:0:
320,192,11192,128,0,11359:0:0:0:0:
192,192,11359,128,0,11525:0:0:0:0:
448,192,11525,1,0,0:0:0:0:
64,192,11692,1,0,0:0:0:0:
320,192,11692,1,8,0:0:0:0:
192,192,11859,128,0,12025:0:0:0:0:
320,192,12025,128,0,12192:0:0:0:0:
192,192,12192,1,0,0:0:0:0:
448,192,12359,128,0,12692:0:0:0:0:
64,192,12359,1,8,0:0:0:0:
192,192,12525,1,0,0:0:0:0:
320,192,12692,128,0,13025:0:0:0:0:
192,192,12859,1,0,0:0:0:0:
64,192,13025,128,8,13359:0:0:0:0:
448,192,13025,1,0,0:0:0:0:
448,192,13359,1,2,0:0:0:0:
192,192,13359,1,0,0:0:0:0:
192,192,13525,1,0,0:0:0:0:
64,192,13692,1,0,0:0:0:0:
320,192,13692,1,8,0:0:0:0:
192,192,13859,1,0,0:0:0:0:
320,192,13942,1,0,0:0:0:0:
448,192,14025,1,2,0:0:0:0:
64,192,14025,1,0,0:0:0:0:
192,192,14275,1,0,0:0:0:0:
448,192,14359,1,8,0:0:0:0:
320,192,14359,1,0,0:0:0:0:
64,192,14525,1,0,0:0:0:0:
192,192,14692,1,2,0:0:0:0:
448,192,14692,1,0,0:0:0:0:
448,192,14859,1,0,0:0:0:0:
64,192,15025,1,8,0:0:0:0:
192,192,15025,1,0,0:0:0:0:
320,192,15192,1,0,0:0:0:0:
192,192,15275,1,0,0:0:0:0:
64,192,15359,1,0,0:0:0:0:
448,192,15359,1,2,0:0:0:0:
192,192,15609,1,0,0:0:0:0:
320,192,15692,1,0,0:0:0:0:
448,192,15692,1,8,0:0:0:0:
192,192,15859,1,0,0:0:0:0:
64,192,16025,1,0,0:0:0:0:
320,192,16025,1,2,0:0:0:0:
320,192,16192,1,0,0:0:0:0:
64,192,16359,1,0,0:0:0:0:
448,192,16359,1,8,0:0:0:0:
192,192,16525,1,0,0:0:0:0:
448,192,16692,1,0,0:0:0:0:
320,192,16692,1,2,0:0:0:0:
192,192,16942,1,0,0:0:0:0:
64,192,17025,1,0,0:0:0:0:
448,192,17025,1,8,0:0:0:0:
320,192,17192,1,0,0:0:0:0:
192,192,17359,1,0,0:0:0:0:
64,192,17359,1,2,0:0:0:0:
192,192,17525,1,0,0:0:0:0:
64,192,17692,1,0,0:0:0:0:
448,192,17692,1,8,0:0:0:0:
192,192,17859,1,0,0:0:0:0:
320,192,18025,1,2,0:0:0:0:
448,192,18025,1,0,0:0:0:0:
64,192,18109,1,8,0:0:0:0:
192,192,18275,1,8,0:0:0:0:
320,192,18359,1,2,0:0:0:0:
448,192,18359,1,0,0:0:0:0:
64,192,18525,128,8,18692:0:0:0:0:
448,192,18692,1,0,0:0:0:0:
192,192,18692,1,2,0:0:0:0:
64,192,19025,1,2,0:0:0:0:
320,192,19025,1,8,0:0:0:0:
64,192,19192,128,0,19359:0:0:0:0:
192,192,19359,1,8,0:0:0:0:
448,192,19359,1,2,0:0:0:0:
192,192,19609,1,0,0:0:0:0:
448,192,19692,1,8,0:0:0:0:
320,192,19692,1,2,0:0:0:0:
64,192,19859,128,0,20025:0:0:0:0:
448,192,20025,1,8,0:0:0:0:
192,192,20025,1,2,0:0:0:0:
320,192,20192,1,0,0:0:0:40:snare1.wav
192,192,20275,1,0,0:0:0:40:snare1.wav
64,192,20359,1,0,0:0:0:40:snare1.wav
448,192,20359,1,10,0:0:0:0:
192,192,20525,1,0,0:0:0:40:snare1.wav
320,192,20609,1,0,0:0:0:40:snare1.wav
64,192,20692,1,0,0:0:0:40:snare1.wav
448,192,20692,1,10,0:0:0:0:
320,192,20859,1,0,0:0:0:40:snare1.wav
192,192,20942,1,0,0:0:0:40:snare1.wav
448,192,21025,1,10,0:0:0:0:
320,192,21109,1,0,0:0:0:40:snare2.wav
192,192,21192,1,0,0:0:0:40:snare2.wav
320,192,21275,1,0,0:0:0:40:snare2.wav
64,192,21359,1,2,0:0:0:0:
448,192,21442,1,0,0:0:0:40:snare3.wav
320,192,21525,1,0,0:0:0:40:snare3.wav
192,192,21609,1,0,0:0:0:40:snare3.wav
448,192,21692,1,2,0:0:0:0:
64,192,21775,1,0,0:0:0:40:snare3.wav
192,192,21859,1,0,0:0:0:40:snare3.wav
320,192,21942,1,0,0:0:0:40:snare3.wav
64,192,22025,1,2,0:0:0:0:
448,192,22109,1,0,0:0:0:40:snare4.wav
64,192,22192,1,0,0:0:0:40:snare4.wav
192,192,22275,1,0,0:0:0:40:snare4.wav
448,192,22359,1,2,0:0:0:0:
64,192,22442,1,0,0:0:0:40:snare4.wav
448,192,22525,1,0,0:0:0:40:snare4.wav
320,192,22609,1,0,0:0:0:40:snare4.wav
64,192,22692,1,6,0:0:0:0:
192,192,22692,128,0,23359:0:0:0:0:
448,192,23025,128,0,23692:0:0:0:0:
320,192,23359,128,0,24025:0:0:0:0:
192,192,23692,128,0,24025:0:0:0:0:
448,192,24025,1,0,0:0:0:70:POW.wav
64,192,24025,1,4,0:0:0:0:
320,192,24359,128,0,24713:0:0:0:0:
192,192,24713,128,0,25025:0:0:0:0:
64,192,25025,128,0,25359:0:0:0:0:
448,192,25109,1,0,0:0:0:0:
320,192,25192,1,0,0:0:0:0:
192,192,25275,1,0,0:0:0:0:
320,192,25359,1,0,0:0:0:70:POW.wav
448,192,25359,1,4,0:0:0:0:
192,192,25713,128,0,26025:0:0:0:0:
320,192,26025,128,0,26359:0:0:0:0:
448,192,26359,128,0,26609:0:0:0:0:
64,192,26442,1,0,0:0:0:0:
192,192,26525,1,0,0:0:0:0:
320,192,26609,1,0,0:0:0:0:
448,192,26692,1,0,0:0:0:0:
64,192,26692,1,2,0:0:0:0:
320,192,26859,1,0,0:0:0:0:
192,192,26942,1,0,0:0:0:0:
320,192,27025,1,0,0:0:0:0:
64,192,27109,1,0,0:0:0:0:
320,192,27192,1,0,0:0:0:0:
448,192,27275,1,0,0:0:0:0:
64,192,27359,1,0,0:0:0:0:
192,192,27359,1,2,0:0:0:0:
192,192,27609,1,0,0:0:0:0:
448,192,27609,1,0,0:0:0:0:
64,192,27859,1,0,0:0:0:0:
320,192,27859,1,0,0:0:0:0:
448,192,28025,128,0,28359:0:0:0:0:
192,192,28025,1,2,0:0:0:0:
64,192,28359,128,2,28692:0:0:0:0:
320,192,28692,128,2,29025:0:0:0:0:
192,192,29025,128,2,29359:0:0:0:0:
320,192,29359,1,0,0:0:0:0:
64,192,29359,1,2,0:0:0:0:
192,192,29525,1,0,0:0:0:0:
320,192,29609,1,0,0:0:0:0:
192,192,29692,1,0,0:0:0:0:
448,192,29775,1,0,0:0:0:0:
192,192,29859,1,0,0:0:0:0:
64,192,29942,1,0,0:0:0:0:
448,192,30025,1,2,0:0:0:0:
320,192,30025,1,0,0:0:0:0:
64,192,30275,1,2,0:0:0:0:
320,192,30275,1,0,0:0:0:0:
448,192,30525,1,0,0:0:0:0:
192,192,30525,1,2,0:0:0:0:
448,192,30692,1,2,0:0:0:0:
64,192,30692,1,0,0:0:0:0:
320,192,30859,1,0,0:0:0:0:
64,192,30942,1,0,0:0:0:0:
320,192,31025,1,0,0:0:0:0:
192,192,31109,1,0,0:0:0:0:
320,192,31192,1,0,0:0:0:0:
448,192,31275,1,0,0:0:0:0:
64,192,31359,1,0,0:0:0:0:
192,192,31359,1,2,0:0:0:0:
64,192,31609,1,2,0:0:0:0:
320,192,31609,1,0,0:0:0:0:
192,192,31859,1,0,0:0:0:0:
448,192,31859,1,2,0:0:0:0:
448,192,32025,1,0,0:0:0:0:
64,192,32025,1,2,0:0:0:0:
192,192,32192,1,0,0:0:0:0:
448,192,32275,1,0,0:0:0:0:
192,192,32359,1,0,0:0:0:0:
320,192,32442,1,0,0:0:0:0:
192,192,32525,1,0,0:0:0:0:
64,192,32609,1,0,0:0:0:0:
448,192,32692,1,2,0:0:0:0:
320,192,32692,1,0,0:0:0:0:
192,192,32942,1,2,0:0:0:0:
64,192,32942,1,0,0:0:0:0:
192,192,33192,1,0,0:0:0:0:
320,192,33192,1,2,0:0:0:0:
64,192,33359,1,0,0:0:0:0:
448,192,33359,128,2,33692:0:0:0:0:
320,192,33692,128,2,34025:0:0:0:0:
192,192,34025,128,2,34359:0:0:0:0:
320,192,34359,128,2,34692:0:0:0:0:
192,192,34692,1,2,0:0:0:0:
64,192,34692,1,0,0:0:0:70:POW.wav
192,192,35025,128,0,35109:0:0:0:70:pew.wav
320,192,35109,128,0,35192:0:0:0:70:pew.wav
192,192,35192,128,0,35275:0:0:0:70:pew.wav
320,192,35275,128,0,35359:0:0:0:70:pew.wav
64,192,35359,1,2,0:0:0:0:
448,192,35359,1,0,0:0:0:70:POW.wav
64,192,35609,1,2,0:0:0:0:
448,192,35609,1,0,0:0:0:70:POW.wav
64,192,35859,1,2,0:0:0:0:
448,192,35859,1,0,0:0:0:70:POW.wav
448,192,36025,1,2,0:0:0:0:
320,192,36025,128,4,36359:0:0:0:0:
192,192,36359,128,0,36692:0:0:0:0:
64,192,36692,128,0,36859:0:0:0:70:Growl2.wav
448,192,36692,1,2,0:0:0:0:
320,192,36859,1,0,0:0:0:20:snare5.wav
448,192,36942,128,0,37109:0:0:0:70:Growl2.wav
64,192,36942,1,2,0:0:0:0:
192,192,37109,1,0,0:0:0:20:snare5.wav
320,192,37192,1,2,0:0:0:0:
192,192,37275,1,0,0:0:0:20:snare5.wav
448,192,37359,1,0,0:0:0:0:
64,192,37359,1,2,0:0:0:0:
320,192,37442,1,0,0:0:0:0:
192,192,37525,1,0,0:0:0:0:
320,192,37609,1,0,0:0:0:0:
64,192,37692,1,2,0:0:0:0:
320,192,37775,1,0,0:0:0:0:
192,192,37859,1,0,0:0:0:0:
448,192,37942,1,0,0:0:0:0:
192,192,38025,1,2,0:0:0:0:
64,192,38025,1,0,0:0:0:0:
320,192,38275,1,0,0:0:0:0:
448,192,38359,1,2,0:0:0:0:
64,192,38359,1,0,0:0:0:0:
192,192,38525,1,0,0:0:0:0:
64,192,38525,1,0,0:0:0:0:
320,192,38692,1,2,0:0:0:0:
448,192,38692,128,0,39025:0:0:0:0:
64,192,39025,128,0,39359:0:0:0:0:
192,192,39025,1,2,0:0:0:0:
192,192,39359,128,2,39692:0:0:0:0:
320,192,39359,1,0,0:0:0:0:
64,192,39692,1,2,0:0:0:0:
448,192,39692,128,0,40025:0:0:0:0:
320,192,40025,1,0,0:0:0:70:Cymbal2.wav
64,192,40025,1,2,0:0:0:0:
192,192,40109,1,0,0:0:0:0:
320,192,40192,1,0,0:0:0:0:
192,192,40275,1,0,0:0:0:0:
448,192,40359,1,2,0:0:0:0:
64,192,40442,1,0,0:0:0:0:
448,192,40525,1,0,0:0:0:0:
192,192,40609,1,0,0:0:0:0:
320,192,40692,1,2,0:0:0:0:
448,192,40692,1,0,0:0:0:0:
64,192,40942,1,0,0:0:0:0:
320,192,40942,1,0,0:0:0:0:
448,192,41192,1,0,0:0:0:0:
192,192,41192,1,0,0:0:0:0:
448,192,41359,1,2,0:0:0:0:
64,192,41359,1,0,0:0:0:0:
320,192,41442,1,0,0:0:0:0:
64,192,41525,1,0,0:0:0:0:
320,192,41609,1,0,0:0:0:0:
192,192,41692,1,2,0:0:0:0:
448,192,41775,1,0,0:0:0:0:
192,192,41859,1,0,0:0:0:0:
320,192,41942,1,0,0:0:0:0:
64,192,42025,1,0,0:0:0:0:
448,192,42025,1,2,0:0:0:0:
192,192,42275,1,0,0:0:0:0:
448,192,42275,1,0,0:0:0:0:
320,192,42525,1,0,0:0:0:0:
64,192,42525,1,0,0:0:0:0:
448,192,42692,1,0,0:0:0:0:
64,192,42692,1,2,0:0:0:0:
192,192,42775,1,0,0:0:0:0:
448,192,42859,1,0,0:0:0:0:
192,192,42942,1,0,0:0:0:0:
320,192,43025,1,2,0:0:0:0:
64,192,43109,1,0,0:0:0:0:
320,192,43192,1,0,0:0:0:0:
192,192,43275,1,0,0:0:0:0:
448,192,43359,1,0,0:0:0:0:
64,192,43359,1,2,0:0:0:0:
64,192,43609,1,0,0:0:0:0:
320,192,43609,1,0,0:0:0:0:
192,192,43859,1,0,0:0:0:0:
448,192,43859,1,0,0:0:0:0:
64,192,44025,1,0,0:0:0:40:snare1.wav
448,192,44025,1,2,0:0:0:0:
192,192,44109,1,0,0:0:0:40:snare1.wav
320,192,44192,1,0,0:0:0:40:snare1.wav
64,192,44275,1,0,0:0:0:40:snare1.wav
448,192,44359,1,2,0:0:0:0:
320,192,44442,1,0,0:0:0:40:snare2.wav
192,192,44525,1,0,0:0:0:40:snare2.wav
448,192,44609,1,0,0:0:0:40:snare2.wav
64,192,44692,1,2,0:0:0:0:
320,192,44775,1,0,0:0:0:40:snare3.wav
64,192,44859,1,0,0:0:0:40:snare3.wav
192,192,44942,1,0,0:0:0:40:snare3.wav
448,192,45025,1,2,0:0:0:0:
64,192,45109,1,0,0:0:0:40:snare4.wav
448,192,45192,1,0,0:0:0:40:snare4.wav
320,192,45275,1,0,0:0:0:40:snare4.wav
192,192,45359,1,2,0:0:0:0:
64,192,45359,128,0,46692:0:0:0:30:Finish.wav
192,192,46692,128,0,48025:0:0:0:0:
320,192,48025,128,0,49359:0:0:0:0:
64,192,49359,128,0,49692:0:0:0:0:
448,192,49692,128,0,50025:0:0:0:0:
320,192,50025,128,0,50359:0:0:0:0:
192,192,50359,128,0,50692:0:0:0:0:
64,192,50692,128,0,52025:0:0:0:0:
192,192,52025,128,0,53359:0:0:0:0:
320,192,53359,128,0,54692:0:0:0:0:
192,192,54692,128,0,55025:0:0:0:0:
64,192,55025,128,0,55359:0:0:0:0:
320,192,55359,128,0,55692:0:0:0:0:
448,192,55692,128,0,56025:0:0:0:0:
192,192,56025,1,2,0:0:0:0:
192,192,56192,1,2,0:0:0:0:
64,192,56359,1,0,0:0:0:0:
448,192,56359,1,0,0:0:0:70:snare.wav
192,192,56525,1,0,0:0:0:0:
320,192,56609,1,2,0:0:0:0:
192,192,56692,1,2,0:0:0:0:
448,192,56859,1,2,0:0:0:0:
64,192,57025,1,0,0:0:0:0:
320,192,57025,1,0,0:0:0:70:snare.wav
192,192,57192,1,0,0:0:0:0:
320,192,57359,1,2,0:0:0:0:
64,192,57442,1,0,0:0:0:0:
192,192,57442,1,0,0:0:0:70:snare.wav
320,192,57525,1,2,0:0:0:0:
64,192,57692,1,0,0:0:0:70:snare.wav
448,192,57692,1,0,0:0:0:0:
192,192,57859,1,0,0:0:0:0:
448,192,57942,1,0,0:0:0:70:snare.wav
192,192,58025,1,2,0:0:0:80:
64,192,58109,1,0,0:0:0:0:
448,192,58109,1,0,0:0:0:70:snare.wav
320,192,58192,1,2,0:0:0:0:
192,192,58359,1,0,0:0:0:0:
448,192,58359,1,0,0:0:0:70:snare.wav
64,192,58525,1,2,0:0:0:0:
320,192,58609,1,0,0:0:0:70:snare.wav
448,192,58609,1,0,0:0:0:0:
192,192,58692,1,2,0:0:0:0:
192,192,58859,1,2,0:0:0:0:
448,192,59025,1,0,0:0:0:70:snare.wav
64,192,59025,1,0,0:0:0:0:
320,192,59192,1,0,0:0:0:0:
192,192,59275,1,2,0:0:0:0:
448,192,59359,1,2,0:0:0:0:
192,192,59525,1,2,0:0:0:0:
448,192,59692,1,0,0:0:0:0:
64,192,59692,1,0,0:0:0:70:snare.wav
320,192,59859,1,0,0:0:0:0:
192,192,60025,1,2,0:0:0:0:
448,192,60109,1,0,0:0:0:70:snare.wav
320,192,60109,1,0,0:0:0:0:
192,192,60192,1,2,0:0:0:0:
64,192,60359,1,0,0:0:0:0:
448,192,60359,1,0,0:0:0:70:snare.wav
192,192,60525,1,0,0:0:0:0:
320,192,60609,1,0,0:0:0:70:snare.wav
64,192,60692,1,2,0:0:0:80:
320,192,60775,1,0,0:0:0:70:snare.wav
192,192,60859,1,2,0:0:0:0:
448,192,61025,1,0,0:0:0:70:snare.wav
64,192,61025,1,0,0:0:0:0:
448,192,61192,1,2,0:0:0:0:
192,192,61275,1,0,0:0:0:70:snare.wav
64,192,61275,1,0,0:0:0:0:
320,192,61359,1,2,0:0:0:0:
320,192,61525,1,0,0:0:0:0:
448,192,61692,1,0,0:0:0:70:snare.wav
64,192,61692,1,0,0:0:0:0:
192,192,61859,1,0,0:0:0:0:
320,192,62025,1,2,0:0:0:0:
192,192,62192,1,2,0:0:0:0:
448,192,62359,1,0,0:0:0:0:
64,192,62359,1,0,0:0:0:70:snare.wav
320,192,62525,1,0,0:0:0:0:
192,192,62692,1,2,0:0:0:0:
192,192,62859,1,2,0:0:0:0:
320,192,63025,1,0,0:0:0:70:snare.wav
64,192,63025,1,0,0:0:0:0:
192,192,63192,1,0,0:0:0:0:
448,192,63275,1,0,0:0:0:70:snare.wav
192,192,63359,1,2,0:0:0:80:
448,192,63442,1,0,0:0:0:70:snare.wav
320,192,63525,1,2,0:0:0:0:
192,192,63692,1,0,0:0:0:0:
448,192,63692,1,0,0:0:0:70:snare.wav
320,192,63859,1,0,0:0:0:0:
192,192,64025,1,2,0:0:0:0:
192,192,64192,1,2,0:0:0:0:
448,192,64359,1,0,0:0:0:0:
320,192,64359,1,0,0:0:0:70:snare.wav
64,192,64525,1,0,0:0:0:0:
448,192,64609,1,2,0:0:0:0:
192,192,64692,1,2,0:0:0:0:
320,192,64859,1,2,0:0:0:0:
448,192,65025,1,0,0:0:0:70:snare.wav
64,192,65025,1,0,0:0:0:0:
192,192,65192,1,0,0:0:0:0:
320,192,65359,1,2,0:0:0:0:
192,192,65442,1,0,0:0:0:70:snare.wav
64,192,65442,1,0,0:0:0:0:
320,192,65525,1,2,0:0:0:0:
64,192,65692,1,0,0:0:0:70:snare.wav
448,192,65692,1,0,0:0:0:0:
320,192,65859,1,0,0:0:0:0:
192,192,65942,1,0,0:0:0:70:snare.wav
448,192,66025,1,0,0:0:0:0:
192,192,66109,1,0,0:0:0:70:snare.wav
320,192,66192,1,2,0:0:0:0:
64,192,66359,1,0,0:0:0:70:snare.wav
448,192,66359,1,0,0:0:0:0:
192,192,66525,1,2,0:0:0:0:
448,192,66609,1,0,0:0:0:70:snare.wav
192,192,66692,1,2,0:0:0:0:
64,192,66692,1,8,0:0:0:0:
320,192,66859,1,0,0:0:0:0:
192,192,67025,1,2,0:0:0:0:
448,192,67025,1,8,0:0:0:0:
64,192,67192,1,0,0:0:0:0:
448,192,67359,1,8,0:0:0:0:
320,192,67359,1,2,0:0:0:0:
192,192,67525,1,2,0:0:0:0:
448,192,67692,1,8,0:0:0:0:
64,192,67692,128,2,68025:0:0:0:0:
320,192,68025,1,2,0:0:0:0:
448,192,68025,1,8,0:0:0:0:
192,192,68192,1,2,0:0:0:80:
64,192,68359,1,2,0:0:0:0:
448,192,68359,1,8,0:0:0:0:
320,192,68525,1,0,0:0:0:0:
64,192,68692,1,2,0:0:0:0:
192,192,68692,1,8,0:0:0:0:
320,192,68859,1,2,0:0:0:0:
448,192,69025,1,8,0:0:0:0:
192,192,69025,128,2,69359:0:0:0:0:
448,192,69359,1,8,0:0:0:0:
64,192,69359,1,2,0:0:0:0:
320,192,69525,1,2,0:0:0:80:
64,192,69692,1,8,0:0:0:0:
448,192,69692,1,2,0:0:0:0:
192,192,69859,1,0,0:0:0:0:
320,192,70025,1,2,0:0:0:0:
448,192,70025,1,8,0:0:0:0:
192,192,70192,1,0,0:0:0:0:
64,192,70359,1,2,0:0:0:0:
448,192,70359,128,8,70692:0:0:0:0:
320,192,70692,1,8,0:0:0:0:
192,192,70692,1,2,0:0:0:0:
64,192,70859,1,0,0:0:0:0:
320,192,71025,1,2,0:0:0:0:
448,192,71025,1,8,0:0:0:0:
192,192,71192,1,0,0:0:0:0:
320,192,71359,1,8,0:0:0:0:
448,192,71359,1,2,0:0:0:0:
192,192,71525,1,0,0:0:0:0:
320,192,71692,1,2,0:0:0:0:
64,192,71692,128,8,72025:0:0:0:0:
192,192,72025,1,2,0:0:0:0:
448,192,72025,1,8,0:0:0:0:
320,192,72192,1,0,0:0:0:40:snare1.wav
64,192,72359,1,2,0:0:0:0:
448,192,72359,1,8,0:0:0:0:
192,192,72525,1,0,0:0:0:40:snare1.wav
320,192,72692,1,2,0:0:0:0:
448,192,72692,1,8,0:0:0:0:
192,192,72859,1,0,0:0:0:40:snare1.wav
64,192,73025,1,2,0:0:0:0:
320,192,73025,1,8,0:0:0:0:
448,192,73192,1,0,0:0:0:40:snare1.wav
192,192,73359,1,2,0:0:0:0:
64,192,73359,1,8,0:0:0:0:
320,192,73525,1,0,0:0:0:40:snare1.wav
192,192,73609,1,0,0:0:0:40:snare1.wav
448,192,73692,1,2,0:0:0:0:
64,192,73692,1,8,0:0:0:0:
192,192,73859,1,0,0:0:0:40:snare2.wav
320,192,73942,1,0,0:0:0:40:snare2.wav
64,192,74025,1,2,0:0:0:0:
448,192,74025,1,8,0:0:0:0:
320,192,74192,1,0,0:0:0:40:snare3.wav
192,192,74275,1,0,0:0:0:40:snare3.wav
64,192,74359,1,2,0:0:0:0:
448,192,74359,1,8,0:0:0:0:
192,192,74525,1,0,0:0:0:40:snare3.wav
320,192,74609,1,0,0:0:0:40:snare3.wav
64,192,74692,1,2,0:0:0:0:
448,192,74692,1,8,0:0:0:0:
192,192,74859,1,0,0:0:0:40:snare2.wav
448,192,74942,1,0,0:0:0:40:snare2.wav
64,192,75025,1,0,0:0:0:40:snare2.wav
320,192,75109,1,0,0:0:0:40:snare2.wav
64,192,75192,1,0,0:0:0:40:snare2.wav
320,192,75275,1,0,0:0:0:40:snare2.wav
192,192,75359,1,0,0:0:0:40:snare3.wav
448,192,75442,1,0,0:0:0:40:snare3.wav
192,192,75525,1,0,0:0:0:40:snare3.wav
448,192,75609,1,0,0:0:0:40:snare3.wav
320,192,75692,1,0,0:0:0:40:snare4.wav
64,192,75775,1,0,0:0:0:40:snare4.wav
320,192,75859,1,0,0:0:0:40:snare4.wav
64,192,75942,1,0,0:0:0:40:snare4.wav
192,192,76025,128,0,76359:0:0:0:0:
320,192,76359,128,0,76692:0:0:0:0:
64,192,76692,128,0,77359:0:0:0:0:
448,192,77025,128,0,77359:0:0:0:0:
192,192,77359,1,2,0:0:0:0:
320,192,77359,1,0,0:0:0:70:POW.wav
192,192,77525,1,0,0:0:0:0:
448,192,77692,1,2,0:0:0:0:
64,192,77692,1,0,0:0:0:0:
320,192,77859,1,0,0:0:0:0:
192,192,77942,1,0,0:0:0:0:
448,192,78025,1,0,0:0:0:70:POW.wav
320,192,78025,1,2,0:0:0:0:
448,192,78275,1,0,0:0:0:70:POW.wav
64,192,78275,1,2,0:0:0:0:
64,192,78525,1,0,0:0:0:70:POW.wav
320,192,78525,1,2,0:0:0:0:
192,192,78692,1,0,0:0:0:0:
448,192,78692,1,2,0:0:0:0:
192,192,78859,1,0,0:0:0:0:
64,192,79025,1,0,0:0:0:0:
448,192,79025,1,2,0:0:0:0:
320,192,79192,1,0,0:0:0:0:
192,192,79275,1,0,0:0:0:0:
64,192,79359,1,0,0:0:0:70:POW.wav
320,192,79359,1,2,0:0:0:0:
64,192,79609,1,0,0:0:0:70:POW.wav
448,192,79609,1,2,0:0:0:0:
192,192,79859,1,2,0:0:0:0:
448,192,79859,1,0,0:0:0:70:POW.wav
64,192,80025,1,2,0:0:0:0:
320,192,80025,1,0,0:0:0:0:
320,192,80192,1,0,0:0:0:0:
64,192,80359,1,0,0:0:0:0:
448,192,80359,1,2,0:0:0:0:
192,192,80525,1,0,0:0:0:0:
448,192,80609,1,0,0:0:0:0:
320,192,80692,1,2,0:0:0:0:
64,192,80692,1,0,0:0:0:70:POW.wav
448,192,80942,1,2,0:0:0:0:
64,192,80942,1,0,0:0:0:70:POW.wav
448,192,81192,1,0,0:0:0:70:POW.wav
192,192,81192,1,2,0:0:0:0:
64,192,81359,1,2,0:0:0:0:
320,192,81359,1,0,0:0:0:70:POW.wav
192,192,81525,1,0,0:0:0:0:
320,192,81609,1,0,0:0:0:0:
448,192,81692,1,2,0:0:0:0:
192,192,81692,1,0,0:0:0:70:POW.wav
320,192,81859,1,0,0:0:0:0:
192,192,81942,1,0,0:0:0:0:
320,192,82025,1,0,0:0:0:70:POW.wav
64,192,82025,1,2,0:0:0:0:
64,192,82275,1,0,0:0:0:70:POW.wav
448,192,82275,1,2,0:0:0:0:
448,192,82525,1,2,0:0:0:0:
320,192,82525,1,0,0:0:0:70:POW.wav
192,192,82692,1,0,0:0:0:70:POW.wav
64,192,82692,1,2,0:0:0:0:
64,192,82859,1,0,0:0:0:0:
448,192,83025,1,2,0:0:0:0:
192,192,83025,1,0,0:0:0:0:
320,192,83192,1,0,0:0:0:0:
64,192,83275,1,0,0:0:0:0:
192,192,83359,1,2,0:0:0:0:
448,192,83359,1,0,0:0:0:70:POW.wav
448,192,83609,1,2,0:0:0:0:
64,192,83609,1,0,0:0:0:70:POW.wav
64,192,83859,1,2,0:0:0:0:
192,192,83859,1,0,0:0:0:70:POW.wav
320,192,84025,1,0,0:0:0:0:
448,192,84025,1,2,0:0:0:0:
448,192,84192,1,0,0:0:0:0:
64,192,84359,1,2,0:0:0:0:
320,192,84359,1,0,0:0:0:0:
192,192,84525,1,0,0:0:0:0:
320,192,84609,1,0,0:0:0:0:
192,192,84692,1,0,0:0:0:70:POW.wav
448,192,84692,1,2,0:0:0:0:
448,192,84942,1,2,0:0:0:0:
64,192,84942,1,0,0:0:0:70:POW.wav
448,192,85192,1,2,0:0:0:0:
192,192,85192,1,0,0:0:0:70:POW.wav
320,192,85359,1,2,0:0:0:0:
64,192,85359,1,0,0:0:0:0:
64,192,85525,1,0,0:0:0:0:
448,192,85692,1,2,0:0:0:0:
192,192,85692,1,0,0:0:0:0:
320,192,85859,1,0,0:0:0:0:
64,192,85942,1,0,0:0:0:0:
192,192,86025,1,0,0:0:0:70:POW.wav
448,192,86025,1,2,0:0:0:0:
448,192,86275,1,0,0:0:0:70:POW.wav
64,192,86275,1,2,0:0:0:0:
64,192,86525,1,2,0:0:0:0:
192,192,86525,1,0,0:0:0:70:POW.wav
448,192,86692,1,0,0:0:0:70:POW.wav
320,192,86692,1,2,0:0:0:0:
192,192,86859,1,0,0:0:0:0:
320,192,86942,1,0,0:0:0:0:
192,192,87025,1,0,0:0:0:70:POW.wav
448,192,87025,1,2,0:0:0:0:
320,192,87192,1,0,0:0:0:0:
192,192,87275,1,0,0:0:0:0:
320,192,87359,1,0,0:0:0:70:POW.wav
64,192,87359,1,2,0:0:0:0:
448,192,87609,1,0,0:0:0:70:POW.wav
64,192,87609,1,2,0:0:0:0:
448,192,87859,1,2,0:0:0:0:
320,192,87859,1,0,0:0:0:70:POW.wav
64,192,88025,1,2,0:0:0:0:
192,192,88025,1,0,0:0:0:70:POW.wav
320,192,88359,128,0,88442:0:0:0:70:pew.wav
192,192,88442,128,0,88525:0:0:0:70:pew.wav
320,192,88525,128,0,88609:0:0:0:70:pew.wav
192,192,88609,128,0,88692:0:0:0:70:pew.wav
64,192,88692,1,0,0:0:0:70:POW.wav
448,192,88692,1,2,0:0:0:0:
448,192,88942,1,2,0:0:0:0:
64,192,88942,1,0,0:0:0:70:POW.wav
64,192,89192,1,0,0:0:0:70:POW.wav
448,192,89192,1,2,0:0:0:0:
320,192,89359,128,0,89525:0:0:0:0:
192,192,89525,128,0,89942:0:0:0:0:
320,192,89859,128,0,89942:0:0:0:0:
64,192,90025,1,0,0:0:0:70:POW.wav
448,192,90025,1,2,0:0:0:0:
448,192,90275,1,0,0:0:0:80:
320,192,90525,1,0,0:0:0:0:
192,192,90609,1,0,0:0:0:0:
448,192,90692,128,2,90859:0:0:0:0:
64,192,90692,1,0,0:0:0:0:
192,192,90859,128,0,91025:0:0:0:0:
320,192,91025,1,2,0:0:0:0:
64,192,91109,1,0,0:0:0:0:
320,192,91192,1,0,0:0:0:0:
192,192,91275,1,0,0:0:0:0:
448,192,91359,1,2,0:0:0:0:
64,192,91359,1,0,0:0:0:70:POW.wav
448,192,91609,1,2,0:0:0:0:
192,192,91609,1,0,0:0:0:70:POW.wav
320,192,91859,1,2,0:0:0:0:
192,192,91859,1,0,0:0:0:70:POW.wav
64,192,92025,1,2,0:0:0:0:
448,192,92025,1,0,0:0:0:0:
320,192,92192,1,0,0:0:0:0:
192,192,92275,1,0,0:0:0:0:
320,192,92359,1,0,0:0:0:70:POW.wav
64,192,92359,1,2,0:0:0:0:
192,192,92525,1,0,0:0:0:0:
320,192,92609,1,0,0:0:0:0:
448,192,92692,1,0,0:0:0:70:POW.wav
192,192,92692,1,2,0:0:0:0:
64,192,92942,1,2,0:0:0:0:
448,192,92942,1,0,0:0:0:70:POW.wav
192,192,93192,1,2,0:0:0:0:
64,192,93192,1,0,0:0:0:70:POW.wav
320,192,93359,1,0,0:0:0:0:
448,192,93359,1,2,0:0:0:0:
64,192,93442,1,0,0:0:0:0:
320,192,93525,1,0,0:0:0:0:
192,192,93609,1,0,0:0:0:0:
448,192,93692,1,2,0:0:0:0:
64,192,93775,1,0,0:0:0:0:
320,192,93859,1,0,0:0:0:0:
64,192,93942,1,0,0:0:0:0:
192,192,94025,1,0,0:0:0:70:POW.wav
448,192,94025,1,2,0:0:0:0:
64,192,94275,1,0,0:0:0:70:POW.wav
448,192,94275,1,2,0:0:0:0:
64,192,94525,1,0,0:0:0:70:POW.wav
320,192,94525,1,2,0:0:0:0:
448,192,94692,1,2,0:0:0:0:
192,192,94692,128,0,94775:0:0:0:0:
192,192,94859,128,0,94942:0:0:0:0:
448,192,95025,1,2,0:0:0:0:
64,192,95025,1,0,0:0:0:70:POW.wav
192,192,95192,1,0,0:0:0:0:
448,192,95275,1,0,0:0:0:0:
320,192,95359,1,0,0:0:0:70:POW.wav
64,192,95359,1,2,0:0:0:0:
448,192,95609,1,0,0:0:0:70:POW.wav
64,192,95609,1,2,0:0:0:0:
192,192,95859,1,0,0:0:0:70:POW.wav
448,192,95859,1,2,0:0:0:0:
448,192,96025,1,2,0:0:0:0:
64,192,96025,128,0,96192:0:0:0:0:
320,192,96192,128,0,96359:0:0:0:0:
192,192,96359,1,2,0:0:0:0:
448,192,96359,1,0,0:0:0:0:
320,192,96525,1,0,0:0:0:0:
192,192,96609,1,0,0:0:0:0:
320,192,96692,1,0,0:0:0:70:POW.wav
64,192,96692,1,2,0:0:0:0:
448,192,96942,1,0,0:0:0:70:POW.wav
64,192,96942,1,2,0:0:0:0:
192,192,97192,1,2,0:0:0:0:
448,192,97192,1,0,0:0:0:70:POW.wav
320,192,97359,1,6,0:0:0:0:
192,192,97359,128,0,98692:0:0:0:0:
64,192,97692,128,0,98025:0:0:0:0:
320,192,98025,128,0,98359:0:0:0:0:
448,192,98359,128,0,98692:0:0:0:0:
64,192,98692,128,0,100025:0:0:0:30:Finish.wav
320,192,98692,1,2,0:0:0:0:
448,192,100025,128,0,101359:0:0:0:0:
320,192,101359,128,0,102692:0:0:0:0:
192,192,102692,128,0,103025:0:0:0:0:
448,192,103025,128,0,103359:0:0:0:0:
64,192,103359,128,0,103692:0:0:0:0:
320,192,103692,128,0,104025:0:0:0:0:
192,192,104025,128,0,105359:0:0:0:0:
448,192,105359,128,0,106692:0:0:0:0:
64,192,106692,128,0,109359:0:0:0:0:
320,192,108025,128,0,108359:0:0:0:0:
448,192,108359,128,0,108692:0:0:0:0:
192,192,108692,128,0,109025:0:0:0:0:
320,192,109025,128,0,109359:0:0:0:0:
448,192,109359,1,8,0:0:0:0:
192,192,109359,1,2,0:0:0:0:
448,192,109692,1,8,0:0:0:0:
64,192,109692,1,2,0:0:0:0:
448,192,110025,1,8,0:0:0:0:
192,192,110025,1,2,0:0:0:0:
320,192,110275,1,0,0:0:0:0:
64,192,110359,1,2,0:0:0:0:
192,192,110359,1,8,0:0:0:0:
320,192,110525,128,0,110692:0:0:0:0:
448,192,110692,1,8,0:0:0:0:
192,192,110692,1,2,0:0:0:0:
320,192,111025,1,8,0:0:0:0:
192,192,111025,1,2,0:0:0:0:
192,192,111359,1,2,0:0:0:0:
448,192,111359,1,8,0:0:0:0:
320,192,111609,1,0,0:0:0:0:
64,192,111692,1,2,0:0:0:0:
192,192,111692,1,8,0:0:0:0:
320,192,111859,128,0,112025:0:0:0:0:
192,192,112025,1,8,0:0:0:0:
448,192,112025,1,2,0:0:0:0:
64,192,112359,1,2,0:0:0:0:
448,192,112359,1,8,0:0:0:0:
448,192,112692,1,8,0:0:0:0:
192,192,112692,1,2,0:0:0:0:
64,192,112942,1,0,0:0:0:0:
320,192,113025,1,2,0:0:0:0:
448,192,113025,1,8,0:0:0:0:
192,192,113192,128,0,113359:0:0:0:0:
320,192,113359,128,10,113692:0:0:0:0:
64,192,113692,128,10,114025:0:0:0:0:
320,192,114025,128,10,114359:0:0:0:0:
448,192,114359,128,10,114692:0:0:0:0:
320,192,114692,1,8,0:0:0:0:
192,192,114692,1,2,0:0:0:0:
64,192,115025,1,2,0:0:0:0:
320,192,115025,1,8,0:0:0:0:
192,192,115359,1,2,0:0:0:0:
320,192,115359,1,8,0:0:0:0:
448,192,115609,1,0,0:0:0:0:
192,192,115692,1,8,0:0:0:0:
64,192,115692,1,2,0:0:0:0:
320,192,115859,128,0,116025:0:0:0:0:
64,192,116025,1,8,0:0:0:0:
192,192,116025,1,2,0:0:0:0:
448,192,116359,1,8,0:0:0:0:
64,192,116359,1,2,0:0:0:0:
320,192,116692,1,8,0:0:0:0:
64,192,116692,1,2,0:0:0:0:
448,192,116942,1,0,0:0:0:0:
320,192,117025,1,8,0:0:0:0:
192,192,117025,1,2,0:0:0:0:
448,192,117192,128,0,117359:0:0:0:0:
320,192,117359,1,2,0:0:0:0:
64,192,117359,1,8,0:0:0:0:
448,192,117692,1,2,0:0:0:0:
320,192,117692,1,8,0:0:0:0:
64,192,118025,1,2,0:0:0:0:
320,192,118025,1,8,0:0:0:0:
192,192,118275,1,0,0:0:0:0:
320,192,118359,1,8,0:0:0:0:
448,192,118359,1,2,0:0:0:0:
192,192,118525,128,0,118692:0:0:0:0:
320,192,118692,128,0,119025:0:0:0:0:
64,192,119025,128,0,119359:0:0:0:0:
320,192,119359,128,0,119692:0:0:0:0:
192,192,119692,128,0,120025:0:0:0:0:
64,192,120025,1,4,0:0:0:0:
448,192,120025,1,0,0:0:0:70:POW.wav
192,192,120359,128,0,120713:0:0:0:0:
320,192,120713,128,0,121025:0:0:0:0:
64,192,121025,128,0,121359:0:0:0:0:
448,192,121109,1,0,0:0:0:0:
320,192,121192,1,0,0:0:0:0:
192,192,121275,1,0,0:0:0:0:
320,192,121359,1,0,0:0:0:70:POW.wav
448,192,121359,1,4,0:0:0:0:
192,192,121713,128,0,122025:0:0:0:0:
320,192,122025,128,0,122359:0:0:0:0:
448,192,122359,128,0,122609:0:0:0:0:
64,192,122442,1,0,0:0:0:0:
192,192,122525,1,0,0:0:0:0:
320,192,122609,1,0,0:0:0:0:
448,192,122692,1,0,0:0:0:0:
64,192,122692,1,2,0:0:0:0:
320,192,122859,1,0,0:0:0:0:
192,192,122942,1,0,0:0:0:0:
320,192,123025,1,0,0:0:0:0:
64,192,123109,1,0,0:0:0:0:
320,192,123192,1,0,0:0:0:0:
448,192,123275,1,0,0:0:0:0:
64,192,123359,1,0,0:0:0:0:
192,192,123359,1,2,0:0:0:0:
192,192,123609,1,0,0:0:0:0:
448,192,123609,1,0,0:0:0:0:
64,192,123859,1,0,0:0:0:0:
320,192,123859,1,0,0:0:0:0:
448,192,124025,128,0,124359:0:0:0:0:
192,192,124025,1,2,0:0:0:0:
64,192,124359,128,2,124692:0:0:0:0:
320,192,124692,128,2,125025:0:0:0:0:
192,192,125025,128,2,125359:0:0:0:0:
320,192,125359,1,0,0:0:0:0:
64,192,125359,1,2,0:0:0:0:
192,192,125525,1,0,0:0:0:0:
320,192,125609,1,0,0:0:0:0:
192,192,125692,1,0,0:0:0:0:
448,192,125775,1,0,0:0:0:0:
192,192,125859,1,0,0:0:0:0:
64,192,125942,1,0,0:0:0:0:
448,192,126025,1,2,0:0:0:0:
320,192,126025,1,0,0:0:0:0:
64,192,126275,1,2,0:0:0:0:
320,192,126275,1,0,0:0:0:0:
448,192,126525,1,0,0:0:0:0:
192,192,126525,1,2,0:0:0:0:
448,192,126692,1,2,0:0:0:0:
64,192,126692,1,0,0:0:0:0:
320,192,126859,1,0,0:0:0:0:
64,192,126942,1,0,0:0:0:0:
320,192,127025,1,0,0:0:0:0:
192,192,127109,1,0,0:0:0:0:
320,192,127192,1,0,0:0:0:0:
448,192,127275,1,0,0:0:0:0:
64,192,127359,1,0,0:0:0:0:
192,192,127359,1,2,0:0:0:0:
64,192,127609,1,2,0:0:0:0:
320,192,127609,1,0,0:0:0:0:
192,192,127859,1,0,0:0:0:0:
448,192,127859,1,2,0:0:0:0:
448,192,128025,1,0,0:0:0:0:
64,192,128025,1,2,0:0:0:0:
192,192,128192,1,0,0:0:0:0:
448,192,128275,1,0,0:0:0:0:
192,192,128359,1,0,0:0:0:0:
320,192,128442,1,0,0:0:0:0:
192,192,128525,1,0,0:0:0:0:
64,192,128609,1,0,0:0:0:0:
448,192,128692,1,2,0:0:0:0:
320,192,128692,1,0,0:0:0:0:
192,192,128942,1,2,0:0:0:0:
64,192,128942,1,0,0:0:0:0:
192,192,129192,1,0,0:0:0:0:
320,192,129192,1,2,0:0:0:0:
64,192,129359,1,0,0:0:0:0:
448,192,129359,128,2,129692:0:0:0:0:
320,192,129692,128,2,130025:0:0:0:0:
192,192,130025,128,2,130359:0:0:0:0:
320,192,130359,128,2,130692:0:0:0:0:
192,192,130692,1,2,0:0:0:0:
64,192,130692,1,0,0:0:0:70:POW.wav
192,192,131025,128,0,131109:0:0:0:70:pew.wav
320,192,131109,128,0,131192:0:0:0:70:pew.wav
192,192,131192,128,0,131275:0:0:0:70:pew.wav
320,192,131275,128,0,131359:0:0:0:70:pew.wav
64,192,131359,1,2,0:0:0:0:
448,192,131359,1,0,0:0:0:70:POW.wav
64,192,131609,1,2,0:0:0:0:
448,192,131609,1,0,0:0:0:70:POW.wav
64,192,131859,1,2,0:0:0:0:
448,192,131859,1,0,0:0:0:70:POW.wav
320,192,132025,128,4,132359:0:0:0:0:
448,192,132025,1,2,0:0:0:0:
192,192,132359,128,0,132692:0:0:0:0:
64,192,132692,128,0,132859:0:0:0:70:Growl2.wav
448,192,132692,1,2,0:0:0:0:
320,192,132859,1,0,0:0:0:20:snare5.wav
448,192,132942,128,0,133109:0:0:0:70:Growl2.wav
64,192,132942,1,2,0:0:0:0:
192,192,133109,1,0,0:0:0:20:snare5.wav
320,192,133192,1,2,0:0:0:0:
192,192,133275,1,0,0:0:0:20:snare5.wav
448,192,133359,1,0,0:0:0:0:
64,192,133359,1,2,0:0:0:0:
320,192,133442,1,0,0:0:0:0:
192,192,133525,1,0,0:0:0:0:
320,192,133609,1,0,0:0:0:0:
64,192,133692,1,2,0:0:0:0:
320,192,133775,1,0,0:0:0:0:
192,192,133859,1,0,0:0:0:0:
448,192,133942,1,0,0:0:0:0:
192,192,134025,1,2,0:0:0:0:
64,192,134025,1,0,0:0:0:0:
320,192,134275,1,0,0:0:0:0:
448,192,134359,1,2,0:0:0:0:
64,192,134359,1,0,0:0:0:0:
192,192,134525,1,0,0:0:0:0:
64,192,134525,1,0,0:0:0:0:
320,192,134692,1,2,0:0:0:0:
448,192,134692,128,0,135025:0:0:0:0:
64,192,135025,128,2,135359:0:0:0:0:
320,192,135359,128,2,135692:0:0:0:0:
192,192,135692,128,2,136025:0:0:0:0:
320,192,136025,1,0,0:0:0:70:Cymbal2.wav
64,192,136025,1,2,0:0:0:0:
192,192,136109,1,0,0:0:0:0:
320,192,136192,1,0,0:0:0:0:
192,192,136275,1,0,0:0:0:0:
448,192,136359,1,2,0:0:0:0:
64,192,136442,1,0,0:0:0:0:
448,192,136525,1,0,0:0:0:0:
192,192,136609,1,0,0:0:0:0:
320,192,136692,1,2,0:0:0:0:
448,192,136692,1,0,0:0:0:0:
64,192,136942,1,0,0:0:0:0:
320,192,136942,1,0,0:0:0:0:
448,192,137192,1,0,0:0:0:0:
192,192,137192,1,0,0:0:0:0:
448,192,137359,1,2,0:0:0:0:
64,192,137359,1,0,0:0:0:0:
320,192,137442,1,0,0:0:0:0:
64,192,137525,1,0,0:0:0:0:
320,192,137609,1,0,0:0:0:0:
192,192,137692,1,2,0:0:0:0:
448,192,137775,1,0,0:0:0:0:
192,192,137859,1,0,0:0:0:0:
320,192,137942,1,0,0:0:0:0:
64,192,138025,1,0,0:0:0:0:
448,192,138025,1,2,0:0:0:0:
192,192,138275,1,0,0:0:0:0:
448,192,138275,1,0,0:0:0:0:
320,192,138525,1,0,0:0:0:0:
64,192,138525,1,0,0:0:0:0:
448,192,138692,1,0,0:0:0:0:
64,192,138692,1,2,0:0:0:0:
192,192,138775,1,0,0:0:0:0:
448,192,138859,1,0,0:0:0:0:
192,192,138942,1,0,0:0:0:0:
320,192,139025,1,2,0:0:0:0:
64,192,139109,1,0,0:0:0:0:
320,192,139192,1,0,0:0:0:0:
192,192,139275,1,0,0:0:0:0:
448,192,139359,1,0,0:0:0:0:
64,192,139359,1,2,0:0:0:0:
64,192,139609,1,0,0:0:0:0:
320,192,139609,1,0,0:0:0:0:
192,192,139859,1,0,0:0:0:0:
448,192,139859,1,0,0:0:0:0:
64,192,140025,1,0,0:0:0:40:snare1.wav
448,192,140025,1,2,0:0:0:0:
192,192,140109,1,0,0:0:0:40:snare1.wav
320,192,140192,1,0,0:0:0:40:snare1.wav
64,192,140275,1,0,0:0:0:40:snare1.wav
448,192,140359,1,2,0:0:0:0:
320,192,140442,1,0,0:0:0:40:snare2.wav
192,192,140525,1,0,0:0:0:40:snare2.wav
448,192,140609,1,0,0:0:0:40:snare2.wav
64,192,140692,1,2,0:0:0:0:
320,192,140775,1,0,0:0:0:40:snare3.wav
64,192,140859,1,0,0:0:0:40:snare3.wav
192,192,140942,1,0,0:0:0:40:snare3.wav
448,192,141025,1,2,0:0:0:0:
64,192,141109,1,0,0:0:0:40:snare4.wav
448,192,141192,1,0,0:0:0:40:snare4.wav
320,192,141275,1,0,0:0:0:40:snare4.wav
64,192,141359,128,0,142692:0:0:0:30:Finish.wav
192,192,141359,1,2,0:0:0:0:
320,192,142692,128,0,144025:0:0:0:0:
448,192,144025,128,0,145359:0:0:0:0:
192,192,145359,128,0,145692:0:0:0:0:
448,192,145692,128,0,146025:0:0:0:0:
320,192,146025,128,0,146359:0:0:0:0:
192,192,146359,128,0,146692:0:0:0:0:
64,192,146692,128,0,148025:0:0:0:0:
192,192,148025,128,0,149359:0:0:0:0:
320,192,149359,128,0,150692:0:0:0:0:
64,192,150692,128,0,151025:0:0:0:0:
192,192,151025,128,0,151359:0:0:0:0:
320,192,151359,128,0,151692:0:0:0:0:
448,192,151692,128,0,152025:0:0:0:0:
64,192,152025,1,2,0:0:0:0:
192,192,152025,128,8,152359:0:0:0:0:
320,192,152359,1,2,0:0:0:0:
448,192,152359,1,8,0:0:0:0:
192,192,152525,1,0,0:0:0:0:
64,192,152692,1,2,0:0:0:0:
448,192,152692,1,8,0:0:0:0:
192,192,152859,1,0,0:0:0:0:
320,192,153025,1,8,0:0:0:0:
448,192,153025,128,2,153359:0:0:0:0:
64,192,153359,1,2,0:0:0:0:
192,192,153359,128,8,153692:0:0:0:0:
320,192,153692,1,8,0:0:0:0:
64,192,153692,1,2,0:0:0:0:
448,192,153859,1,0,0:0:0:0:
192,192,154025,1,8,0:0:0:0:
64,192,154025,1,2,0:0:0:0:
320,192,154192,1,0,0:0:0:0:
64,192,154359,1,2,0:0:0:0:
448,192,154359,128,8,154692:0:0:0:0:
320,192,154692,1,8,0:0:0:0:
192,192,154692,128,2,155025:0:0:0:0:
64,192,155025,1,2,0:0:0:0:
448,192,155025,1,8,0:0:0:0:
192,192,155192,1,0,0:0:0:0:
448,192,155359,1,2,0:0:0:0:
320,192,155359,1,8,0:0:0:0:
192,192,155525,1,0,0:0:0:0:
64,192,155692,1,2,0:0:0:0:
448,192,155692,128,8,156025:0:0:0:0:
320,192,156025,1,8,0:0:0:0:
192,192,156025,128,2,156359:0:0:0:0:
64,192,156359,1,2,0:0:0:0:
448,192,156359,1,8,0:0:0:0:
192,192,156525,1,0,0:0:0:0:
320,192,156692,1,2,0:0:0:0:
448,192,156692,1,8,0:0:0:0:
192,192,156859,1,0,0:0:0:0:
64,192,157025,1,2,0:0:0:0:
448,192,157025,128,8,157359:0:0:0:0:
192,192,157359,1,0,0:0:0:70:Cymbal2.wav
64,192,157359,128,2,158692:0:0:0:0:
320,192,158692,128,0,160025:0:0:0:0:
448,192,160025,128,0,161359:0:0:0:0:
192,192,161359,128,0,161692:0:0:0:0:
320,192,161692,128,0,162025:0:0:0:0:
448,192,162025,128,0,162359:0:0:0:0:
64,192,162359,128,0,162692:0:0:0:0:
192,192,162359,128,0,162692:0:0:0:0:
