osu file format v14

[General]
AudioFilename: audio.mp3
AudioLeadIn: 0
PreviewTime: 77359
Countdown: 0
SampleSet: Normal
StackLeniency: 0.7
Mode: 3
LetterboxInBreaks: 0
SpecialStyle: 0
WidescreenStoryboard: 0

[Editor]
Bookmarks: 159717
DistanceSpacing: 1.5
BeatDivisor: 4
GridSize: 4
TimelineZoom: 2.3

[Metadata]
Title:Positive (feat. Looci)
TitleUnicode:Positive (feat. Looci)
Artist:Ta9-5
ArtistUnicode:Ta9-5
Creator:Dubstek
Version:Loop Loop Loop
Source:
Tags:Tone Sphere Bit192 Show Me Your World Rhythm Action game Electronic EDM Submission 2019 Future Core English dance music AHHHHHHHHHHHHHH
BeatmapID:2146057
BeatmapSetID:1026168

[Difficulty]
HPDrainRate:8.5
CircleSize:4
OverallDifficulty:8.5
ApproachRate:5
SliderMultiplier:2.99999990463257
SliderTickRate:1

[Events]
//Background and Video events
0,0,"BG.jpg",0,0
//Break Periods
//Storyboard Layer 0 (Background)
//Storyboard Layer 1 (Fail)
//Storyboard Layer 2 (Pass)
//Storyboard Layer 3 (Foreground)
//Storyboard Layer 4 (Overlay)
//Storyboard Sound Samples
Sample,22692,0,"Reverse2.ogg",70
Sample,45359,0,"Cymbal2.wav",70
Sample,76025,0,"Reverse2.ogg",70
Sample,97359,0,"Reverse2.ogg",70

[TimingPoints]
26,333.333333333333,4,1,1,60,1,0
13359,-50,4,1,1,60,0,0
13382,-1000,4,1,1,60,0,0
13415,-100,4,1,1,60,0,0
14026,-50,4,1,1,60,0,0
14049,-1000,4,1,1,60,0,0
14082,-100,4,1,1,60,0,0
14276,-50,4,1,1,60,0,0
14299,-1000,4,1,1,60,0,0
14332,-100,4,1,1,60,0,0
14526,-50,4,1,1,60,0,0
14549,-1000,4,1,1,60,0,0
14582,-100,4,1,1,60,0,0
14693,-50,4,1,1,60,0,0
14716,-1000,4,1,1,60,0,0
14749,-100,4,1,1,60,0,0
15026,-50,4,1,1,60,0,0
15049,-1000,4,1,1,60,0,0
15082,-100,4,1,1,60,0,0
15359,-50,4,1,1,60,0,0
15382,-1000,4,1,1,60,0,0
15415,-100,4,1,1,60,0,0
15609,-50,4,1,1,60,0,0
15632,-1000,4,1,1,60,0,0
15665,-100,4,1,1,60,0,0
15859,-50,4,1,1,60,0,0
15882,-1000,4,1,1,60,0,0
15915,-100,4,1,1,60,0,0
16026,-50,4,1,1,60,0,0
16049,-1000,4,1,1,60,0,0
16082,-100,4,1,1,60,0,0
16359,-50,4,1,1,60,0,0
16382,-1000,4,1,1,60,0,0
16415,-100,4,1,1,60,0,0
16693,-50,4,1,1,60,0,0
16716,-1000,4,1,1,60,0,0
16749,-100,4,1,1,60,0,0
16943,-50,4,1,1,60,0,0
16966,-1000,4,1,1,60,0,0
16999,-100,4,1,1,60,0,0
17193,-50,4,1,1,60,0,0
17216,-1000,4,1,1,60,0,0
17249,-100,4,1,1,60,0,0
17359,-50,4,1,1,60,0,0
17382,-1000,4,1,1,60,0,0
17415,-100,4,1,1,60,0,0
17693,-50,4,1,1,60,0,0
17716,-1000,4,1,1,60,0,0
17749,-100,4,1,1,60,0,0
18026,-50,4,1,1,60,0,0
18049,-1000,4,1,1,60,0,0
18082,-100,4,1,1,60,0,0
18359,-50,4,1,1,60,0,0
18382,-1000,4,1,1,60,0,0
18415,-100,4,1,1,60,0,0
18693,-41.6666666666667,4,1,1,60,0,0
18714,-125,4,1,1,60,0,0
18776,-100,4,1,1,60,0,0
19026,-41.6666666666667,4,1,1,60,0,0
19047,-125,4,1,1,60,0,0
19109,-100,4,1,1,60,0,0
19359,-41.6666666666667,4,1,1,60,0,0
19380,-125,4,1,1,60,0,0
19442,-100,4,1,1,60,0,0
19609,-50,4,1,1,60,0,0
19632,-1000,4,1,1,60,0,0
19665,-100,4,1,1,60,0,0
19693,-41.6666666666667,4,1,1,60,0,0
19714,-125,4,1,1,60,0,0
19776,-100,4,1,1,60,0,0
20026,-41.6666666666667,4,1,1,60,0,0
20047,-125,4,1,1,60,0,0
20109,-100,4,1,1,60,0,0
20193,-71.4285714285714,4,1,1,60,0,0
20234,-166.666666666667,4,1,1,60,0,0
20276,-71.4285714285714,4,1,1,60,0,0
20318,-166.666666666667,4,1,1,60,0,0
20359,-41.6666666666667,4,1,1,60,0,0
20380,-125,4,1,1,60,0,0
20442,-100,4,1,1,60,0,0
20526,-71.4285714285714,4,1,1,60,0,0
20568,-166.666666666667,4,1,1,60,0,0
20609,-71.4285714285714,4,1,1,60,0,0
20651,-166.666666666667,4,1,1,60,0,0
20693,-41.6666666666667,4,1,1,60,0,0
20714,-125,4,1,1,60,0,0
20776,-100,4,1,1,60,0,0
20859,-71.4285714285714,4,1,1,60,0,0
20901,-166.666666666667,4,1,1,60,0,0
20943,-71.4285714285714,4,1,1,60,0,0
20984,-166.666666666667,4,1,1,60,0,0
21026,-41.6666666666667,4,1,1,60,0,0
21047,-125,4,1,1,60,0,0
21109,-71.4285714285714,4,1,1,60,0,0
21151,-166.666666666667,4,1,1,60,0,0
21193,-71.4285714285714,4,1,1,60,0,0
21234,-166.666666666667,4,1,1,60,0,0
21276,-71.4285714285714,4,1,1,60,0,0
21318,-166.666666666667,4,1,1,60,0,0
21359,-41.6666666666667,4,1,1,60,0,0
21380,-125,4,1,1,60,0,0
21442,-71.4285714285714,4,1,1,60,0,0
21484,-166.666666666667,4,1,1,60,0,0
21526,-71.4285714285714,4,1,1,60,0,0
21568,-166.666666666667,4,1,1,60,0,0
21609,-71.4285714285714,4,1,1,60,0,0
21651,-166.666666666667,4,1,1,60,0,0
21693,-41.6666666666667,4,1,1,60,0,0
21714,-125,4,1,1,60,0,0
21776,-71.4285714285714,4,1,1,60,0,0
21818,-166.666666666667,4,1,1,60,0,0
21859,-71.4285714285714,4,1,1,60,0,0
21901,-166.666666666667,4,1,1,60,0,0
21943,-71.4285714285714,4,1,1,60,0,0
21984,-166.666666666667,4,1,1,60,0,0
22026,-41.6666666666667,4,1,1,60,0,0
22047,-125,4,1,1,60,0,0
22109,-71.4285714285714,4,1,1,60,0,0
22151,-166.666666666667,4,1,1,60,0,0
22193,-71.4285714285714,4,1,1,60,0,0
22234,-166.666666666667,4,1,1,60,0,0
22276,-71.4285714285714,4,1,1,60,0,0
22318,-166.666666666667,4,1,1,60,0,0
22359,-41.6666666666667,4,1,1,60,0,0
22380,-125,4,1,1,60,0,0
22442,-71.4285714285714,4,1,1,60,0,0
22484,-166.666666666667,4,1,1,60,0,0
22526,-71.4285714285714,4,1,1,60,0,0
22568,-166.666666666667,4,1,1,60,0,0
22609,-71.4285714285714,4,1,1,60,0,0
22651,-166.666666666667,4,1,1,60,0,0
22693,-41.6666666666667,4,1,1,60,0,0
22714,-125,4,1,1,60,0,0
22776,-22.2222222222222,4,1,1,60,0,0
22781,-1000,4,1,1,60,0,0
22818,-22.2222222222222,4,1,1,60,0,0
22823,-1000,4,1,1,60,0,0
22859,-22.2222222222222,4,1,1,60,0,0
22864,-1000,4,1,1,60,0,0
22901,-22.2222222222222,4,1,1,60,0,0
22906,-1000,4,1,1,60,0,0
22943,-22.2222222222222,4,1,1,60,0,0
22948,-500,4,1,1,60,0,0
22984,-22.2222222222222,4,1,1,60,0,0
22989,-500,4,1,1,60,0,0
23026,-22.2222222222222,4,1,1,60,0,0
23031,-500,4,1,1,60,0,0
23068,-22.2222222222222,4,1,1,60,0,0
23073,-333.333333333333,4,1,1,60,0,0
23110,-22.2222222222222,4,1,1,60,0,0
23115,-333.333333333333,4,1,1,60,0,0
23151,-22.2222222222222,4,1,1,60,0,0
23156,-333.333333333333,4,1,1,60,0,0
23193,-22.2222222222222,4,1,1,60,0,0
23198,-250,4,1,1,60,0,0
23235,-22.2222222222222,4,1,1,60,0,0
23240,-250,4,1,1,60,0,0
23276,-22.2222222222222,4,1,1,60,0,0
23281,-250,4,1,1,60,0,0
23318,-22.2222222222222,4,1,1,60,0,0
23323,-200,4,1,1,60,0,0
23359,-22.2222222222222,4,1,1,60,0,0
23364,-200,4,1,1,60,0,0
23401,-22.2222222222222,4,1,1,60,0,0
23406,-200,4,1,1,60,0,0
23442,-22.2222222222222,4,1,1,60,0,0
23447,-166.666666666667,4,1,1,60,0,0
23484,-22.2222222222222,4,1,1,60,0,0
23489,-166.666666666667,4,1,1,60,0,0
23526,-22.2222222222222,4,1,1,60,0,0
23531,-166.666666666667,4,1,1,60,0,0
23567,-22.2222222222222,4,1,1,60,0,0
23572,-166.666666666667,4,1,1,60,0,0
23609,-22.2222222222222,4,1,1,60,0,0
23614,-166.666666666667,4,1,1,60,0,0
23651,-22.2222222222222,4,1,1,60,0,0
23656,-166.666666666667,4,1,1,60,0,0
23693,-22.2222222222222,4,1,1,60,0,0
23698,-166.666666666667,4,1,1,60,0,0
23734,-22.2222222222222,4,1,1,60,0,0
23739,-166.666666666667,4,1,1,60,0,0
23776,-22.2222222222222,4,1,1,60,0,0
23781,-166.666666666667,4,1,1,60,0,0
23818,-22.2222222222222,4,1,1,60,0,0
23823,-166.666666666667,4,1,1,60,0,0
23859,-22.2222222222222,4,1,1,60,0,0
23864,-166.666666666667,4,1,1,60,0,0
23901,-22.2222222222222,4,1,1,60,0,0
23906,-166.666666666667,4,1,1,60,0,0
23943,-22.2222222222222,4,1,1,60,0,0
23948,-166.666666666667,4,1,1,60,0,0
23984,-22.2222222222222,4,1,1,60,0,0
23989,-166.666666666667,4,1,1,60,0,0
24023,-10,4,1,1,60,0,0
24068,-100,4,1,1,60,0,0
24151,-200,4,1,1,60,0,0
24155.16,-196.078431372549,4,1,1,60,0,0
24159.32,-192.307692307692,4,1,1,60,0,0
24163.48,-188.679245283019,4,1,1,60,0,0
24167.64,-185.185185185185,4,1,1,60,0,0
24171.8,-181.818181818182,4,1,1,60,0,0
24175.96,-178.571428571429,4,1,1,60,0,0
24180.12,-175.438596491228,4,1,1,60,0,0
24184.28,-172.413793103448,4,1,1,60,0,0
24188.44,-169.491525423729,4,1,1,60,0,0
24192.6,-166.666666666667,4,1,1,60,0,0
24196.76,-163.934426229508,4,1,1,60,0,0
24200.92,-161.290322580645,4,1,1,60,0,0
24205.08,-158.730158730159,4,1,1,60,0,0
24209.24,-156.25,4,1,1,60,0,0
24213.4,-153.846153846154,4,1,1,60,0,0
24217.56,-151.515151515152,4,1,1,60,0,0
24221.72,-149.253731343284,4,1,1,60,0,0
24225.88,-147.058823529412,4,1,1,60,0,0
24230.04,-144.927536231884,4,1,1,60,0,0
24234.2,-142.857142857143,4,1,1,60,0,0
24238.36,-140.845070422535,4,1,1,60,0,0
24242.52,-138.888888888889,4,1,1,60,0,0
24246.68,-136.986301369863,4,1,1,60,0,0
24250.84,-135.135135135135,4,1,1,60,0,0
24255,-133.333333333333,4,1,1,60,0,0
24259.16,-131.578947368421,4,1,1,60,0,0
24263.32,-129.87012987013,4,1,1,60,0,0
24267.48,-128.205128205128,4,1,1,60,0,0
24271.64,-126.582278481013,4,1,1,60,0,0
24275.8,-125,4,1,1,60,0,0
24279.96,-123.456790123457,4,1,1,60,0,0
24284.12,-121.951219512195,4,1,1,60,0,0
24288.28,-120.481927710843,4,1,1,60,0,0
24292.44,-119.047619047619,4,1,1,60,0,0
24296.6,-117.647058823529,4,1,1,60,0,0
24300.76,-116.279069767442,4,1,1,60,0,0
24304.92,-114.942528735632,4,1,1,60,0,0
24309.08,-113.636363636364,4,1,1,60,0,0
24313.24,-112.359550561798,4,1,1,60,0,0
24317.4,-111.111111111111,4,1,1,60,0,0
24321.56,-109.89010989011,4,1,1,60,0,0
24325.72,-108.695652173913,4,1,1,60,0,0
24329.88,-107.52688172043,4,1,1,60,0,0
24334.04,-106.382978723404,4,1,1,60,0,0
24338.2,-105.263157894737,4,1,1,60,0,0
24342.36,-104.166666666667,4,1,1,60,0,0
24346.52,-103.092783505155,4,1,1,60,0,0
24350.68,-102.040816326531,4,1,1,60,0,0
24354.84,-101.010101010101,4,1,1,60,0,0
24359,-100,4,1,1,60,0,0
25026,-32.258064516129,4,1,1,60,0,0
25040,-10000,4,1,1,60,0,0
25068,-32.258064516129,4,1,1,60,0,0
25082,-10000,4,1,1,60,0,0
25109,-32.258064516129,4,1,1,60,0,0
25123,-10000,4,1,1,60,0,0
25151,-32.258064516129,4,1,1,60,0,0
25165,-10000,4,1,1,60,0,0
25193,-32.258064516129,4,1,1,60,0,0
25207,-10000,4,1,1,60,0,0
25235,-32.258064516129,4,1,1,60,0,0
25249,-10000,4,1,1,60,0,0
25276,-32.258064516129,4,1,1,60,0,0
25290,-10000,4,1,1,60,0,0
25318,-32.258064516129,4,1,1,60,0,0
25332,-10000,4,1,1,60,0,0
25359,-10,4,1,1,60,0,0
25401,-100,4,1,1,60,0,0
25484,-200,4,1,1,60,0,0
25488.16,-196.078431372549,4,1,1,60,0,0
25492.32,-192.307692307692,4,1,1,60,0,0
25496.48,-188.679245283019,4,1,1,60,0,0
25500.64,-185.185185185185,4,1,1,60,0,0
25504.8,-181.818181818182,4,1,1,60,0,0
25508.96,-178.571428571429,4,1,1,60,0,0
25513.12,-175.438596491228,4,1,1,60,0,0
25517.28,-172.413793103448,4,1,1,60,0,0
25521.44,-169.491525423729,4,1,1,60,0,0
25525.6,-166.666666666667,4,1,1,60,0,0
25529.76,-163.934426229508,4,1,1,60,0,0
25533.92,-161.290322580645,4,1,1,60,0,0
25538.08,-158.730158730159,4,1,1,60,0,0
25542.24,-156.25,4,1,1,60,0,0
25546.4,-153.846153846154,4,1,1,60,0,0
25550.56,-151.515151515152,4,1,1,60,0,0
25554.72,-149.253731343284,4,1,1,60,0,0
25558.88,-147.058823529412,4,1,1,60,0,0
25563.04,-144.927536231884,4,1,1,60,0,0
25567.2,-142.857142857143,4,1,1,60,0,0
25571.36,-140.845070422535,4,1,1,60,0,0
25575.52,-138.888888888889,4,1,1,60,0,0
25579.68,-136.986301369863,4,1,1,60,0,0
25583.84,-135.135135135135,4,1,1,60,0,0
25588,-133.333333333333,4,1,1,60,0,0
25592.16,-131.578947368421,4,1,1,60,0,0
25596.32,-129.87012987013,4,1,1,60,0,0
25600.48,-128.205128205128,4,1,1,60,0,0
25604.64,-126.582278481013,4,1,1,60,0,0
25608.8,-125,4,1,1,60,0,0
25612.96,-123.456790123457,4,1,1,60,0,0
25617.12,-121.951219512195,4,1,1,60,0,0
25621.28,-120.481927710843,4,1,1,60,0,0
25625.44,-119.047619047619,4,1,1,60,0,0
25629.6,-117.647058823529,4,1,1,60,0,0
25633.76,-116.279069767442,4,1,1,60,0,0
25637.92,-114.942528735632,4,1,1,60,0,0
25642.08,-113.636363636364,4,1,1,60,0,0
25646.24,-112.359550561798,4,1,1,60,0,0
25650.4,-111.111111111111,4,1,1,60,0,0
25654.56,-109.89010989011,4,1,1,60,0,0
25658.72,-108.695652173913,4,1,1,60,0,0
25662.88,-107.52688172043,4,1,1,60,0,0
25667.04,-106.382978723404,4,1,1,60,0,0
25671.2,-105.263157894737,4,1,1,60,0,0
25675.36,-104.166666666667,4,1,1,60,0,0
25679.52,-103.092783505155,4,1,1,60,0,0
25683.68,-102.040816326531,4,1,1,60,0,0
25687.84,-101.010101010101,4,1,1,60,0,0
25693,-100,4,1,1,60,0,0
26359,-32.258064516129,4,1,1,60,0,0
26373,-10000,4,1,1,60,0,0
26401,-32.258064516129,4,1,1,60,0,0
26415,-10000,4,1,1,60,0,0
26442,-32.258064516129,4,1,1,60,0,0
26456,-10000,4,1,1,60,0,0
26484,-32.258064516129,4,1,1,60,0,0
26498,-10000,4,1,1,60,0,0
26526,-71.4285714285714,4,1,1,60,0,0
26568,-166.666666666667,4,1,1,60,0,0
26609,-71.4285714285714,4,1,1,60,0,0
26651,-166.666666666667,4,1,1,60,0,0
26693,-41.6666666666667,4,1,1,60,0,0
26734,-125,4,1,1,60,0,0
26859,-55.5555555555556,4,1,1,60,0,0
26901,-500,4,1,1,60,0,0
26943,-55.5555555555556,4,1,1,60,0,0
26984,-500,4,1,1,60,0,0
27026,-55.5555555555556,4,1,1,60,0,0
27068,-500,4,1,1,60,0,0
27110,-55.5555555555556,4,1,1,60,0,0
27151,-500,4,1,1,60,0,0
27193,-55.5555555555556,4,1,1,60,0,0
27235,-500,4,1,1,60,0,0
27277,-55.5555555555556,4,1,1,60,0,0
27318,-500,4,1,1,60,0,0
27359,-23.2558139534884,4,1,1,60,0,0
27380,-500,4,1,1,60,0,0
27401,-333.333333333333,4,1,1,60,0,0
27422,-250,4,1,1,60,0,0
27443,-200,4,1,1,60,0,0
27464,-166.666666666667,4,1,1,60,0,0
27484,-142.857142857143,4,1,1,60,0,0
27505,-125,4,1,1,60,0,0
27526,-111.111111111111,4,1,1,60,0,0
27547,-99.9999999999999,4,1,1,60,0,0
27568,-90.9090909090909,4,1,1,60,0,0
27589,-83.3333333333333,4,1,1,60,0,0
27609,-23.2558139534884,4,1,1,60,0,0
27630,-500,4,1,1,60,0,0
27651,-333.333333333333,4,1,1,60,0,0
27672,-250,4,1,1,60,0,0
27693,-200,4,1,1,60,0,0
27714,-166.666666666667,4,1,1,60,0,0
27734,-142.857142857143,4,1,1,60,0,0
27755,-125,4,1,1,60,0,0
27776,-111.111111111111,4,1,1,60,0,0
27797,-99.9999999999999,4,1,1,60,0,0
27818,-90.9090909090909,4,1,1,60,0,0
27839,-83.3333333333333,4,1,1,60,0,0
27859,-41.6666666666667,4,1,1,60,0,0
27901,-125,4,1,1,60,0,0
28026,-41.6666666666667,4,1,1,60,0,0
28068,-125,4,1,1,60,0,0
28193,-100,4,1,1,60,0,0
28359,-41.6666666666667,4,1,1,60,0,0
28401,-125,4,1,1,60,0,0
28526,-100,4,1,1,60,0,0
28693,-41.6666666666667,4,1,1,60,0,0
28735,-125,4,1,1,60,0,0
28860,-100,4,1,1,60,0,0
29026,-41.6666666666667,4,1,1,60,0,0
29068,-125,4,1,1,60,0,0
29193,-100,4,1,1,60,0,0
29359,-41.6666666666667,4,1,1,60,0,0
29400,-125,4,1,1,60,0,0
29526,-55.5555555555556,4,1,1,60,0,0
29568,-500,4,1,1,60,0,0
29610,-55.5555555555556,4,1,1,60,0,0
29651,-500,4,1,1,60,0,0
29693,-55.5555555555556,4,1,1,60,0,0
29735,-500,4,1,1,60,0,0
29777,-55.5555555555556,4,1,1,60,0,0
29818,-500,4,1,1,60,0,0
29859,-55.5555555555556,4,1,1,60,0,0
29901,-500,4,1,1,60,0,0
29943,-55.5555555555556,4,1,1,60,0,0
29984,-500,4,1,1,60,0,0
30026,-23.2558139534884,4,1,1,60,0,0
30047,-500,4,1,1,60,0,0
30068,-333.333333333333,4,1,1,60,0,0
30089,-250,4,1,1,60,0,0
30110,-200,4,1,1,60,0,0
30131,-166.666666666667,4,1,1,60,0,0
30151,-142.857142857143,4,1,1,60,0,0
30172,-125,4,1,1,60,0,0
30193,-111.111111111111,4,1,1,60,0,0
30214,-99.9999999999999,4,1,1,60,0,0
30235,-90.9090909090909,4,1,1,60,0,0
30256,-83.3333333333333,4,1,1,60,0,0
30276,-23.2558139534884,4,1,1,60,0,0
30297,-500,4,1,1,60,0,0
30318,-333.333333333333,4,1,1,60,0,0
30339,-250,4,1,1,60,0,0
30360,-200,4,1,1,60,0,0
30381,-166.666666666667,4,1,1,60,0,0
30401,-142.857142857143,4,1,1,60,0,0
30422,-125,4,1,1,60,0,0
30443,-111.111111111111,4,1,1,60,0,0
30464,-99.9999999999999,4,1,1,60,0,0
30485,-90.9090909090909,4,1,1,60,0,0
30506,-83.3333333333333,4,1,1,60,0,0
30526,-41.6666666666667,4,1,1,60,0,0
30568,-125,4,1,1,60,0,0
30693,-41.6666666666667,4,1,1,60,0,0
30734,-125,4,1,1,60,0,0
30859,-55.5555555555556,4,1,1,60,0,0
30901,-500,4,1,1,60,0,0
30943,-55.5555555555556,4,1,1,60,0,0
30984,-500,4,1,1,60,0,0
31026,-55.5555555555556,4,1,1,60,0,0
31068,-500,4,1,1,60,0,0
31110,-55.5555555555556,4,1,1,60,0,0
31151,-500,4,1,1,60,0,0
31192,-55.5555555555556,4,1,1,60,0,0
31234,-500,4,1,1,60,0,0
31276,-55.5555555555556,4,1,1,60,0,0
31317,-500,4,1,1,60,0,0
31359,-23.2558139534884,4,1,1,60,0,0
31380,-500,4,1,1,60,0,0
31401,-333.333333333333,4,1,1,60,0,0
31422,-250,4,1,1,60,0,0
31443,-200,4,1,1,60,0,0
31464,-166.666666666667,4,1,1,60,0,0
31484,-142.857142857143,4,1,1,60,0,0
31505,-125,4,1,1,60,0,0
31526,-111.111111111111,4,1,1,60,0,0
31547,-99.9999999999999,4,1,1,60,0,0
31568,-90.9090909090909,4,1,1,60,0,0
31589,-83.3333333333333,4,1,1,60,0,0
31609,-23.2558139534884,4,1,1,60,0,0
31630,-500,4,1,1,60,0,0
31651,-333.333333333333,4,1,1,60,0,0
31672,-250,4,1,1,60,0,0
31693,-200,4,1,1,60,0,0
31714,-166.666666666667,4,1,1,60,0,0
31734,-142.857142857143,4,1,1,60,0,0
31755,-125,4,1,1,60,0,0
31776,-111.111111111111,4,1,1,60,0,0
31797,-99.9999999999999,4,1,1,60,0,0
31818,-90.9090909090909,4,1,1,60,0,0
31839,-83.3333333333333,4,1,1,60,0,0
31859,-41.6666666666667,4,1,1,60,0,0
31901,-125,4,1,1,60,0,0
32026,-41.6666666666667,4,1,1,60,0,0
32067,-125,4,1,1,60,0,0
32193,-55.5555555555556,4,1,1,60,0,0
32235,-500,4,1,1,60,0,0
32277,-55.5555555555556,4,1,1,60,0,0
32318,-500,4,1,1,60,0,0
32360,-55.5555555555556,4,1,1,60,0,0
32402,-500,4,1,1,60,0,0
32444,-55.5555555555556,4,1,1,60,0,0
32485,-500,4,1,1,60,0,0
32526,-55.5555555555556,4,1,1,60,0,0
32568,-500,4,1,1,60,0,0
32610,-55.5555555555556,4,1,1,60,0,0
32651,-500,4,1,1,60,0,0
32693,-23.2558139534884,4,1,1,60,0,0
32714,-500,4,1,1,60,0,0
32735,-333.333333333333,4,1,1,60,0,0
32756,-250,4,1,1,60,0,0
32777,-200,4,1,1,60,0,0
32798,-166.666666666667,4,1,1,60,0,0
32818,-142.857142857143,4,1,1,60,0,0
32839,-125,4,1,1,60,0,0
32860,-111.111111111111,4,1,1,60,0,0
32881,-99.9999999999999,4,1,1,60,0,0
32902,-90.9090909090909,4,1,1,60,0,0
32923,-83.3333333333333,4,1,1,60,0,0
32943,-23.2558139534884,4,1,1,60,0,0
32964,-500,4,1,1,60,0,0
32985,-333.333333333333,4,1,1,60,0,0
33006,-250,4,1,1,60,0,0
33027,-200,4,1,1,60,0,0
33048,-166.666666666667,4,1,1,60,0,0
33068,-142.857142857143,4,1,1,60,0,0
33089,-125,4,1,1,60,0,0
33110,-111.111111111111,4,1,1,60,0,0
33131,-99.9999999999999,4,1,1,60,0,0
33152,-90.9090909090909,4,1,1,60,0,0
33173,-83.3333333333333,4,1,1,60,0,0
33193,-41.6666666666667,4,1,1,60,0,0
33235,-125,4,1,1,60,0,0
33360,-41.6666666666667,4,1,1,60,0,0
33401,-125,4,1,1,60,0,0
33526,-100,4,1,1,60,0,0
33693,-41.6666666666667,4,1,1,60,0,0
33734,-125,4,1,1,60,0,0
33859,-100,4,1,1,60,0,0
34026,-41.6666666666667,4,1,1,60,0,0
34067,-125,4,1,1,60,0,0
34192,-100,4,1,1,60,0,0
34359,-41.6666666666667,4,1,1,60,0,0
34400,-125,4,1,1,60,0,0
34525,-100,4,1,1,60,0,0
34690,-10,4,1,1,60,0,0
34714,-200,4,1,1,60,0,0
34859,-142.857142857143,4,1,1,60,0,0
34901,-125,4,1,1,60,0,0
34943,-111.111111111111,4,1,1,60,0,0
34984,-99.9999999999999,4,1,1,60,0,0
35026,-55.5555555555556,4,1,1,60,0,0
35068,-500,4,1,1,60,0,0
35109,-55.5555555555556,4,1,1,60,0,0
35151,-500,4,1,1,60,0,0
35193,-55.5555555555556,4,1,1,60,0,0
35234,-500,4,1,1,60,0,0
35276,-55.5555555555556,4,1,1,60,0,0
35318,-500,4,1,1,60,0,0
35359,-25,4,1,1,60,0,1
35380,-250,4,1,1,60,0,1
35443,-100,4,1,1,60,0,1
35609,-25,4,1,1,60,0,1
35630,-250,4,1,1,60,0,1
35693,-100,4,1,1,60,0,1
35859,-41.6666666666667,4,1,1,60,0,1
35880,-125,4,1,1,60,0,1
35943,-100,4,1,1,60,0,1
36026,-41.6666666666667,4,1,1,60,0,1
36047,-125,4,1,1,60,0,1
36110,-100,4,1,1,60,0,1
36693,-41.6666666666667,4,1,1,60,0,1
36714,-125,4,1,1,60,0,1
36777,-100,4,1,1,60,0,1
36943,-41.6666666666667,4,1,1,60,0,1
36964,-125,4,1,1,60,0,1
37027,-100,4,1,1,60,0,1
37109,-41.6666666666667,4,1,1,60,0,1
37130,-125,4,1,1,60,0,1
37193,-41.6666666666667,4,1,1,60,0,1
37214,-125,4,1,1,60,0,1
37276,-41.6666666666667,4,1,1,60,0,1
37297,-125,4,1,1,60,0,1
37359,-55.5555555555556,4,1,1,60,0,1
37401,-500,4,1,1,60,0,1
37443,-55.5555555555556,4,1,1,60,0,1
37484,-500,4,1,1,60,0,1
37526,-55.5555555555556,4,1,1,60,0,1
37568,-500,4,1,1,60,0,1
37610,-55.5555555555556,4,1,1,60,0,1
37651,-500,4,1,1,60,0,1
37692,-55.5555555555556,4,1,1,60,0,1
37734,-500,4,1,1,60,0,1
37776,-55.5555555555556,4,1,1,60,0,1
37817,-500,4,1,1,60,0,1
37859,-55.5555555555556,4,1,1,60,0,1
37901,-500,4,1,1,60,0,1
37943,-55.5555555555556,4,1,1,60,0,1
37984,-500,4,1,1,60,0,1
38026,-23.2558139534884,4,1,1,60,0,1
38047,-500,4,1,1,60,0,1
38068,-333.333333333333,4,1,1,60,0,1
38089,-250,4,1,1,60,0,1
38110,-200,4,1,1,60,0,1
38131,-166.666666666667,4,1,1,60,0,1
38151,-142.857142857143,4,1,1,60,0,1
38172,-125,4,1,1,60,0,1
38193,-111.111111111111,4,1,1,60,0,1
38214,-99.9999999999999,4,1,1,60,0,1
38235,-90.9090909090909,4,1,1,60,0,1
38256,-83.3333333333333,4,1,1,60,0,1
38276,-41.6666666666667,4,1,1,60,0,1
38297,-125,4,1,1,60,0,1
38359,-41.6666666666667,4,1,1,60,0,1
38380,-125,4,1,1,60,0,1
38443,-100,4,1,1,60,0,1
38526,-41.6666666666667,4,1,1,60,0,1
38547,-125,4,1,1,60,0,1
38609,-100,4,1,1,60,0,1
38693,-41.6666666666667,4,1,1,60,0,1
38714,-125,4,1,1,60,0,1
38776,-100,4,1,1,60,0,1
39026,-41.6666666666667,4,1,1,60,0,1
39047,-125,4,1,1,60,0,1
39109,-100,4,1,1,60,0,1
39359,-41.6666666666667,4,1,1,60,0,1
39380,-125,4,1,1,60,0,1
39442,-100,4,1,1,60,0,1
39693,-41.6666666666667,4,1,1,60,0,1
39714,-125,4,1,1,60,0,1
39776,-100,4,1,1,60,0,1
40026,-55.5555555555556,4,1,1,60,0,1
40068,-500,4,1,1,60,0,1
40110,-55.5555555555556,4,1,1,60,0,1
40151,-500,4,1,1,60,0,1
40193,-55.5555555555556,4,1,1,60,0,1
40235,-500,4,1,1,60,0,1
40277,-55.5555555555556,4,1,1,60,0,1
40318,-500,4,1,1,60,0,1
40359,-55.5555555555556,4,1,1,60,0,1
40401,-500,4,1,1,60,0,1
40443,-55.5555555555556,4,1,1,60,0,1
40484,-500,4,1,1,60,0,1
40526,-55.5555555555556,4,1,1,60,0,1
40568,-500,4,1,1,60,0,1
40610,-55.5555555555556,4,1,1,60,0,1
40651,-500,4,1,1,60,0,1
40693,-23.2558139534884,4,1,1,60,0,1
40714,-500,4,1,1,60,0,1
40735,-333.333333333333,4,1,1,60,0,1
40756,-250,4,1,1,60,0,1
40777,-200,4,1,1,60,0,1
40798,-166.666666666667,4,1,1,60,0,1
40818,-142.857142857143,4,1,1,60,0,1
40839,-125,4,1,1,60,0,1
40860,-111.111111111111,4,1,1,60,0,1
40881,-99.9999999999999,4,1,1,60,0,1
40902,-90.9090909090909,4,1,1,60,0,1
40923,-83.3333333333333,4,1,1,60,0,1
40943,-41.6666666666667,4,1,1,60,0,1
40964,-125,4,1,1,60,0,1
41026,-41.6666666666667,4,1,1,60,0,1
41047,-125,4,1,1,60,0,1
41110,-100,4,1,1,60,0,1
41193,-41.6666666666667,4,1,1,60,0,1
41214,-125,4,1,1,60,0,1
41276,-100,4,1,1,60,0,1
41359,-55.5555555555556,4,1,1,60,0,1
41401,-500,4,1,1,60,0,1
41443,-55.5555555555556,4,1,1,60,0,1
41484,-500,4,1,1,60,0,1
41526,-55.5555555555556,4,1,1,60,0,1
41568,-500,4,1,1,60,0,1
41610,-55.5555555555556,4,1,1,60,0,1
41651,-500,4,1,1,60,0,1
41693,-55.5555555555556,4,1,1,60,0,1
41735,-500,4,1,1,60,0,1
41777,-55.5555555555556,4,1,1,60,0,1
41818,-500,4,1,1,60,0,1
41860,-55.5555555555556,4,1,1,60,0,1
41902,-500,4,1,1,60,0,1
41944,-55.5555555555556,4,1,1,60,0,1
41985,-500,4,1,1,60,0,1
42026,-23.2558139534884,4,1,1,60,0,1
42047,-500,4,1,1,60,0,1
42068,-333.333333333333,4,1,1,60,0,1
42089,-250,4,1,1,60,0,1
42110,-200,4,1,1,60,0,1
42131,-166.666666666667,4,1,1,60,0,1
42151,-142.857142857143,4,1,1,60,0,1
42172,-125,4,1,1,60,0,1
42193,-111.111111111111,4,1,1,60,0,1
42214,-99.9999999999999,4,1,1,60,0,1
42235,-90.9090909090909,4,1,1,60,0,1
42256,-83.3333333333333,4,1,1,60,0,1
42276,-41.6666666666667,4,1,1,60,0,1
42297,-125,4,1,1,60,0,1
42359,-41.6666666666667,4,1,1,60,0,1
42380,-125,4,1,1,60,0,1
42443,-100,4,1,1,60,0,1
42527,-41.6666666666667,4,1,1,60,0,1
42568,-125,4,1,1,60,0,1
42693,-55.5555555555556,4,1,1,60,0,1
42735,-500,4,1,1,60,0,1
42777,-55.5555555555556,4,1,1,60,0,1
42818,-500,4,1,1,60,0,1
42860,-55.5555555555556,4,1,1,60,0,1
42902,-500,4,1,1,60,0,1
42944,-55.5555555555556,4,1,1,60,0,1
42985,-500,4,1,1,60,0,1
43026,-55.5555555555556,4,1,1,60,0,1
43068,-500,4,1,1,60,0,1
43110,-55.5555555555556,4,1,1,60,0,1
43151,-500,4,1,1,60,0,1
43193,-55.5555555555556,4,1,1,60,0,1
43235,-500,4,1,1,60,0,1
43277,-55.5555555555556,4,1,1,60,0,1
43318,-500,4,1,1,60,0,1
43359,-23.2558139534884,4,1,1,60,0,1
43380,-500,4,1,1,60,0,1
43401,-333.333333333333,4,1,1,60,0,1
43422,-250,4,1,1,60,0,1
43443,-200,4,1,1,60,0,1
43464,-166.666666666667,4,1,1,60,0,1
43484,-142.857142857143,4,1,1,60,0,1
43505,-125,4,1,1,60,0,1
43526,-111.111111111111,4,1,1,60,0,1
43547,-99.9999999999999,4,1,1,60,0,1
43568,-90.9090909090909,4,1,1,60,0,1
43589,-83.3333333333333,4,1,1,60,0,1
43610,-41.6666666666667,4,1,1,60,0,1
43631,-125,4,1,1,60,0,1
43693,-41.6666666666667,4,1,1,60,0,1
43714,-125,4,1,1,60,0,1
43777,-100,4,1,1,60,0,1
43860,-41.6666666666667,4,1,1,60,0,1
43881,-125,4,1,1,60,0,1
43943,-100,4,1,1,60,0,1
44027,-41.6666666666667,4,1,1,60,0,1
44048,-125,4,1,1,60,0,1
44110,-100,4,1,1,60,0,1
44360,-41.6666666666667,4,1,1,60,0,1
44381,-125,4,1,1,60,0,1
44443,-100,4,1,1,60,0,1
44693,-41.6666666666667,4,1,1,60,0,1
44714,-125,4,1,1,60,0,1
44776,-100,4,1,1,60,0,1
45027,-41.6666666666667,4,1,1,60,0,1
45048,-125,4,1,1,60,0,1
45110,-100,4,1,1,60,0,1
45359,-41.6666666666667,4,1,1,60,0,0
45401,-125,4,1,1,60,0,0
46693,-111.111111111111,4,1,1,60,0,0
48026,-105.263157894737,4,1,1,60,0,0
50693,-100,4,1,1,60,0,0
55693,-100,4,1,1,60,0,0
66693,-50,4,1,1,60,0,0
66716,-1000,4,1,1,60,0,0
66749,-100,4,1,1,60,0,0
67359,-50,4,1,1,60,0,0
67382,-1000,4,1,1,60,0,0
67415,-100,4,1,1,60,0,0
67859,-50,4,1,1,60,0,0
67882,-1000,4,1,1,60,0,0
67915,-100,4,1,1,60,0,0
68026,-50,4,1,1,60,0,0
68049,-1000,4,1,1,60,0,0
68082,-100,4,1,1,60,0,0
68359,-50,4,1,1,60,0,0
68382,-1000,4,1,1,60,0,0
68415,-100,4,1,1,60,0,0
68693,-50,4,1,1,60,0,0
68716,-1000,4,1,1,60,0,0
68749,-100,4,1,1,60,0,0
69193,-50,4,1,1,60,0,0
69216,-1000,4,1,1,60,0,0
69249,-100,4,1,1,60,0,0
69359,-50,4,1,1,60,0,0
69382,-1000,4,1,1,60,0,0
69415,-100,4,1,1,60,0,0
69693,-50,4,1,1,60,0,0
69716,-1000,4,1,1,60,0,0
69749,-100,4,1,1,60,0,0
70026,-50,4,1,1,60,0,0
70049,-1000,4,1,1,60,0,0
70082,-100,4,1,1,60,0,0
70526,-50,4,1,1,60,0,0
70549,-1000,4,1,1,60,0,0
70582,-100,4,1,1,60,0,0
70693,-50,4,1,1,60,0,0
70716,-1000,4,1,1,60,0,0
70749,-100,4,1,1,60,0,0
71026,-50,4,1,1,60,0,0
71049,-1000,4,1,1,60,0,0
71082,-100,4,1,1,60,0,0
71359,-50,4,1,1,60,0,0
71382,-1000,4,1,1,60,0,0
71415,-100,4,1,1,60,0,0
71693,-50,4,1,1,60,0,0
71716,-1000,4,1,1,60,0,0
71749,-100,4,1,1,60,0,0
72026,-50,4,1,1,60,0,0
72049,-1000,4,1,1,60,0,0
72082,-100,4,1,1,60,0,0
72193,-71.4285714285714,4,1,1,60,0,0
72234,-166.666666666667,4,1,1,60,0,0
72276,-100,4,1,1,60,0,0
72526,-71.4285714285714,4,1,1,60,0,0
72567,-166.666666666667,4,1,1,60,0,0
72609,-100,4,1,1,60,0,0
72693,-50,4,1,1,60,0,0
72716,-1000,4,1,1,60,0,0
72749,-100,4,1,1,60,0,0
72859,-71.4285714285714,4,1,1,60,0,0
72900,-166.666666666667,4,1,1,60,0,0
72942,-100,4,1,1,60,0,0
73193,-50,4,1,1,60,0,0
73216,-1000,4,1,1,60,0,0
73249,-100,4,1,1,60,0,0
73359,-50,4,1,1,60,0,0
73382,-1000,4,1,1,60,0,0
73415,-100,4,1,1,60,0,0
73526,-71.4285714285714,4,1,1,60,0,0
73567,-166.666666666667,4,1,1,60,0,0
73609,-71.4285714285714,4,1,1,60,0,0
73650,-166.666666666667,4,1,1,60,0,0
73693,-50,4,1,1,60,0,0
73716,-1000,4,1,1,60,0,0
73749,-100,4,1,1,60,0,0
73859,-71.4285714285714,4,1,1,60,0,0
73900,-166.666666666667,4,1,1,60,0,0
73942,-71.4285714285714,4,1,1,60,0,0
73983,-166.666666666667,4,1,1,60,0,0
74026,-50,4,1,1,60,0,0
74049,-1000,4,1,1,60,0,0
74082,-100,4,1,1,60,0,0
74193,-71.4285714285714,4,1,1,60,0,0
74234,-166.666666666667,4,1,1,60,0,0
74276,-71.4285714285714,4,1,1,60,0,0
74317,-166.666666666667,4,1,1,60,0,0
74359,-100,4,1,1,60,0,0
74526,-50,4,1,1,60,0,0
74549,-1000,4,1,1,60,0,0
74582,-100,4,1,1,60,0,0
74609,-71.4285714285714,4,1,1,60,0,0
74651,-166.666666666667,4,1,1,60,0,0
74693,-50,4,1,1,60,0,0
74716,-1000,4,1,1,60,0,0
74749,-100,4,1,1,60,0,0
74859,-71.4285714285714,4,1,1,60,0,0
74900,-166.666666666667,4,1,1,60,0,0
74942,-71.4285714285714,4,1,1,60,0,0
74983,-166.666666666667,4,1,1,60,0,0
75026,-71.4285714285714,4,1,1,60,0,0
75067,-166.666666666667,4,1,1,60,0,0
75109,-71.4285714285714,4,1,1,60,0,0
75150,-166.666666666667,4,1,1,60,0,0
75193,-71.4285714285714,4,1,1,60,0,0
75234,-166.666666666667,4,1,1,60,0,0
75276,-71.4285714285714,4,1,1,60,0,0
75317,-166.666666666667,4,1,1,60,0,0
75359,-71.4285714285714,4,1,1,60,0,0
75400,-166.666666666667,4,1,1,60,0,0
75442,-71.4285714285714,4,1,1,60,0,0
75483,-166.666666666667,4,1,1,60,0,0
75526,-71.4285714285714,4,1,1,60,0,0
75567,-166.666666666667,4,1,1,60,0,0
75609,-71.4285714285714,4,1,1,60,0,0
75650,-166.666666666667,4,1,1,60,0,0
75693,-71.4285714285714,4,1,1,60,0,0
75734,-166.666666666667,4,1,1,60,0,0
75776,-71.4285714285714,4,1,1,60,0,0
75817,-166.666666666667,4,1,1,60,0,0
75859,-71.4285714285714,4,1,1,60,0,0
75900,-166.666666666667,4,1,1,60,0,0
75942,-71.4285714285714,4,1,1,60,0,0
75983,-166.666666666667,4,1,1,60,0,0
76026,-41.6666666666667,4,1,1,60,0,0
76047,-125,4,1,1,60,0,0
76109,-22.2222222222222,4,1,1,60,0,0
76114,-1000,4,1,1,60,0,0
76151,-22.2222222222222,4,1,1,60,0,0
76156,-1000,4,1,1,60,0,0
76192,-22.2222222222222,4,1,1,60,0,0
76197,-1000,4,1,1,60,0,0
76234,-22.2222222222222,4,1,1,60,0,0
76239,-1000,4,1,1,60,0,0
76276,-22.2222222222222,4,1,1,60,0,0
76281,-500,4,1,1,60,0,0
76317,-22.2222222222222,4,1,1,60,0,0
76322,-500,4,1,1,60,0,0
76359,-22.2222222222222,4,1,1,60,0,0
76364,-500,4,1,1,60,0,0
76401,-22.2222222222222,4,1,1,60,0,0
76406,-333.333333333333,4,1,1,60,0,0
76443,-22.2222222222222,4,1,1,60,0,0
76448,-333.333333333333,4,1,1,60,0,0
76484,-22.2222222222222,4,1,1,60,0,0
76489,-333.333333333333,4,1,1,60,0,0
76526,-22.2222222222222,4,1,1,60,0,0
76531,-250,4,1,1,60,0,0
76568,-22.2222222222222,4,1,1,60,0,0
76573,-250,4,1,1,60,0,0
76609,-22.2222222222222,4,1,1,60,0,0
76614,-250,4,1,1,60,0,0
76651,-22.2222222222222,4,1,1,60,0,0
76656,-200,4,1,1,60,0,0
76692,-22.2222222222222,4,1,1,60,0,0
76697,-200,4,1,1,60,0,0
76734,-22.2222222222222,4,1,1,60,0,0
76739,-200,4,1,1,60,0,0
76775,-22.2222222222222,4,1,1,60,0,0
76780,-166.666666666667,4,1,1,60,0,0
76817,-22.2222222222222,4,1,1,60,0,0
76822,-166.666666666667,4,1,1,60,0,0
76859,-22.2222222222222,4,1,1,60,0,0
76864,-166.666666666667,4,1,1,60,0,0
76900,-22.2222222222222,4,1,1,60,0,0
76905,-166.666666666667,4,1,1,60,0,0
76942,-22.2222222222222,4,1,1,60,0,0
76947,-166.666666666667,4,1,1,60,0,0
76984,-22.2222222222222,4,1,1,60,0,0
76989,-166.666666666667,4,1,1,60,0,0
77026,-22.2222222222222,4,1,1,60,0,0
77031,-166.666666666667,4,1,1,60,0,0
77067,-22.2222222222222,4,1,1,60,0,0
77072,-166.666666666667,4,1,1,60,0,0
77109,-22.2222222222222,4,1,1,60,0,0
77114,-166.666666666667,4,1,1,60,0,0
77151,-22.2222222222222,4,1,1,60,0,0
77156,-166.666666666667,4,1,1,60,0,0
77192,-22.2222222222222,4,1,1,60,0,0
77197,-166.666666666667,4,1,1,60,0,0
77234,-22.2222222222222,4,1,1,60,0,0
77239,-166.666666666667,4,1,1,60,0,0
77276,-22.2222222222222,4,1,1,60,0,0
77281,-166.666666666667,4,1,1,60,0,0
77317,-22.2222222222222,4,1,1,60,0,0
77322,-166.666666666667,4,1,1,60,0,0
77356,-10,4,1,1,60,0,0
77359,-100,4,1,1,60,0,1
77526,-41.6666666666667,4,1,1,60,0,1
77568,-125,4,1,1,60,0,1
77693,-41.6666666666667,4,1,1,60,0,1
77734,-125,4,1,1,60,0,1
77859,-55.5555555555556,4,1,1,60,0,1
77901,-500,4,1,1,60,0,1
77943,-55.5555555555556,4,1,1,60,0,1
77984,-500,4,1,1,60,0,1
78026,-23.2558139534884,4,1,1,60,0,1
78047,-500,4,1,1,60,0,1
78068,-333.333333333333,4,1,1,60,0,1
78089,-250,4,1,1,60,0,1
78110,-200,4,1,1,60,0,1
78131,-166.666666666667,4,1,1,60,0,1
78151,-142.857142857143,4,1,1,60,0,1
78172,-125,4,1,1,60,0,1
78193,-111.111111111111,4,1,1,60,0,1
78214,-99.9999999999999,4,1,1,60,0,1
78235,-90.9090909090909,4,1,1,60,0,1
78256,-83.3333333333333,4,1,1,60,0,1
78276,-23.2558139534884,4,1,1,60,0,1
78297,-500,4,1,1,60,0,1
78318,-333.333333333333,4,1,1,60,0,1
78339,-250,4,1,1,60,0,1
78360,-200,4,1,1,60,0,1
78381,-166.666666666667,4,1,1,60,0,1
78401,-142.857142857143,4,1,1,60,0,1
78422,-125,4,1,1,60,0,1
78443,-111.111111111111,4,1,1,60,0,1
78464,-99.9999999999999,4,1,1,60,0,1
78485,-90.9090909090909,4,1,1,60,0,1
78506,-83.3333333333333,4,1,1,60,0,1
78526,-41.6666666666667,4,1,1,60,0,1
78568,-125,4,1,1,60,0,1
78693,-55.5555555555556,4,1,1,60,0,1
78714,-500,4,1,1,60,0,1
78735,-55.5555555555556,4,1,1,60,0,1
78756,-500,4,1,1,60,0,1
78776,-55.5555555555556,4,1,1,60,0,1
78797,-500,4,1,1,60,0,1
78818,-55.5555555555556,4,1,1,60,0,1
78839,-500,4,1,1,60,0,1
78860,-41.6666666666667,4,1,1,60,0,1
78881,-125,4,1,1,60,0,1
78943,-55.5555555555556,4,1,1,60,0,1
78964,-500,4,1,1,60,0,1
78985,-55.5555555555556,4,1,1,60,0,1
79006,-500,4,1,1,60,0,1
79026,-41.6666666666667,4,1,1,60,0,1
79068,-125,4,1,1,60,0,1
79193,-55.5555555555556,4,1,1,60,0,1
79214,-500,4,1,1,60,0,1
79234,-55.5555555555556,4,1,1,60,0,1
79255,-500,4,1,1,60,0,1
79276,-100,4,1,1,60,0,1
79359,-23.2558139534884,4,1,1,60,0,1
79380,-500,4,1,1,60,0,1
79401,-333.333333333333,4,1,1,60,0,1
79422,-250,4,1,1,60,0,1
79443,-200,4,1,1,60,0,1
79464,-166.666666666667,4,1,1,60,0,1
79484,-142.857142857143,4,1,1,60,0,1
79505,-125,4,1,1,60,0,1
79526,-111.111111111111,4,1,1,60,0,1
79547,-99.9999999999999,4,1,1,60,0,1
79568,-90.9090909090909,4,1,1,60,0,1
79589,-83.3333333333333,4,1,1,60,0,1
79609,-23.2558139534884,4,1,1,60,0,1
79630,-500,4,1,1,60,0,1
79651,-333.333333333333,4,1,1,60,0,1
79672,-250,4,1,1,60,0,1
79693,-200,4,1,1,60,0,1
79714,-166.666666666667,4,1,1,60,0,1
79734,-142.857142857143,4,1,1,60,0,1
79755,-125,4,1,1,60,0,1
79776,-111.111111111111,4,1,1,60,0,1
79797,-99.9999999999999,4,1,1,60,0,1
79818,-90.9090909090909,4,1,1,60,0,1
79839,-83.3333333333333,4,1,1,60,0,1
79859,-41.6666666666667,4,1,1,60,0,1
79901,-125,4,1,1,60,0,1
80026,-55.5555555555556,4,1,1,60,0,1
80047,-500,4,1,1,60,0,1
80068,-55.5555555555556,4,1,1,60,0,1
80089,-500,4,1,1,60,0,1
80109,-55.5555555555556,4,1,1,60,0,1
80130,-500,4,1,1,60,0,1
80151,-55.5555555555556,4,1,1,60,0,1
80172,-500,4,1,1,60,0,1
80193,-41.6666666666667,4,1,1,60,0,1
80214,-125,4,1,1,60,0,1
80276,-55.5555555555556,4,1,1,60,0,1
80297,-500,4,1,1,60,0,1
80318,-55.5555555555556,4,1,1,60,0,1
80339,-500,4,1,1,60,0,1
80359,-41.6666666666667,4,1,1,60,0,1
80401,-125,4,1,1,60,0,1
80526,-55.5555555555556,4,1,1,60,0,1
80568,-500,4,1,1,60,0,1
80609,-55.5555555555556,4,1,1,60,0,1
80651,-500,4,1,1,60,0,1
80693,-23.2558139534884,4,1,1,60,0,1
80714,-500,4,1,1,60,0,1
80735,-333.333333333333,4,1,1,60,0,1
80756,-250,4,1,1,60,0,1
80777,-200,4,1,1,60,0,1
80798,-166.666666666667,4,1,1,60,0,1
80818,-142.857142857143,4,1,1,60,0,1
80839,-125,4,1,1,60,0,1
80860,-111.111111111111,4,1,1,60,0,1
80881,-99.9999999999999,4,1,1,60,0,1
80902,-90.9090909090909,4,1,1,60,0,1
80923,-83.3333333333333,4,1,1,60,0,1
80943,-23.2558139534884,4,1,1,60,0,1
80964,-500,4,1,1,60,0,1
80985,-333.333333333333,4,1,1,60,0,1
81006,-250,4,1,1,60,0,1
81027,-200,4,1,1,60,0,1
81048,-166.666666666667,4,1,1,60,0,1
81068,-142.857142857143,4,1,1,60,0,1
81089,-125,4,1,1,60,0,1
81110,-111.111111111111,4,1,1,60,0,1
81131,-99.9999999999999,4,1,1,60,0,1
81152,-90.9090909090909,4,1,1,60,0,1
81173,-83.3333333333333,4,1,1,60,0,1
81193,-41.6666666666667,4,1,1,60,0,1
81235,-125,4,1,1,60,0,1
81359,-41.6666666666667,4,1,1,60,0,1
81401,-125,4,1,1,60,0,1
81526,-55.5555555555556,4,1,1,60,0,1
81568,-500,4,1,1,60,0,1
81609,-55.5555555555556,4,1,1,60,0,1
81651,-500,4,1,1,60,0,1
81693,-41.6666666666667,4,1,1,60,0,1
81734,-125,4,1,1,60,0,1
81859,-55.5555555555556,4,1,1,60,0,1
81901,-500,4,1,1,60,0,1
81942,-55.5555555555556,4,1,1,60,0,1
81984,-500,4,1,1,60,0,1
82026,-23.2558139534884,4,1,1,60,0,1
82047,-500,4,1,1,60,0,1
82068,-333.333333333333,4,1,1,60,0,1
82089,-250,4,1,1,60,0,1
82110,-200,4,1,1,60,0,1
82131,-166.666666666667,4,1,1,60,0,1
82151,-142.857142857143,4,1,1,60,0,1
82172,-125,4,1,1,60,0,1
82193,-111.111111111111,4,1,1,60,0,1
82214,-99.9999999999999,4,1,1,60,0,1
82235,-90.9090909090909,4,1,1,60,0,1
82256,-83.3333333333333,4,1,1,60,0,1
82276,-23.2558139534884,4,1,1,60,0,1
82297,-500,4,1,1,60,0,1
82318,-333.333333333333,4,1,1,60,0,1
82339,-250,4,1,1,60,0,1
82360,-200,4,1,1,60,0,1
82381,-166.666666666667,4,1,1,60,0,1
82401,-142.857142857143,4,1,1,60,0,1
82422,-125,4,1,1,60,0,1
82443,-111.111111111111,4,1,1,60,0,1
82464,-99.9999999999999,4,1,1,60,0,1
82485,-90.9090909090909,4,1,1,60,0,1
82506,-83.3333333333333,4,1,1,60,0,1
82526,-41.6666666666667,4,1,1,60,0,1
82568,-125,4,1,1,60,0,1
82693,-41.6666666666667,4,1,1,60,0,1
82735,-125,4,1,1,60,0,1
82859,-41.6666666666667,4,1,1,60,0,1
82901,-125,4,1,1,60,0,1
83026,-41.6666666666667,4,1,1,60,0,1
83068,-125,4,1,1,60,0,1
83193,-55.5555555555556,4,1,1,60,0,1
83234,-500,4,1,1,60,0,1
83276,-55.5555555555556,4,1,1,60,0,1
83318,-500,4,1,1,60,0,1
83359,-23.2558139534884,4,1,1,60,0,1
83380,-500,4,1,1,60,0,1
83401,-333.333333333333,4,1,1,60,0,1
83422,-250,4,1,1,60,0,1
83443,-200,4,1,1,60,0,1
83464,-166.666666666667,4,1,1,60,0,1
83484,-142.857142857143,4,1,1,60,0,1
83505,-125,4,1,1,60,0,1
83526,-111.111111111111,4,1,1,60,0,1
83547,-99.9999999999999,4,1,1,60,0,1
83568,-90.9090909090909,4,1,1,60,0,1
83589,-83.3333333333333,4,1,1,60,0,1
83609,-23.2558139534884,4,1,1,60,0,1
83630,-500,4,1,1,60,0,1
83651,-333.333333333333,4,1,1,60,0,1
83672,-250,4,1,1,60,0,1
83693,-200,4,1,1,60,0,1
83714,-166.666666666667,4,1,1,60,0,1
83734,-142.857142857143,4,1,1,60,0,1
83755,-125,4,1,1,60,0,1
83776,-111.111111111111,4,1,1,60,0,1
83797,-99.9999999999999,4,1,1,60,0,1
83818,-90.9090909090909,4,1,1,60,0,1
83839,-83.3333333333333,4,1,1,60,0,1
83859,-41.6666666666667,4,1,1,60,0,1
83901,-125,4,1,1,60,0,1
84026,-55.5555555555556,4,1,1,60,0,1
84047,-500,4,1,1,60,0,1
84068,-55.5555555555556,4,1,1,60,0,1
84089,-500,4,1,1,60,0,1
84109,-55.5555555555556,4,1,1,60,0,1
84130,-500,4,1,1,60,0,1
84151,-55.5555555555556,4,1,1,60,0,1
84172,-500,4,1,1,60,0,1
84193,-41.6666666666667,4,1,1,60,0,1
84214,-125,4,1,1,60,0,1
84276,-55.5555555555556,4,1,1,60,0,1
84297,-500,4,1,1,60,0,1
84318,-55.5555555555556,4,1,1,60,0,1
84339,-500,4,1,1,60,0,1
84359,-41.6666666666667,4,1,1,60,0,1
84401,-125,4,1,1,60,0,1
84526,-55.5555555555556,4,1,1,60,0,1
84547,-500,4,1,1,60,0,1
84568,-55.5555555555556,4,1,1,60,0,1
84589,-500,4,1,1,60,0,1
84609,-100,4,1,1,60,0,1
84693,-23.2558139534884,4,1,1,60,0,1
84714,-500,4,1,1,60,0,1
84735,-333.333333333333,4,1,1,60,0,1
84756,-250,4,1,1,60,0,1
84777,-200,4,1,1,60,0,1
84798,-166.666666666667,4,1,1,60,0,1
84818,-142.857142857143,4,1,1,60,0,1
84839,-125,4,1,1,60,0,1
84860,-111.111111111111,4,1,1,60,0,1
84881,-99.9999999999999,4,1,1,60,0,1
84902,-90.9090909090909,4,1,1,60,0,1
84923,-83.3333333333333,4,1,1,60,0,1
84943,-23.2558139534884,4,1,1,60,0,1
84964,-500,4,1,1,60,0,1
84985,-333.333333333333,4,1,1,60,0,1
85006,-250,4,1,1,60,0,1
85027,-200,4,1,1,60,0,1
85048,-166.666666666667,4,1,1,60,0,1
85068,-142.857142857143,4,1,1,60,0,1
85089,-125,4,1,1,60,0,1
85110,-111.111111111111,4,1,1,60,0,1
85131,-99.9999999999999,4,1,1,60,0,1
85152,-90.9090909090909,4,1,1,60,0,1
85173,-83.3333333333333,4,1,1,60,0,1
85193,-41.6666666666667,4,1,1,60,0,1
85235,-125,4,1,1,60,0,1
85359,-55.5555555555556,4,1,1,60,0,1
85380,-500,4,1,1,60,0,1
85401,-55.5555555555556,4,1,1,60,0,1
85422,-500,4,1,1,60,0,1
85442,-55.5555555555556,4,1,1,60,0,1
85463,-500,4,1,1,60,0,1
85484,-55.5555555555556,4,1,1,60,0,1
85505,-500,4,1,1,60,0,1
85526,-41.6666666666667,4,1,1,60,0,1
85547,-125,4,1,1,60,0,1
85609,-55.5555555555556,4,1,1,60,0,1
85630,-500,4,1,1,60,0,1
85651,-55.5555555555556,4,1,1,60,0,1
85672,-500,4,1,1,60,0,1
85692,-41.6666666666667,4,1,1,60,0,1
85734,-125,4,1,1,60,0,1
85859,-55.5555555555556,4,1,1,60,0,1
85901,-500,4,1,1,60,0,1
85942,-55.5555555555556,4,1,1,60,0,1
85984,-500,4,1,1,60,0,1
86026,-23.2558139534884,4,1,1,60,0,1
86047,-500,4,1,1,60,0,1
86068,-333.333333333333,4,1,1,60,0,1
86089,-250,4,1,1,60,0,1
86110,-200,4,1,1,60,0,1
86131,-166.666666666667,4,1,1,60,0,1
86151,-142.857142857143,4,1,1,60,0,1
86172,-125,4,1,1,60,0,1
86193,-111.111111111111,4,1,1,60,0,1
86214,-99.9999999999999,4,1,1,60,0,1
86235,-90.9090909090909,4,1,1,60,0,1
86256,-83.3333333333333,4,1,1,60,0,1
86276,-23.2558139534884,4,1,1,60,0,1
86297,-500,4,1,1,60,0,1
86318,-333.333333333333,4,1,1,60,0,1
86339,-250,4,1,1,60,0,1
86360,-200,4,1,1,60,0,1
86381,-166.666666666667,4,1,1,60,0,1
86401,-142.857142857143,4,1,1,60,0,1
86422,-125,4,1,1,60,0,1
86443,-111.111111111111,4,1,1,60,0,1
86464,-99.9999999999999,4,1,1,60,0,1
86485,-90.9090909090909,4,1,1,60,0,1
86506,-83.3333333333333,4,1,1,60,0,1
86526,-41.6666666666667,4,1,1,60,0,1
86568,-125,4,1,1,60,0,1
86693,-41.6666666666667,4,1,1,60,0,1
86735,-125,4,1,1,60,0,1
86860,-55.5555555555556,4,1,1,60,0,1
86902,-500,4,1,1,60,0,1
86943,-55.5555555555556,4,1,1,60,0,1
86985,-500,4,1,1,60,0,1
87027,-41.6666666666667,4,1,1,60,0,1
87068,-125,4,1,1,60,0,1
87193,-55.5555555555556,4,1,1,60,0,1
87235,-500,4,1,1,60,0,1
87276,-55.5555555555556,4,1,1,60,0,1
87318,-500,4,1,1,60,0,1
87360,-23.2558139534884,4,1,1,60,0,1
87381,-500,4,1,1,60,0,1
87402,-333.333333333333,4,1,1,60,0,1
87423,-250,4,1,1,60,0,1
87444,-200,4,1,1,60,0,1
87465,-166.666666666667,4,1,1,60,0,1
87485,-142.857142857143,4,1,1,60,0,1
87506,-125,4,1,1,60,0,1
87527,-111.111111111111,4,1,1,60,0,1
87548,-99.9999999999999,4,1,1,60,0,1
87569,-90.9090909090909,4,1,1,60,0,1
87590,-83.3333333333333,4,1,1,60,0,1
87609,-23.2558139534884,4,1,1,60,0,1
87630,-500,4,1,1,60,0,1
87651,-333.333333333333,4,1,1,60,0,1
87672,-250,4,1,1,60,0,1
87693,-200,4,1,1,60,0,1
87714,-166.666666666667,4,1,1,60,0,1
87734,-142.857142857143,4,1,1,60,0,1
87755,-125,4,1,1,60,0,1
87776,-111.111111111111,4,1,1,60,0,1
87797,-99.9999999999999,4,1,1,60,0,1
87818,-90.9090909090909,4,1,1,60,0,1
87839,-83.3333333333333,4,1,1,60,0,1
87860,-41.6666666666667,4,1,1,60,0,1
87902,-125,4,1,1,60,0,1
88026,-41.6666666666667,4,1,1,60,0,1
88068,-125,4,1,1,60,0,1
88193,-100,4,1,1,60,0,1
88359,-55.5555555555556,4,1,1,60,0,1
88401,-500,4,1,1,60,0,1
88442,-55.5555555555556,4,1,1,60,0,1
88484,-500,4,1,1,60,0,1
88526,-55.5555555555556,4,1,1,60,0,1
88567,-500,4,1,1,60,0,1
88609,-55.5555555555556,4,1,1,60,0,1
88651,-500,4,1,1,60,0,1
88692,-25,4,1,1,60,0,1
88713,-250,4,1,1,60,0,1
88776,-100,4,1,1,60,0,1
88942,-25,4,1,1,60,0,1
88963,-250,4,1,1,60,0,1
89026,-100,4,1,1,60,0,1
89192,-41.6666666666667,4,1,1,60,0,1
89213,-125,4,1,1,60,0,1
89276,-100,4,1,1,60,0,1
90026,-41.6666666666667,4,1,1,60,0,1
90068,-250,4,1,1,60,0,1
90109,-166.666666666667,4,1,1,60,0,1
90151,-125,4,1,1,60,0,1
90193,-100,4,1,1,60,0,1
90276,-41.6666666666667,4,1,1,60,0,1
90297,-125,4,1,1,60,0,1
90360,-100,4,1,1,60,0,1
90526,-55.5555555555556,4,1,1,60,0,1
90568,-500,4,1,1,60,0,1
90609,-55.5555555555556,4,1,1,60,0,1
90651,-500,4,1,1,60,0,1
90693,-40,4,1,1,60,0,1
90714,-200,4,1,1,60,0,1
90776,-62.5,4,1,1,60,0,1
90797,-250,4,1,1,60,0,1
90818,-62.5,4,1,1,60,0,1
90839,-250,4,1,1,60,0,1
90859,-62.5,4,1,1,60,0,1
90880,-250,4,1,1,60,0,1
90901,-62.5,4,1,1,60,0,1
90922,-250,4,1,1,60,0,1
90943,-100,4,1,1,60,0,1
91359,-40,4,1,1,60,0,1
91380,-200,4,1,1,60,0,1
91443,-100,4,1,1,60,0,1
91609,-40,4,1,1,60,0,1
91630,-200,4,1,1,60,0,1
91693,-100,4,1,1,60,0,1
91859,-40,4,1,1,60,0,1
91880,-200,4,1,1,60,0,1
91943,-100,4,1,1,60,0,1
92026,-40,4,1,1,60,0,1
92047,-200,4,1,1,60,0,1
92110,-100,4,1,1,60,0,1
92359,-40,4,1,1,60,0,1
92380,-200,4,1,1,60,0,1
92443,-100,4,1,1,60,0,1
92692,-40,4,1,1,60,0,1
92713,-200,4,1,1,60,0,1
92776,-100,4,1,1,60,0,1
92943,-40,4,1,1,60,0,1
92964,-200,4,1,1,60,0,1
93027,-100,4,1,1,60,0,1
93193,-40,4,1,1,60,0,1
93214,-200,4,1,1,60,0,1
93276,-100,4,1,1,60,0,1
93359,-40,4,1,1,60,0,1
93380,-200,4,1,1,60,0,1
93443,-100,4,1,1,60,0,1
93693,-40,4,1,1,60,0,1
93714,-200,4,1,1,60,0,1
93776,-100,4,1,1,60,0,1
94026,-40,4,1,1,60,0,1
94047,-200,4,1,1,60,0,1
94109,-100,4,1,1,60,0,1
94276,-40,4,1,1,60,0,1
94297,-200,4,1,1,60,0,1
94359,-100,4,1,1,60,0,1
94526,-40,4,1,1,60,0,1
94547,-200,4,1,1,60,0,1
94609,-100,4,1,1,60,0,1
94693,-40,4,1,1,60,0,1
94714,-200,4,1,1,60,0,1
94776,-100,4,1,1,60,0,1
95026,-40,4,1,1,60,0,1
95047,-200,4,1,1,60,0,1
95109,-100,4,1,1,60,0,1
95193,-55.5555555555556,4,1,1,60,0,1
95214,-500,4,1,1,60,0,1
95234,-55.5555555555556,4,1,1,60,0,1
95255,-500,4,1,1,60,0,1
95276,-100,4,1,1,60,0,1
95359,-41.6666666666667,4,1,1,60,0,1
95380,-125,4,1,1,60,0,1
95442,-100,4,1,1,60,0,1
95609,-41.6666666666667,4,1,1,60,0,1
95630,-125,4,1,1,60,0,1
95692,-100,4,1,1,60,0,1
95859,-41.6666666666667,4,1,1,60,0,1
95880,-125,4,1,1,60,0,1
95943,-100,4,1,1,60,0,1
96026,-41.6666666666667,4,1,1,60,0,1
96047,-125,4,1,1,60,0,1
96109,-100,4,1,1,60,0,1
96193,-62.5,4,1,1,60,0,1
96214,-250,4,1,1,60,0,1
96234,-62.5,4,1,1,60,0,1
96255,-250,4,1,1,60,0,1
96276,-62.5,4,1,1,60,0,1
96297,-250,4,1,1,60,0,1
96317,-62.5,4,1,1,60,0,1
96338,-250,4,1,1,60,0,1
96359,-40,4,1,1,60,0,1
96380,-200,4,1,1,60,0,1
96443,-100,4,1,1,60,0,1
96693,-41.6666666666667,4,1,1,60,0,1
96714,-125,4,1,1,60,0,1
96776,-100,4,1,1,60,0,1
96943,-41.6666666666667,4,1,1,60,0,1
96964,-125,4,1,1,60,0,1
97026,-100,4,1,1,60,0,1
97193,-41.6666666666667,4,1,1,60,0,1
97234,-125,4,1,1,60,0,1
97359,-41.6666666666667,4,1,1,60,0,0
97380,-125,4,1,1,60,0,0
97443,-22.2222222222222,4,1,1,60,0,0
97448,-1000,4,1,1,60,0,0
97485,-22.2222222222222,4,1,1,60,0,0
97490,-1000,4,1,1,60,0,0
97526,-22.2222222222222,4,1,1,60,0,0
97531,-1000,4,1,1,60,0,0
97568,-22.2222222222222,4,1,1,60,0,0
97573,-1000,4,1,1,60,0,0
97610,-22.2222222222222,4,1,1,60,0,0
97615,-500,4,1,1,60,0,0
97651,-22.2222222222222,4,1,1,60,0,0
97656,-500,4,1,1,60,0,0
97693,-22.2222222222222,4,1,1,60,0,0
97698,-500,4,1,1,60,0,0
97735,-22.2222222222222,4,1,1,60,0,0
97740,-333.333333333333,4,1,1,60,0,0
97777,-22.2222222222222,4,1,1,60,0,0
97782,-333.333333333333,4,1,1,60,0,0
97818,-22.2222222222222,4,1,1,60,0,0
97823,-333.333333333333,4,1,1,60,0,0
97860,-22.2222222222222,4,1,1,60,0,0
97865,-250,4,1,1,60,0,0
97902,-22.2222222222222,4,1,1,60,0,0
97907,-250,4,1,1,60,0,0
97943,-22.2222222222222,4,1,1,60,0,0
97948,-250,4,1,1,60,0,0
97985,-22.2222222222222,4,1,1,60,0,0
97990,-200,4,1,1,60,0,0
98026,-22.2222222222222,4,1,1,60,0,0
98031,-200,4,1,1,60,0,0
98068,-22.2222222222222,4,1,1,60,0,0
98073,-200,4,1,1,60,0,0
98109,-22.2222222222222,4,1,1,60,0,0
98114,-166.666666666667,4,1,1,60,0,0
98151,-22.2222222222222,4,1,1,60,0,0
98156,-166.666666666667,4,1,1,60,0,0
98193,-22.2222222222222,4,1,1,60,0,0
98198,-166.666666666667,4,1,1,60,0,0
98234,-22.2222222222222,4,1,1,60,0,0
98239,-166.666666666667,4,1,1,60,0,0
98276,-22.2222222222222,4,1,1,60,0,0
98281,-166.666666666667,4,1,1,60,0,0
98318,-22.2222222222222,4,1,1,60,0,0
98323,-166.666666666667,4,1,1,60,0,0
98360,-22.2222222222222,4,1,1,60,0,0
98365,-166.666666666667,4,1,1,60,0,0
98401,-22.2222222222222,4,1,1,60,0,0
98406,-166.666666666667,4,1,1,60,0,0
98443,-22.2222222222222,4,1,1,60,0,0
98448,-166.666666666667,4,1,1,60,0,0
98485,-22.2222222222222,4,1,1,60,0,0
98490,-166.666666666667,4,1,1,60,0,0
98526,-22.2222222222222,4,1,1,60,0,0
98531,-166.666666666667,4,1,1,60,0,0
98568,-22.2222222222222,4,1,1,60,0,0
98573,-166.666666666667,4,1,1,60,0,0
98610,-22.2222222222222,4,1,1,60,0,0
98615,-166.666666666667,4,1,1,60,0,0
98651,-22.2222222222222,4,1,1,60,0,0
98656,-166.666666666667,4,1,1,60,0,0
98690,-10,4,1,1,60,0,0
98693,-125,4,1,1,60,0,0
104026,-117.647058823529,4,1,1,60,0,0
105359,-111.111111111111,4,1,1,60,0,0
106693,-105.263157894737,4,1,1,60,0,0
108026,-100,4,1,1,60,0,0
108359,-90.9090909090909,4,1,1,60,0,0
108693,-83.3333333333333,4,1,1,60,0,0
109026,-76.9230769230769,4,1,1,60,0,0
109359,-45.4545454545455,4,1,1,60,0,0
109380,-100,4,1,1,60,0,0
109693,-45.4545454545455,4,1,1,60,0,0
109714,-100,4,1,1,60,0,0
110026,-45.4545454545455,4,1,1,60,0,0
110047,-100,4,1,1,60,0,0
110276,-45.4545454545455,4,1,1,60,0,0
110297,-100,4,1,1,60,0,0
110526,-45.4545454545455,4,1,1,60,0,0
110547,-100,4,1,1,60,0,0
110693,-45.4545454545455,4,1,1,60,0,0
110714,-100,4,1,1,60,0,0
111026,-45.4545454545455,4,1,1,60,0,0
111047,-100,4,1,1,60,0,0
111359,-45.4545454545455,4,1,1,60,0,0
111380,-100,4,1,1,60,0,0
111609,-45.4545454545455,4,1,1,60,0,0
111630,-100,4,1,1,60,0,0
111859,-45.4545454545455,4,1,1,60,0,0
111880,-100,4,1,1,60,0,0
112026,-45.4545454545455,4,1,1,60,0,0
112047,-100,4,1,1,60,0,0
112359,-45.4545454545455,4,1,1,60,0,0
112380,-100,4,1,1,60,0,0
112693,-45.4545454545455,4,1,1,60,0,0
112714,-100,4,1,1,60,0,0
112943,-45.4545454545455,4,1,1,60,0,0
112964,-100,4,1,1,60,0,0
113193,-45.4545454545455,4,1,1,60,0,0
113214,-100,4,1,1,60,0,0
113359,-41.6666666666667,4,1,1,60,0,0
113401,-125,4,1,1,60,0,0
113526,-100,4,1,1,60,0,0
113693,-41.6666666666667,4,1,1,60,0,0
113734,-125,4,1,1,60,0,0
113859,-100,4,1,1,60,0,0
114026,-41.6666666666667,4,1,1,60,0,0
114068,-125,4,1,1,60,0,0
114193,-100,4,1,1,60,0,0
114359,-41.6666666666667,4,1,1,60,0,0
114401,-125,4,1,1,60,0,0
114526,-100,4,1,1,60,0,0
114693,-45.4545454545455,4,1,1,60,0,0
114714,-100,4,1,1,60,0,0
115026,-45.4545454545455,4,1,1,60,0,0
115047,-100,4,1,1,60,0,0
115359,-45.4545454545455,4,1,1,60,0,0
115380,-100,4,1,1,60,0,0
115609,-45.4545454545455,4,1,1,60,0,0
115630,-100,4,1,1,60,0,0
115859,-45.4545454545455,4,1,1,60,0,0
115880,-100,4,1,1,60,0,0
116026,-45.4545454545455,4,1,1,60,0,0
116047,-100,4,1,1,60,0,0
116359,-45.4545454545455,4,1,1,60,0,0
116380,-100,4,1,1,60,0,0
116693,-45.4545454545455,4,1,1,60,0,0
116714,-100,4,1,1,60,0,0
116943,-45.4545454545455,4,1,1,60,0,0
116964,-100,4,1,1,60,0,0
117193,-45.4545454545455,4,1,1,60,0,0
117214,-100,4,1,1,60,0,0
117359,-45.4545454545455,4,1,1,60,0,0
117380,-100,4,1,1,60,0,0
117693,-45.4545454545455,4,1,1,60,0,0
117714,-100,4,1,1,60,0,0
118026,-45.4545454545455,4,1,1,60,0,0
118047,-100,4,1,1,60,0,0
118276,-45.4545454545455,4,1,1,60,0,0
118297,-100,4,1,1,60,0,0
118526,-45.4545454545455,4,1,1,60,0,0
118547,-100,4,1,1,60,0,0
118693,-125,4,1,1,60,0,0
120023,-10,4,1,1,60,0,0
120068,-100,4,1,1,60,0,0
120151,-200,4,1,1,60,0,0
120155.16,-196.078431372549,4,1,1,60,0,0
120159.32,-192.307692307692,4,1,1,60,0,0
120163.48,-188.679245283019,4,1,1,60,0,0
120167.64,-185.185185185185,4,1,1,60,0,0
120171.8,-181.818181818182,4,1,1,60,0,0
120175.96,-178.571428571429,4,1,1,60,0,0
120180.12,-175.438596491228,4,1,1,60,0,0
120184.28,-172.413793103448,4,1,1,60,0,0
120188.44,-169.491525423729,4,1,1,60,0,0
120192.6,-166.666666666667,4,1,1,60,0,0
120196.76,-163.934426229508,4,1,1,60,0,0
120200.92,-161.290322580645,4,1,1,60,0,0
120205.08,-158.730158730159,4,1,1,60,0,0
120209.24,-156.25,4,1,1,60,0,0
120213.4,-153.846153846154,4,1,1,60,0,0
120217.56,-151.515151515152,4,1,1,60,0,0
120221.72,-149.253731343284,4,1,1,60,0,0
120225.88,-147.058823529412,4,1,1,60,0,0
120230.04,-144.927536231884,4,1,1,60,0,0
120234.2,-142.857142857143,4,1,1,60,0,0
120238.36,-140.845070422535,4,1,1,60,0,0
120242.52,-138.888888888889,4,1,1,60,0,0
120246.68,-136.986301369863,4,1,1,60,0,0
120250.84,-135.135135135135,4,1,1,60,0,0
120255,-133.333333333333,4,1,1,60,0,0
120259.16,-131.578947368421,4,1,1,60,0,0
120263.32,-129.87012987013,4,1,1,60,0,0
120267.48,-128.205128205128,4,1,1,60,0,0
120271.64,-126.582278481013,4,1,1,60,0,0
120275.8,-125,4,1,1,60,0,0
120279.96,-123.456790123457,4,1,1,60,0,0
120284.12,-121.951219512195,4,1,1,60,0,0
120288.28,-120.481927710843,4,1,1,60,0,0
120292.44,-119.047619047619,4,1,1,60,0,0
120296.6,-117.647058823529,4,1,1,60,0,0
120300.76,-116.279069767442,4,1,1,60,0,0
120304.92,-114.942528735632,4,1,1,60,0,0
120309.08,-113.636363636364,4,1,1,60,0,0
120313.24,-112.359550561798,4,1,1,60,0,0
120317.4,-111.111111111111,4,1,1,60,0,0
120321.56,-109.89010989011,4,1,1,60,0,0
120325.72,-108.695652173913,4,1,1,60,0,0
120329.88,-107.52688172043,4,1,1,60,0,0
120334.04,-106.382978723404,4,1,1,60,0,0
120338.2,-105.263157894737,4,1,1,60,0,0
120342.36,-104.166666666667,4,1,1,60,0,0
120346.52,-103.092783505155,4,1,1,60,0,0
120350.68,-102.040816326531,4,1,1,60,0,0
120354.84,-101.010101010101,4,1,1,60,0,0
120359,-100,4,1,1,60,0,0
121026,-32.258064516129,4,1,1,60,0,0
121040,-10000,4,1,1,60,0,0
121068,-32.258064516129,4,1,1,60,0,0
121082,-10000,4,1,1,60,0,0
121109,-32.258064516129,4,1,1,60,0,0
121123,-10000,4,1,1,60,0,0
121151,-32.258064516129,4,1,1,60,0,0
121165,-10000,4,1,1,60,0,0
121193,-32.258064516129,4,1,1,60,0,0
121207,-10000,4,1,1,60,0,0
121235,-32.258064516129,4,1,1,60,0,0
121249,-10000,4,1,1,60,0,0
121276,-32.258064516129,4,1,1,60,0,0
121290,-10000,4,1,1,60,0,0
121318,-32.258064516129,4,1,1,60,0,0
121332,-10000,4,1,1,60,0,0
121359,-10,4,1,1,60,0,0
121401,-100,4,1,1,60,0,0
121484,-200,4,1,1,60,0,0
121488.16,-196.078431372549,4,1,1,60,0,0
121492.32,-192.307692307692,4,1,1,60,0,0
121496.48,-188.679245283019,4,1,1,60,0,0
121500.64,-185.185185185185,4,1,1,60,0,0
121504.8,-181.818181818182,4,1,1,60,0,0
121508.96,-178.571428571429,4,1,1,60,0,0
121513.12,-175.438596491228,4,1,1,60,0,0
121517.28,-172.413793103448,4,1,1,60,0,0
121521.44,-169.491525423729,4,1,1,60,0,0
121525.6,-166.666666666667,4,1,1,60,0,0
121529.76,-163.934426229508,4,1,1,60,0,0
121533.92,-161.290322580645,4,1,1,60,0,0
121538.08,-158.730158730159,4,1,1,60,0,0
121542.24,-156.25,4,1,1,60,0,0
121546.4,-153.846153846154,4,1,1,60,0,0
121550.56,-151.515151515152,4,1,1,60,0,0
121554.72,-149.253731343284,4,1,1,60,0,0
121558.88,-147.058823529412,4,1,1,60,0,0
121563.04,-144.927536231884,4,1,1,60,0,0
121567.2,-142.857142857143,4,1,1,60,0,0
121571.36,-140.845070422535,4,1,1,60,0,0
121575.52,-138.888888888889,4,1,1,60,0,0
121579.68,-136.986301369863,4,1,1,60,0,0
121583.84,-135.135135135135,4,1,1,60,0,0
121588,-133.333333333333,4,1,1,60,0,0
121592.16,-131.578947368421,4,1,1,60,0,0
121596.32,-129.87012987013,4,1,1,60,0,0
121600.48,-128.205128205128,4,1,1,60,0,0
121604.64,-126.582278481013,4,1,1,60,0,0
121608.8,-125,4,1,1,60,0,0
121612.96,-123.456790123457,4,1,1,60,0,0
121617.12,-121.951219512195,4,1,1,60,0,0
121621.28,-120.481927710843,4,1,1,60,0,0
121625.44,-119.047619047619,4,1,1,60,0,0
121629.6,-117.647058823529,4,1,1,60,0,0
121633.76,-116.279069767442,4,1,1,60,0,0
121637.92,-114.942528735632,4,1,1,60,0,0
121642.08,-113.636363636364,4,1,1,60,0,0
121646.24,-112.359550561798,4,1,1,60,0,0
121650.4,-111.111111111111,4,1,1,60,0,0
121654.56,-109.89010989011,4,1,1,60,0,0
121658.72,-108.695652173913,4,1,1,60,0,0
121662.88,-107.52688172043,4,1,1,60,0,0
121667.04,-106.382978723404,4,1,1,60,0,0
121671.2,-105.263157894737,4,1,1,60,0,0
121675.36,-104.166666666667,4,1,1,60,0,0
121679.52,-103.092783505155,4,1,1,60,0,0
121683.68,-102.040816326531,4,1,1,60,0,0
121687.84,-101.010101010101,4,1,1,60,0,0
121693,-100,4,1,1,60,0,0
122359,-32.258064516129,4,1,1,60,0,0
122373,-10000,4,1,1,60,0,0
122401,-32.258064516129,4,1,1,60,0,0
122415,-10000,4,1,1,60,0,0
122442,-32.258064516129,4,1,1,60,0,0
122456,-10000,4,1,1,60,0,0
122484,-32.258064516129,4,1,1,60,0,0
122498,-10000,4,1,1,60,0,0
122526,-71.4285714285714,4,1,1,60,0,0
122568,-166.666666666667,4,1,1,60,0,0
122609,-71.4285714285714,4,1,1,60,0,0
122651,-166.666666666667,4,1,1,60,0,0
122693,-41.6666666666667,4,1,1,60,0,0
122734,-125,4,1,1,60,0,0
122859,-55.5555555555556,4,1,1,60,0,0
122901,-500,4,1,1,60,0,0
122943,-55.5555555555556,4,1,1,60,0,0
122984,-500,4,1,1,60,0,0
123026,-55.5555555555556,4,1,1,60,0,0
123068,-500,4,1,1,60,0,0
123110,-55.5555555555556,4,1,1,60,0,0
123151,-500,4,1,1,60,0,0
123193,-55.5555555555556,4,1,1,60,0,0
123235,-500,4,1,1,60,0,0
123277,-55.5555555555556,4,1,1,60,0,0
123318,-500,4,1,1,60,0,0
123359,-23.2558139534884,4,1,1,60,0,0
123380,-500,4,1,1,60,0,0
123401,-333.333333333333,4,1,1,60,0,0
123422,-250,4,1,1,60,0,0
123443,-200,4,1,1,60,0,0
123464,-166.666666666667,4,1,1,60,0,0
123484,-142.857142857143,4,1,1,60,0,0
123505,-125,4,1,1,60,0,0
123526,-111.111111111111,4,1,1,60,0,0
123547,-99.9999999999999,4,1,1,60,0,0
123568,-90.9090909090909,4,1,1,60,0,0
123589,-83.3333333333333,4,1,1,60,0,0
123609,-23.2558139534884,4,1,1,60,0,0
123630,-500,4,1,1,60,0,0
123651,-333.333333333333,4,1,1,60,0,0
123672,-250,4,1,1,60,0,0
123693,-200,4,1,1,60,0,0
123714,-166.666666666667,4,1,1,60,0,0
123734,-142.857142857143,4,1,1,60,0,0
123755,-125,4,1,1,60,0,0
123776,-111.111111111111,4,1,1,60,0,0
123797,-99.9999999999999,4,1,1,60,0,0
123859,-41.6666666666667,4,1,1,60,0,0
123901,-125,4,1,1,60,0,0
124026,-41.6666666666667,4,1,1,60,0,0
124068,-125,4,1,1,60,0,0
124193,-100,4,1,1,60,0,0
124359,-41.6666666666667,4,1,1,60,0,0
124401,-125,4,1,1,60,0,0
124526,-100,4,1,1,60,0,0
124693,-41.6666666666667,4,1,1,60,0,0
124735,-125,4,1,1,60,0,0
124860,-100,4,1,1,60,0,0
125026,-41.6666666666667,4,1,1,60,0,0
125068,-125,4,1,1,60,0,0
125193,-100,4,1,1,60,0,0
125359,-41.6666666666667,4,1,1,60,0,0
125400,-125,4,1,1,60,0,0
125526,-55.5555555555556,4,1,1,60,0,0
125568,-500,4,1,1,60,0,0
125610,-55.5555555555556,4,1,1,60,0,0
125651,-500,4,1,1,60,0,0
125693,-55.5555555555556,4,1,1,60,0,0
125735,-500,4,1,1,60,0,0
125777,-55.5555555555556,4,1,1,60,0,0
125818,-500,4,1,1,60,0,0
125859,-55.5555555555556,4,1,1,60,0,0
125901,-500,4,1,1,60,0,0
125943,-55.5555555555556,4,1,1,60,0,0
125984,-500,4,1,1,60,0,0
126026,-23.2558139534884,4,1,1,60,0,0
126047,-500,4,1,1,60,0,0
126068,-333.333333333333,4,1,1,60,0,0
126089,-250,4,1,1,60,0,0
126110,-200,4,1,1,60,0,0
126131,-166.666666666667,4,1,1,60,0,0
126151,-142.857142857143,4,1,1,60,0,0
126172,-125,4,1,1,60,0,0
126193,-111.111111111111,4,1,1,60,0,0
126214,-99.9999999999999,4,1,1,60,0,0
126235,-90.9090909090909,4,1,1,60,0,0
126256,-83.3333333333333,4,1,1,60,0,0
126276,-23.2558139534884,4,1,1,60,0,0
126297,-500,4,1,1,60,0,0
126318,-333.333333333333,4,1,1,60,0,0
126339,-250,4,1,1,60,0,0
126360,-200,4,1,1,60,0,0
126381,-166.666666666667,4,1,1,60,0,0
126401,-142.857142857143,4,1,1,60,0,0
126422,-125,4,1,1,60,0,0
126443,-111.111111111111,4,1,1,60,0,0
126464,-99.9999999999999,4,1,1,60,0,0
126526,-41.6666666666667,4,1,1,60,0,0
126568,-125,4,1,1,60,0,0
126693,-41.6666666666667,4,1,1,60,0,0
126734,-125,4,1,1,60,0,0
126859,-55.5555555555556,4,1,1,60,0,0
126901,-500,4,1,1,60,0,0
126943,-55.5555555555556,4,1,1,60,0,0
126984,-500,4,1,1,60,0,0
127026,-55.5555555555556,4,1,1,60,0,0
127068,-500,4,1,1,60,0,0
127110,-55.5555555555556,4,1,1,60,0,0
127151,-500,4,1,1,60,0,0
127192,-55.5555555555556,4,1,1,60,0,0
127234,-500,4,1,1,60,0,0
127276,-55.5555555555556,4,1,1,60,0,0
127317,-500,4,1,1,60,0,0
127359,-23.2558139534884,4,1,1,60,0,0
127380,-500,4,1,1,60,0,0
127401,-333.333333333333,4,1,1,60,0,0
127422,-250,4,1,1,60,0,0
127443,-200,4,1,1,60,0,0
127464,-166.666666666667,4,1,1,60,0,0
127484,-142.857142857143,4,1,1,60,0,0
127505,-125,4,1,1,60,0,0
127526,-111.111111111111,4,1,1,60,0,0
127547,-99.9999999999999,4,1,1,60,0,0
127568,-90.9090909090909,4,1,1,60,0,0
127589,-83.3333333333333,4,1,1,60,0,0
127609,-23.2558139534884,4,1,1,60,0,0
127630,-500,4,1,1,60,0,0
127651,-333.333333333333,4,1,1,60,0,0
127672,-250,4,1,1,60,0,0
127693,-200,4,1,1,60,0,0
127714,-166.666666666667,4,1,1,60,0,0
127734,-142.857142857143,4,1,1,60,0,0
127755,-125,4,1,1,60,0,0
127776,-111.111111111111,4,1,1,60,0,0
127797,-99.9999999999999,4,1,1,60,0,0
127859,-41.6666666666667,4,1,1,60,0,0
127901,-125,4,1,1,60,0,0
128026,-41.6666666666667,4,1,1,60,0,0
128067,-125,4,1,1,60,0,0
128193,-55.5555555555556,4,1,1,60,0,0
128235,-500,4,1,1,60,0,0
128277,-55.5555555555556,4,1,1,60,0,0
128318,-500,4,1,1,60,0,0
128360,-55.5555555555556,4,1,1,60,0,0
128402,-500,4,1,1,60,0,0
128444,-55.5555555555556,4,1,1,60,0,0
128485,-500,4,1,1,60,0,0
128526,-55.5555555555556,4,1,1,60,0,0
128568,-500,4,1,1,60,0,0
128610,-55.5555555555556,4,1,1,60,0,0
128651,-500,4,1,1,60,0,0
128693,-23.2558139534884,4,1,1,60,0,0
128714,-500,4,1,1,60,0,0
128735,-333.333333333333,4,1,1,60,0,0
128756,-250,4,1,1,60,0,0
128777,-200,4,1,1,60,0,0
128798,-166.666666666667,4,1,1,60,0,0
128818,-142.857142857143,4,1,1,60,0,0
128839,-125,4,1,1,60,0,0
128860,-111.111111111111,4,1,1,60,0,0
128881,-99.9999999999999,4,1,1,60,0,0
128902,-90.9090909090909,4,1,1,60,0,0
128923,-83.3333333333333,4,1,1,60,0,0
128943,-23.2558139534884,4,1,1,60,0,0
128964,-500,4,1,1,60,0,0
128985,-333.333333333333,4,1,1,60,0,0
129006,-250,4,1,1,60,0,0
129027,-200,4,1,1,60,0,0
129048,-166.666666666667,4,1,1,60,0,0
129068,-142.857142857143,4,1,1,60,0,0
129089,-125,4,1,1,60,0,0
129110,-111.111111111111,4,1,1,60,0,0
129131,-99.9999999999999,4,1,1,60,0,0
129193,-41.6666666666667,4,1,1,60,0,0
129235,-125,4,1,1,60,0,0
129360,-41.6666666666667,4,1,1,60,0,0
129401,-125,4,1,1,60,0,0
129526,-100,4,1,1,60,0,0
129693,-41.6666666666667,4,1,1,60,0,0
129734,-125,4,1,1,60,0,0
129859,-100,4,1,1,60,0,0
130026,-41.6666666666667,4,1,1,60,0,0
130067,-125,4,1,1,60,0,0
130192,-100,4,1,1,60,0,0
130359,-41.6666666666667,4,1,1,60,0,0
130400,-125,4,1,1,60,0,0
130525,-100,4,1,1,60,0,0
130690,-10,4,1,1,60,0,0
130734,-200,4,1,1,60,0,0
130859,-142.857142857143,4,1,1,60,0,0
130901,-125,4,1,1,60,0,0
130943,-111.111111111111,4,1,1,60,0,0
130984,-100,4,1,1,60,0,0
131026,-55.5555555555556,4,1,1,60,0,0
131068,-500,4,1,1,60,0,0
131109,-55.5555555555556,4,1,1,60,0,0
131151,-500,4,1,1,60,0,0
131193,-55.5555555555556,4,1,1,60,0,0
131234,-500,4,1,1,60,0,0
131276,-55.5555555555556,4,1,1,60,0,0
131318,-500,4,1,1,60,0,0
131359,-25,4,1,1,60,0,1
131380,-250,4,1,1,60,0,1
131443,-100,4,1,1,60,0,1
131609,-25,4,1,1,60,0,1
131630,-250,4,1,1,60,0,1
131693,-100,4,1,1,60,0,1
131859,-41.6666666666667,4,1,1,60,0,1
131880,-125,4,1,1,60,0,1
131943,-100,4,1,1,60,0,1
132026,-41.6666666666667,4,1,1,60,0,1
132047,-125,4,1,1,60,0,1
132110,-100,4,1,1,60,0,1
132693,-41.6666666666667,4,1,1,60,0,1
132714,-125,4,1,1,60,0,1
132777,-100,4,1,1,60,0,1
132943,-41.6666666666667,4,1,1,60,0,1
132964,-125,4,1,1,60,0,1
133027,-100,4,1,1,60,0,1
133109,-41.6666666666667,4,1,1,60,0,1
133130,-125,4,1,1,60,0,1
133193,-41.6666666666667,4,1,1,60,0,1
133214,-125,4,1,1,60,0,1
133276,-41.6666666666667,4,1,1,60,0,1
133297,-125,4,1,1,60,0,1
133359,-55.5555555555556,4,1,1,60,0,1
133401,-500,4,1,1,60,0,1
133443,-55.5555555555556,4,1,1,60,0,1
133484,-500,4,1,1,60,0,1
133526,-55.5555555555556,4,1,1,60,0,1
133568,-500,4,1,1,60,0,1
133610,-55.5555555555556,4,1,1,60,0,1
133651,-500,4,1,1,60,0,1
133692,-55.5555555555556,4,1,1,60,0,1
133734,-500,4,1,1,60,0,1
133776,-55.5555555555556,4,1,1,60,0,1
133817,-500,4,1,1,60,0,1
133859,-55.5555555555556,4,1,1,60,0,1
133901,-500,4,1,1,60,0,1
133943,-55.5555555555556,4,1,1,60,0,1
133984,-500,4,1,1,60,0,1
134026,-23.2558139534884,4,1,1,60,0,1
134047,-500,4,1,1,60,0,1
134068,-333.333333333333,4,1,1,60,0,1
134089,-250,4,1,1,60,0,1
134110,-200,4,1,1,60,0,1
134131,-166.666666666667,4,1,1,60,0,1
134151,-142.857142857143,4,1,1,60,0,1
134172,-125,4,1,1,60,0,1
134193,-111.111111111111,4,1,1,60,0,1
134214,-99.9999999999999,4,1,1,60,0,1
134235,-90.9090909090909,4,1,1,60,0,1
134256,-83.3333333333333,4,1,1,60,0,1
134276,-41.6666666666667,4,1,1,60,0,1
134297,-125,4,1,1,60,0,1
134359,-41.6666666666667,4,1,1,60,0,1
134380,-125,4,1,1,60,0,1
134443,-100,4,1,1,60,0,1
134526,-41.6666666666667,4,1,1,60,0,1
134547,-125,4,1,1,60,0,1
134609,-100,4,1,1,60,0,1
134693,-41.6666666666667,4,1,1,60,0,1
134714,-125,4,1,1,60,0,1
134776,-100,4,1,1,60,0,1
135026,-41.6666666666667,4,1,1,60,0,1
135047,-125,4,1,1,60,0,1
135109,-100,4,1,1,60,0,1
135359,-41.6666666666667,4,1,1,60,0,1
135380,-125,4,1,1,60,0,1
135442,-100,4,1,1,60,0,1
135693,-41.6666666666667,4,1,1,60,0,1
135714,-125,4,1,1,60,0,1
135776,-100,4,1,1,60,0,1
136026,-55.5555555555556,4,1,1,60,0,1
136068,-500,4,1,1,60,0,1
136110,-55.5555555555556,4,1,1,60,0,1
136151,-500,4,1,1,60,0,1
136193,-55.5555555555556,4,1,1,60,0,1
136235,-500,4,1,1,60,0,1
136277,-55.5555555555556,4,1,1,60,0,1
136318,-500,4,1,1,60,0,1
136359,-55.5555555555556,4,1,1,60,0,1
136401,-500,4,1,1,60,0,1
136443,-55.5555555555556,4,1,1,60,0,1
136484,-500,4,1,1,60,0,1
136526,-55.5555555555556,4,1,1,60,0,1
136568,-500,4,1,1,60,0,1
136610,-55.5555555555556,4,1,1,60,0,1
136651,-500,4,1,1,60,0,1
136693,-23.2558139534884,4,1,1,60,0,1
136714,-500,4,1,1,60,0,1
136735,-333.333333333333,4,1,1,60,0,1
136756,-250,4,1,1,60,0,1
136777,-200,4,1,1,60,0,1
136798,-166.666666666667,4,1,1,60,0,1
136818,-142.857142857143,4,1,1,60,0,1
136839,-125,4,1,1,60,0,1
136860,-111.111111111111,4,1,1,60,0,1
136881,-99.9999999999999,4,1,1,60,0,1
136902,-90.9090909090909,4,1,1,60,0,1
136923,-83.3333333333333,4,1,1,60,0,1
136943,-41.6666666666667,4,1,1,60,0,1
136964,-125,4,1,1,60,0,1
137026,-41.6666666666667,4,1,1,60,0,1
137047,-125,4,1,1,60,0,1
137110,-100,4,1,1,60,0,1
137193,-41.6666666666667,4,1,1,60,0,1
137214,-125,4,1,1,60,0,1
137276,-100,4,1,1,60,0,1
137359,-55.5555555555556,4,1,1,60,0,1
137401,-500,4,1,1,60,0,1
137443,-55.5555555555556,4,1,1,60,0,1
137484,-500,4,1,1,60,0,1
137526,-55.5555555555556,4,1,1,60,0,1
137568,-500,4,1,1,60,0,1
137610,-55.5555555555556,4,1,1,60,0,1
137651,-500,4,1,1,60,0,1
137693,-55.5555555555556,4,1,1,60,0,1
137735,-500,4,1,1,60,0,1
137777,-55.5555555555556,4,1,1,60,0,1
137818,-500,4,1,1,60,0,1
137860,-55.5555555555556,4,1,1,60,0,1
137902,-500,4,1,1,60,0,1
137944,-55.5555555555556,4,1,1,60,0,1
137985,-500,4,1,1,60,0,1
138026,-23.2558139534884,4,1,1,60,0,1
138047,-500,4,1,1,60,0,1
138068,-333.333333333333,4,1,1,60,0,1
138089,-250,4,1,1,60,0,1
138110,-200,4,1,1,60,0,1
138131,-166.666666666667,4,1,1,60,0,1
138151,-142.857142857143,4,1,1,60,0,1
138172,-125,4,1,1,60,0,1
138193,-111.111111111111,4,1,1,60,0,1
138214,-99.9999999999999,4,1,1,60,0,1
138235,-90.9090909090909,4,1,1,60,0,1
138256,-83.3333333333333,4,1,1,60,0,1
138276,-41.6666666666667,4,1,1,60,0,1
138297,-125,4,1,1,60,0,1
138359,-41.6666666666667,4,1,1,60,0,1
138380,-125,4,1,1,60,0,1
138443,-100,4,1,1,60,0,1
138527,-41.6666666666667,4,1,1,60,0,1
138568,-125,4,1,1,60,0,1
138693,-55.5555555555556,4,1,1,60,0,1
138735,-500,4,1,1,60,0,1
138777,-55.5555555555556,4,1,1,60,0,1
138818,-500,4,1,1,60,0,1
138860,-55.5555555555556,4,1,1,60,0,1
138902,-500,4,1,1,60,0,1
138944,-55.5555555555556,4,1,1,60,0,1
138985,-500,4,1,1,60,0,1
139026,-55.5555555555556,4,1,1,60,0,1
139068,-500,4,1,1,60,0,1
139110,-55.5555555555556,4,1,1,60,0,1
139151,-500,4,1,1,60,0,1
139193,-55.5555555555556,4,1,1,60,0,1
139235,-500,4,1,1,60,0,1
139277,-55.5555555555556,4,1,1,60,0,1
139318,-500,4,1,1,60,0,1
139359,-23.2558139534884,4,1,1,60,0,1
139380,-500,4,1,1,60,0,1
139401,-333.333333333333,4,1,1,60,0,1
139422,-250,4,1,1,60,0,1
139443,-200,4,1,1,60,0,1
139464,-166.666666666667,4,1,1,60,0,1
139484,-142.857142857143,4,1,1,60,0,1
139505,-125,4,1,1,60,0,1
139526,-111.111111111111,4,1,1,60,0,1
139547,-99.9999999999999,4,1,1,60,0,1
139568,-90.9090909090909,4,1,1,60,0,1
139589,-83.3333333333333,4,1,1,60,0,1
139609,-41.6666666666667,4,1,1,60,0,1
139630,-125,4,1,1,60,0,1
139692,-41.6666666666667,4,1,1,60,0,1
139713,-125,4,1,1,60,0,1
139776,-100,4,1,1,60,0,1
139859,-41.6666666666667,4,1,1,60,0,1
139880,-125,4,1,1,60,0,1
139942,-100,4,1,1,60,0,1
140026,-41.6666666666667,4,1,1,60,0,1
140047,-125,4,1,1,60,0,1
140109,-100,4,1,1,60,0,1
140359,-41.6666666666667,4,1,1,60,0,1
140380,-125,4,1,1,60,0,1
140442,-100,4,1,1,60,0,1
140692,-41.6666666666667,4,1,1,60,0,1
140713,-125,4,1,1,60,0,1
140775,-100,4,1,1,60,0,1
141026,-41.6666666666667,4,1,1,60,0,1
141047,-125,4,1,1,60,0,1
141109,-100,4,1,1,60,0,1
141359,-41.6666666666667,4,1,1,60,0,0
141401,-125,4,1,1,60,0,0
142693,-111.111111111111,4,1,1,60,0,0
144026,-105.263157894737,4,1,1,60,0,0
146693,-100,4,1,1,60,0,0
152026,-50,4,1,1,60,0,0
152047,-125,4,1,1,60,0,0
152109,-100,4,1,1,60,0,0
152359,-50,4,1,1,60,0,0
152380,-125,4,1,1,60,0,0
152442,-100,4,1,1,60,0,0
152693,-50,4,1,1,60,0,0
152714,-125,4,1,1,60,0,0
152776,-100,4,1,1,60,0,0
153026,-50,4,1,1,60,0,0
153047,-125,4,1,1,60,0,0
153109,-100,4,1,1,60,0,0
153359,-50,4,1,1,60,0,0
153380,-125,4,1,1,60,0,0
153442,-100,4,1,1,60,0,0
153693,-50,4,1,1,60,0,0
153714,-125,4,1,1,60,0,0
153776,-100,4,1,1,60,0,0
154026,-50,4,1,1,60,0,0
154047,-125,4,1,1,60,0,0
154109,-100,4,1,1,60,0,0
154359,-50,4,1,1,60,0,0
154380,-125,4,1,1,60,0,0
154442,-100,4,1,1,60,0,0
154693,-50,4,1,1,60,0,0
154714,-125,4,1,1,60,0,0
154776,-100,4,1,1,60,0,0
155026,-50,4,1,1,60,0,0
155047,-125,4,1,1,60,0,0
155109,-100,4,1,1,60,0,0
155359,-50,4,1,1,60,0,0
155380,-125,4,1,1,60,0,0
155442,-100,4,1,1,60,0,0
155693,-50,4,1,1,60,0,0
155714,-125,4,1,1,60,0,0
155776,-100,4,1,1,60,0,0
156026,-50,4,1,1,60,0,0
156047,-125,4,1,1,60,0,0
156109,-100,4,1,1,60,0,0
156359,-50,4,1,1,60,0,0
156380,-125,4,1,1,60,0,0
156442,-100,4,1,1,60,0,0
156693,-50,4,1,1,60,0,0
156714,-125,4,1,1,60,0,0
156776,-100,4,1,1,60,0,0
157026,-50,4,1,1,60,0,0
157047,-125,4,1,1,60,0,0
157109,-100,4,1,1,60,0,0
157359,-105.263157894737,4,1,1,60,0,0
157693,-111.111111111111,4,1,1,60,0,0
158026,-117.647058823529,4,1,1,60,0,0
158359,-125,4,1,1,60,0,0

[HitObjects]
448,192,359,128,0,2692:0:0:0:0:
64,192,2692,1,2,0:0:0:0:
320,192,2692,1,0,0:0:0:30:Finish.wav
320,192,2859,1,0,0:0:0:0:
64,192,3025,1,0,0:0:0:0:
448,192,3025,1,8,0:0:0:0:
192,192,3192,1,0,0:0:0:0:
192,192,3359,1,0,0:0:0:0:
192,192,3525,1,0,0:0:0:0:
64,192,3692,1,0,0:0:0:0:
448,192,3692,1,8,0:0:0:0:
320,192,3859,1,0,0:0:0:0:
320,192,4025,1,0,0:0:0:0:
192,192,4109,1,0,0:0:0:0:
320,192,4192,1,0,0:0:0:0:
64,192,4359,1,8,0:0:0:0:
448,192,4359,1,0,0:0:0:0:
320,192,4525,1,0,0:0:0:0:
192,192,4692,1,0,0:0:0:0:
448,192,4775,1,8,0:0:0:0:
320,192,4775,1,0,0:0:0:0:
64,192,4859,1,0,0:0:0:0:
192,192,4942,1,0,0:0:0:0:
448,192,5025,1,0,0:0:0:0:
320,192,5025,1,8,0:0:0:0:
64,192,5109,1,0,0:0:0:0:
320,192,5192,128,0,5359:0:0:0:0:
192,192,5359,1,0,0:0:0:0:
192,192,5525,1,0,0:0:0:0:
64,192,5692,1,0,0:0:0:0:
448,192,5692,1,8,0:0:0:0:
320,192,5859,1,0,0:0:0:0:
192,192,6025,1,0,0:0:0:0:
320,192,6109,1,0,0:0:0:0:
192,192,6192,1,0,0:0:0:0:
64,192,6359,1,0,0:0:0:0:
448,192,6359,1,8,0:0:0:0:
192,192,6525,1,0,0:0:0:0:
320,192,6692,1,0,0:0:0:0:
192,192,6775,1,0,0:0:0:0:
320,192,6859,1,0,0:0:0:0:
64,192,7025,1,0,0:0:0:0:
448,192,7025,1,8,0:0:0:0:
320,192,7192,1,0,0:0:0:0:
192,192,7359,1,0,0:0:0:0:
448,192,7442,1,8,0:0:0:0:
320,192,7442,1,0,0:0:0:0:
64,192,7525,1,0,0:0:0:0:
192,192,7609,1,0,0:0:0:0:
448,192,7692,1,0,0:0:0:0:
320,192,7692,1,8,0:0:0:0:
64,192,7859,1,0,0:0:0:0:
192,192,7859,128,0,8025:0:0:0:0:
320,192,8025,1,0,0:0:0:0:
320,192,8192,1,0,0:0:0:0:
64,192,8359,1,8,0:0:0:0:
448,192,8359,1,0,0:0:0:0:
448,192,8525,128,0,8692:0:0:0:0:
192,192,8692,1,0,0:0:0:0:
320,192,8775,1,0,0:0:0:0:
192,192,8859,1,0,0:0:0:0:
64,192,9025,1,0,0:0:0:0:
448,192,9025,1,8,0:0:0:0:
192,192,9192,1,0,0:0:0:0:
320,192,9359,1,0,0:0:0:0:
192,192,9442,1,0,0:0:0:0:
320,192,9525,1,0,0:0:0:0:
64,192,9692,1,0,0:0:0:0:
448,192,9692,1,8,0:0:0:0:
448,192,9859,128,0,10025:0:0:0:0:
192,192,10025,1,0,0:0:0:0:
448,192,10109,1,0,0:0:0:0:
320,192,10109,1,8,0:0:0:0:
64,192,10192,1,0,0:0:0:0:
192,192,10275,1,0,0:0:0:0:
448,192,10359,1,8,0:0:0:0:
320,192,10359,1,0,0:0:0:0:
64,192,10442,1,0,0:0:0:0:
320,192,10525,128,0,10692:0:0:0:0:
192,192,10692,1,0,0:0:0:0:
192,192,10859,1,0,0:0:0:0:
64,192,11025,1,8,0:0:0:0:
448,192,11025,1,0,0:0:0:0:
448,192,11192,128,0,11359:0:0:0:0:
192,192,11359,1,0,0:0:0:0:
320,192,11442,1,0,0:0:0:0:
192,192,11525,1,0,0:0:0:0:
64,192,11692,1,8,0:0:0:0:
448,192,11692,1,0,0:0:0:0:
320,192,11859,1,0,0:0:0:0:
320,192,12025,1,0,0:0:0:0:
192,192,12109,1,0,0:0:0:0:
320,192,12192,1,0,0:0:0:0:
64,192,12359,1,8,0:0:0:0:
448,192,12359,128,0,12692:0:0:0:0:
192,192,12525,1,0,0:0:0:0:
320,192,12692,128,0,13025:0:0:0:0:
192,192,12775,1,8,0:0:0:0:
64,192,12775,1,0,0:0:0:0:
448,192,12859,1,0,0:0:0:0:
192,192,12942,1,0,0:0:0:0:
448,192,13025,128,0,13359:0:0:0:0:
64,192,13025,1,8,0:0:0:0:
192,192,13192,1,0,0:0:0:0:
320,192,13359,128,0,13442:0:0:0:0:
64,192,13359,128,2,13442:0:0:0:0:
192,192,13525,1,0,0:0:0:0:
320,192,13692,1,8,0:0:0:0:
64,192,13692,1,0,0:0:0:0:
448,192,13859,1,0,0:0:0:0:
320,192,13942,1,0,0:0:0:0:
192,192,14025,128,0,14109:0:0:0:0:
64,192,14025,128,2,14109:0:0:0:0:
448,192,14109,1,0,0:0:0:0:
320,192,14192,1,0,0:0:0:0:
192,192,14275,128,0,14359:0:0:0:0:
64,192,14275,128,0,14359:0:0:0:0:
448,192,14359,1,8,0:0:0:0:
320,192,14359,1,0,0:0:0:0:
192,192,14525,128,0,14609:0:0:0:0:
448,192,14525,128,0,14609:0:0:0:0:
64,192,14692,128,2,14775:0:0:0:0:
320,192,14692,128,0,14775:0:0:0:0:
320,192,14859,1,0,0:0:0:0:
64,192,15025,128,8,15109:0:0:0:0:
448,192,15025,128,0,15109:0:0:0:0:
192,192,15192,1,0,0:0:0:0:
64,192,15275,1,0,0:0:0:0:
448,192,15359,128,0,15442:0:0:0:0:
320,192,15359,128,2,15442:0:0:0:0:
192,192,15442,1,0,0:0:0:0:
64,192,15525,1,0,0:0:0:0:
320,192,15609,128,0,15692:0:0:0:0:
448,192,15609,128,0,15692:0:0:0:0:
192,192,15692,1,8,0:0:0:0:
64,192,15692,128,0,16025:0:0:0:0:
448,192,15859,128,0,15942:0:0:0:0:
192,192,15859,128,0,15942:0:0:0:0:
448,192,16025,128,2,16109:0:0:0:0:
320,192,16025,128,0,16109:0:0:0:0:
192,192,16192,1,0,0:0:0:0:
320,192,16359,128,0,16442:0:0:0:0:
64,192,16359,128,8,16442:0:0:0:0:
448,192,16525,1,0,0:0:0:0:
320,192,16609,1,0,0:0:0:0:
192,192,16692,128,0,16775:0:0:0:0:
64,192,16692,128,2,16775:0:0:0:0:
448,192,16775,1,0,0:0:0:0:
320,192,16859,1,0,0:0:0:0:
192,192,16942,128,0,17025:0:0:0:0:
64,192,16942,128,0,17025:0:0:0:0:
448,192,17025,1,8,0:0:0:0:
320,192,17025,1,0,0:0:0:0:
448,192,17192,128,0,17275:0:0:0:0:
64,192,17192,128,0,17275:0:0:0:0:
64,192,17359,128,0,17442:0:0:0:0:
192,192,17359,128,2,17442:0:0:0:0:
320,192,17525,1,0,0:0:0:0:
448,192,17692,128,8,17775:0:0:0:0:
64,192,17692,128,0,17775:0:0:0:0:
192,192,17859,1,0,0:0:0:0:
320,192,17942,1,0,0:0:0:0:
192,192,18025,128,2,18109:0:0:0:0:
64,192,18025,128,0,18109:0:0:0:0:
448,192,18109,1,8,0:0:0:0:
320,192,18109,1,0,0:0:0:0:
192,192,18192,1,0,0:0:0:0:
448,192,18275,1,8,0:0:0:0:
320,192,18275,1,0,0:0:0:0:
192,192,18359,128,2,18442:0:0:0:0:
64,192,18359,128,0,18442:0:0:0:0:
320,192,18525,128,0,18692:0:0:0:0:
64,192,18525,1,8,0:0:0:0:
64,192,18692,1,2,0:0:0:0:
192,192,18692,128,0,19025:0:0:0:0:
64,192,19025,1,2,0:0:0:0:
448,192,19025,1,8,0:0:0:0:
320,192,19192,128,0,19359:0:0:0:0:
192,192,19359,128,2,19609:0:0:0:0:
64,192,19359,1,8,0:0:0:0:
320,192,19609,1,0,0:0:0:0:
64,192,19692,1,2,0:0:0:0:
448,192,19692,1,8,0:0:0:0:
320,192,19859,128,0,20025:0:0:0:0:
192,192,20025,128,2,20192:0:0:0:0:
64,192,20025,1,8,0:0:0:0:
320,192,20192,1,0,0:0:0:40:snare1.wav
192,192,20275,1,0,0:0:0:40:snare1.wav
320,192,20359,1,0,0:0:0:40:snare1.wav
448,192,20359,1,10,0:0:0:0:
192,192,20525,1,0,0:0:0:40:snare1.wav
320,192,20609,1,0,0:0:0:40:snare1.wav
192,192,20692,1,10,0:0:0:0:
64,192,20692,1,0,0:0:0:40:snare1.wav
320,192,20859,1,0,0:0:0:40:snare1.wav
192,192,20942,1,0,0:0:0:40:snare1.wav
320,192,21025,1,10,0:0:0:0:
448,192,21025,1,0,0:0:0:40:snare1.wav
64,192,21109,1,0,0:0:0:40:snare2.wav
192,192,21192,1,0,0:0:0:40:snare2.wav
320,192,21275,1,0,0:0:0:40:snare2.wav
448,192,21359,1,0,0:0:0:40:snare2.wav
64,192,21359,1,2,0:0:0:0:
192,192,21442,1,0,0:0:0:40:snare3.wav
320,192,21525,1,0,0:0:0:40:snare3.wav
192,192,21609,1,0,0:0:0:40:snare3.wav
448,192,21692,1,2,0:0:0:0:
320,192,21692,1,0,0:0:0:40:snare3.wav
64,192,21775,1,0,0:0:0:40:snare3.wav
192,192,21859,1,0,0:0:0:40:snare3.wav
320,192,21942,1,0,0:0:0:40:snare3.wav
64,192,22025,1,2,0:0:0:0:
448,192,22025,1,0,0:0:0:40:snare3.wav
192,192,22109,1,0,0:0:0:40:snare4.wav
320,192,22192,1,0,0:0:0:40:snare4.wav
192,192,22275,1,0,0:0:0:40:snare4.wav
320,192,22359,1,0,0:0:0:40:snare4.wav
448,192,22359,1,2,0:0:0:0:
64,192,22442,1,0,0:0:0:40:snare4.wav
192,192,22525,1,0,0:0:0:40:snare4.wav
320,192,22609,1,0,0:0:0:40:snare4.wav
448,192,22692,1,2,0:0:0:0:
192,192,22692,1,4,0:0:0:0:
64,192,22692,128,0,23692:0:0:0:0:
320,192,23025,128,0,23692:0:0:0:0:
448,192,23359,128,0,23692:0:0:0:0:
192,192,23692,128,0,24025:0:0:0:0:
64,192,24025,1,0,0:0:0:0:
448,192,24025,1,0,0:0:0:70:POW.wav
320,192,24025,1,4,0:0:0:0:
448,192,24359,128,0,25025:0:0:0:0:
64,192,24359,128,0,24713:0:0:0:0:
320,192,24713,128,0,25025:0:0:0:0:
192,192,24713,1,0,0:0:0:0:
192,192,25025,1,0,0:0:0:0:
64,192,25067,1,0,0:0:0:0:
320,192,25109,1,0,0:0:0:0:
192,192,25150,1,0,0:0:0:0:
448,192,25192,1,0,0:0:0:0:
320,192,25234,1,0,0:0:0:0:
64,192,25275,1,0,0:0:0:0:
192,192,25317,1,0,0:0:0:0:
448,192,25359,1,0,0:0:0:70:POW.wav
320,192,25359,1,4,0:0:0:0:
64,192,25713,128,0,26359:0:0:0:0:
448,192,25713,128,0,26025:0:0:0:0:
192,192,26025,128,0,26359:0:0:0:0:
320,192,26025,1,0,0:0:0:0:
448,192,26359,1,0,0:0:0:0:
320,192,26400,1,0,0:0:0:0:
64,192,26442,1,0,0:0:0:0:
192,192,26484,1,0,0:0:0:0:
320,192,26525,1,0,0:0:0:0:
448,192,26525,1,0,0:0:0:0:
192,192,26609,1,0,0:0:0:0:
320,192,26692,1,0,0:0:0:0:
448,192,26692,1,0,0:0:0:0:
64,192,26692,1,2,0:0:0:0:
192,192,26859,1,0,0:0:0:0:
192,192,26942,1,0,0:0:0:0:
320,192,27025,1,0,0:0:0:0:
448,192,27025,1,0,0:0:0:0:
64,192,27109,1,0,0:0:0:0:
320,192,27192,1,0,0:0:0:0:
320,192,27275,1,0,0:0:0:0:
192,192,27359,1,2,0:0:0:0:
64,192,27359,1,0,0:0:0:0:
448,192,27359,1,0,0:0:0:0:
320,192,27609,1,0,0:0:0:0:
64,192,27609,1,0,0:0:0:0:
192,192,27859,1,0,0:0:0:0:
64,192,27859,1,0,0:0:0:0:
192,192,28025,1,2,0:0:0:0:
320,192,28025,128,0,28359:0:0:0:0:
448,192,28359,1,2,0:0:0:0:
64,192,28359,128,0,28692:0:0:0:0:
192,192,28525,128,0,28692:0:0:0:0:
320,192,28692,1,2,0:0:0:0:
448,192,28692,128,0,29025:0:0:0:0:
192,192,29025,128,0,29359:0:0:0:0:
320,192,29025,1,2,0:0:0:0:
64,192,29192,128,0,29359:0:0:0:0:
320,192,29359,1,0,0:0:0:0:
448,192,29359,1,2,0:0:0:0:
320,192,29525,1,0,0:0:0:0:
320,192,29609,1,0,0:0:0:0:
64,192,29692,1,0,0:0:0:0:
192,192,29692,1,0,0:0:0:0:
448,192,29775,1,0,0:0:0:0:
192,192,29859,1,0,0:0:0:0:
192,192,29942,1,0,0:0:0:0:
64,192,30025,1,0,0:0:0:0:
448,192,30025,1,0,0:0:0:0:
320,192,30025,1,2,0:0:0:0:
448,192,30275,1,0,0:0:0:0:
192,192,30275,1,2,0:0:0:0:
64,192,30275,1,0,0:0:0:0:
320,192,30525,1,2,0:0:0:0:
448,192,30525,1,0,0:0:0:0:
192,192,30525,1,0,0:0:0:0:
64,192,30692,1,0,0:0:0:0:
448,192,30692,1,2,0:0:0:0:
192,192,30859,1,0,0:0:0:0:
192,192,30942,1,0,0:0:0:0:
448,192,31025,1,0,0:0:0:0:
320,192,31025,1,0,0:0:0:0:
64,192,31109,1,0,0:0:0:0:
320,192,31192,1,0,0:0:0:0:
320,192,31275,1,0,0:0:0:0:
448,192,31359,1,0,0:0:0:0:
64,192,31359,1,0,0:0:0:0:
192,192,31359,1,2,0:0:0:0:
64,192,31609,1,0,0:0:0:0:
320,192,31609,1,2,0:0:0:0:
448,192,31609,1,0,0:0:0:0:
192,192,31859,1,0,0:0:0:0:
64,192,31859,1,0,0:0:0:0:
320,192,31859,1,2,0:0:0:0:
448,192,32025,1,0,0:0:0:0:
64,192,32025,1,2,0:0:0:0:
320,192,32192,1,0,0:0:0:0:
320,192,32275,1,0,0:0:0:0:
192,192,32359,1,0,0:0:0:0:
64,192,32359,1,0,0:0:0:0:
448,192,32442,1,0,0:0:0:0:
192,192,32525,1,0,0:0:0:0:
192,192,32609,1,0,0:0:0:0:
320,192,32692,1,2,0:0:0:0:
448,192,32692,1,0,0:0:0:0:
64,192,32692,1,0,0:0:0:0:
192,192,32942,1,2,0:0:0:0:
448,192,32942,1,0,0:0:0:0:
64,192,32942,1,0,0:0:0:0:
192,192,33192,1,0,0:0:0:0:
320,192,33192,1,2,0:0:0:0:
448,192,33192,1,0,0:0:0:0:
448,192,33359,1,2,0:0:0:0:
64,192,33359,128,0,34025:0:0:0:0:
320,192,33692,1,2,0:0:0:0:
192,192,33692,128,0,34025:0:0:0:0:
448,192,34025,128,0,34609:0:0:0:0:
320,192,34025,128,2,34609:0:0:0:0:
192,192,34359,1,2,0:0:0:0:
64,192,34359,128,0,34609:0:0:0:0:
64,192,34692,1,0,0:0:0:0:
320,192,34692,1,2,0:0:0:0:
448,192,34692,1,0,0:0:0:70:POW.wav
192,192,35025,1,0,0:0:0:70:pew.wav
192,192,35109,1,0,0:0:0:70:pew.wav
320,192,35192,1,0,0:0:0:70:pew.wav
320,192,35275,1,0,0:0:0:70:pew.wav
64,192,35359,128,0,35525:0:0:0:70:Growl.wav
192,192,35359,128,2,35525:0:0:0:0:
448,192,35359,128,0,35525:0:0:0:70:POW.wav
64,192,35609,128,0,35775:0:0:0:70:Growl.wav
192,192,35609,128,2,35775:0:0:0:0:
320,192,35609,128,0,35775:0:0:0:70:POW.wav
64,192,35859,128,0,35942:0:0:0:70:Growl.wav
320,192,35859,128,2,35942:0:0:0:0:
448,192,35859,128,0,35942:0:0:0:70:POW.wav
64,192,36025,1,4,0:0:0:0:
192,192,36025,1,2,0:0:0:0:
448,192,36025,128,0,36609:0:0:0:0:
64,192,36359,1,0,0:0:0:0:
320,192,36359,128,0,36609:0:0:0:0:
192,192,36692,128,2,36859:0:0:0:0:
448,192,36692,1,0,0:0:0:0:
64,192,36692,128,0,36859:0:0:0:70:Growl2.wav
320,192,36859,1,0,0:0:0:20:snare5.wav
448,192,36859,1,0,0:0:0:0:
320,192,36942,1,0,0:0:0:0:
192,192,36942,128,2,37109:0:0:0:0:
64,192,36942,128,0,37109:0:0:0:70:Growl2.wav
320,192,37109,1,0,0:0:0:20:snare5.wav
448,192,37109,1,0,0:0:0:0:
192,192,37192,1,2,0:0:0:0:
64,192,37192,1,0,0:0:0:0:
320,192,37275,1,0,0:0:0:20:snare5.wav
448,192,37275,1,0,0:0:0:0:
64,192,37359,1,0,0:0:0:0:
192,192,37359,1,2,0:0:0:0:
320,192,37442,1,0,0:0:0:0:
192,192,37525,1,0,0:0:0:0:
192,192,37609,1,0,0:0:0:0:
448,192,37692,1,0,0:0:0:0:
320,192,37692,1,2,0:0:0:0:
64,192,37775,1,0,0:0:0:0:
320,192,37859,1,0,0:0:0:0:
320,192,37942,1,0,0:0:0:0:
64,192,38025,1,0,0:0:0:0:
192,192,38025,1,2,0:0:0:0:
448,192,38025,1,0,0:0:0:0:
64,192,38275,1,0,0:0:0:0:
448,192,38275,1,0,0:0:0:0:
320,192,38359,1,2,0:0:0:0:
448,192,38359,1,0,0:0:0:0:
64,192,38525,1,0,0:0:0:0:
320,192,38525,1,0,0:0:0:0:
192,192,38692,1,2,0:0:0:0:
320,192,38692,128,0,39025:0:0:0:0:
448,192,39025,1,2,0:0:0:0:
64,192,39025,128,0,39359:0:0:0:0:
192,192,39192,128,0,39359:0:0:0:0:
320,192,39359,1,2,0:0:0:0:
448,192,39359,128,0,39692:0:0:0:0:
192,192,39692,128,0,40025:0:0:0:0:
320,192,39692,1,2,0:0:0:0:
64,192,39859,128,0,40025:0:0:0:0:
320,192,40025,1,2,0:0:0:0:
448,192,40025,1,0,0:0:0:70:Cymbal2.wav
192,192,40109,1,0,0:0:0:0:
448,192,40192,1,0,0:0:0:0:
448,192,40275,1,0,0:0:0:0:
64,192,40359,1,2,0:0:0:0:
192,192,40359,1,0,0:0:0:0:
320,192,40442,1,0,0:0:0:0:
192,192,40525,1,0,0:0:0:0:
192,192,40609,1,0,0:0:0:0:
448,192,40692,1,0,0:0:0:0:
320,192,40692,1,0,0:0:0:0:
64,192,40692,1,2,0:0:0:0:
64,192,40942,1,0,0:0:0:0:
448,192,40942,1,0,0:0:0:0:
64,192,41025,1,2,0:0:0:0:
192,192,41025,1,0,0:0:0:0:
448,192,41192,1,0,0:0:0:0:
192,192,41192,1,0,0:0:0:0:
64,192,41359,1,2,0:0:0:0:
320,192,41359,1,0,0:0:0:0:
192,192,41442,1,0,0:0:0:0:
448,192,41525,1,0,0:0:0:0:
448,192,41609,1,0,0:0:0:0:
64,192,41692,1,2,0:0:0:0:
192,192,41692,1,0,0:0:0:0:
320,192,41775,1,0,0:0:0:0:
192,192,41859,1,0,0:0:0:0:
192,192,41942,1,0,0:0:0:0:
64,192,42025,1,2,0:0:0:0:
320,192,42025,1,0,0:0:0:0:
448,192,42025,1,0,0:0:0:0:
64,192,42275,1,0,0:0:0:0:
448,192,42275,1,0,0:0:0:0:
320,192,42359,1,0,0:0:0:0:
448,192,42359,1,2,0:0:0:0:
320,192,42525,1,0,0:0:0:0:
64,192,42525,1,0,0:0:0:0:
192,192,42692,1,0,0:0:0:0:
448,192,42692,1,2,0:0:0:0:
320,192,42775,1,0,0:0:0:0:
192,192,42859,1,0,0:0:0:0:
192,192,42942,1,0,0:0:0:0:
448,192,43025,1,2,0:0:0:0:
320,192,43025,1,0,0:0:0:0:
64,192,43109,1,0,0:0:0:0:
320,192,43192,1,0,0:0:0:0:
320,192,43275,1,0,0:0:0:0:
64,192,43359,1,0,0:0:0:0:
192,192,43359,1,0,0:0:0:0:
448,192,43359,1,2,0:0:0:0:
64,192,43609,1,0,0:0:0:0:
448,192,43609,1,0,0:0:0:0:
64,192,43692,1,0,0:0:0:0:
192,192,43692,1,2,0:0:0:0:
448,192,43859,1,0,0:0:0:0:
192,192,43859,1,0,0:0:0:0:
64,192,44025,1,2,0:0:0:0:
448,192,44025,1,0,0:0:0:40:snare1.wav
320,192,44109,1,0,0:0:0:40:snare1.wav
192,192,44192,1,0,0:0:0:40:snare1.wav
192,192,44275,1,0,0:0:0:40:snare1.wav
448,192,44359,1,2,0:0:0:0:
320,192,44359,1,0,0:0:0:40:snare2.wav
64,192,44442,1,0,0:0:0:40:snare2.wav
448,192,44525,1,0,0:0:0:40:snare2.wav
448,192,44609,1,0,0:0:0:40:snare2.wav
192,192,44692,1,0,0:0:0:40:snare3.wav
64,192,44692,1,2,0:0:0:0:
320,192,44775,1,0,0:0:0:40:snare3.wav
64,192,44859,1,0,0:0:0:40:snare3.wav
64,192,44942,1,0,0:0:0:40:snare3.wav
448,192,45025,1,2,0:0:0:0:
320,192,45025,1,0,0:0:0:40:snare4.wav
192,192,45109,1,0,0:0:0:40:snare4.wav
320,192,45192,1,0,0:0:0:40:snare4.wav
320,192,45275,1,0,0:0:0:40:snare4.wav
64,192,45359,128,0,46692:0:0:0:30:Finish.wav
192,192,45359,1,2,0:0:0:0:
192,192,46692,128,0,48025:0:0:0:0:
64,192,47692,1,0,0:0:0:0:
320,192,47775,1,0,0:0:0:0:
448,192,47859,1,0,0:0:0:0:
64,192,47942,1,0,0:0:0:0:
320,192,48025,128,0,49359:0:0:0:0:
192,192,48109,1,0,0:0:0:0:
64,192,48192,1,0,0:0:0:0:
448,192,48275,1,0,0:0:0:0:
192,192,48359,1,0,0:0:0:0:
448,192,48525,1,0,0:0:0:0:
64,192,48692,1,0,0:0:0:0:
448,192,48859,1,0,0:0:0:0:
64,192,49025,1,0,0:0:0:0:
192,192,49109,1,0,0:0:0:0:
448,192,49192,1,0,0:0:0:0:
64,192,49275,1,0,0:0:0:0:
192,192,49359,128,0,49692:0:0:0:0:
448,192,49442,1,0,0:0:0:0:
320,192,49525,1,0,0:0:0:0:
64,192,49609,1,0,0:0:0:0:
448,192,49692,128,0,50025:0:0:0:0:
192,192,49859,1,0,0:0:0:0:
320,192,50025,128,0,50359:0:0:0:0:
448,192,50192,1,0,0:0:0:0:
192,192,50359,128,0,50692:0:0:0:0:
64,192,50442,1,0,0:0:0:0:
448,192,50525,1,0,0:0:0:0:
320,192,50609,1,0,0:0:0:0:
64,192,50692,128,0,52025:0:0:0:0:
448,192,50775,1,0,0:0:0:0:
320,192,50859,1,0,0:0:0:0:
192,192,50942,1,0,0:0:0:0:
320,192,51025,1,0,0:0:0:0:
448,192,51192,1,0,0:0:0:0:
192,192,51359,1,0,0:0:0:0:
448,192,51525,1,0,0:0:0:0:
320,192,51692,1,0,0:0:0:0:
192,192,51775,1,0,0:0:0:0:
320,192,51859,1,0,0:0:0:0:
448,192,51942,1,0,0:0:0:0:
192,192,52025,128,0,53359:0:0:0:0:
64,192,52109,1,0,0:0:0:0:
448,192,52192,1,0,0:0:0:0:
320,192,52275,1,0,0:0:0:0:
64,192,52359,1,0,0:0:0:0:
448,192,52525,1,0,0:0:0:0:
64,192,52692,1,0,0:0:0:0:
448,192,52859,1,0,0:0:0:0:
64,192,53025,1,0,0:0:0:0:
320,192,53109,1,0,0:0:0:0:
448,192,53192,1,0,0:0:0:0:
64,192,53275,1,0,0:0:0:0:
320,192,53359,128,0,54692:0:0:0:0:
192,192,53442,1,0,0:0:0:0:
64,192,53525,1,0,0:0:0:0:
448,192,53609,1,0,0:0:0:0:
192,192,53692,1,0,0:0:0:0:
448,192,53859,1,0,0:0:0:0:
64,192,54025,1,0,0:0:0:0:
448,192,54192,1,0,0:0:0:0:
64,192,54359,1,0,0:0:0:0:
192,192,54442,1,0,0:0:0:0:
448,192,54525,1,0,0:0:0:0:
64,192,54609,1,0,0:0:0:0:
192,192,54692,128,0,55025:0:0:0:0:
448,192,54775,1,0,0:0:0:0:
320,192,54859,1,0,0:0:0:0:
64,192,54942,1,0,0:0:0:0:
320,192,55025,128,0,55359:0:0:0:0:
448,192,55192,1,0,0:0:0:0:
192,192,55359,128,0,55692:0:0:0:0:
64,192,55359,1,0,0:0:0:0:
448,192,55525,1,0,0:0:0:0:
64,192,55692,128,0,56025:0:0:0:0:
320,192,55775,1,0,0:0:0:0:
448,192,55859,1,0,0:0:0:0:
192,192,55942,1,0,0:0:0:0:
320,192,56025,1,0,0:0:0:0:
448,192,56025,1,2,0:0:0:0:
192,192,56109,1,0,0:0:0:0:
448,192,56192,1,2,0:0:0:0:
64,192,56192,1,0,0:0:0:0:
320,192,56275,1,0,0:0:0:0:
64,192,56359,1,0,0:0:0:0:
192,192,56359,1,0,0:0:0:70:snare.wav
320,192,56525,1,0,0:0:0:0:
192,192,56609,1,0,0:0:0:0:
448,192,56609,1,2,0:0:0:0:
320,192,56692,1,0,0:0:0:0:
64,192,56692,1,2,0:0:0:0:
192,192,56775,1,0,0:0:0:0:
448,192,56859,1,2,0:0:0:0:
320,192,56859,1,0,0:0:0:0:
448,192,57025,1,0,0:0:0:70:snare.wav
64,192,57025,1,0,0:0:0:0:
192,192,57109,1,0,0:0:0:0:
320,192,57192,1,0,0:0:0:0:
448,192,57275,1,0,0:0:0:0:
192,192,57359,1,2,0:0:0:0:
64,192,57359,1,0,0:0:0:0:
448,192,57442,1,0,0:0:0:0:
64,192,57442,1,0,0:0:0:70:snare.wav
192,192,57525,1,2,0:0:0:0:
320,192,57525,1,0,0:0:0:0:
64,192,57609,1,0,0:0:0:0:
448,192,57692,1,0,0:0:0:0:
320,192,57692,1,0,0:0:0:70:snare.wav
192,192,57859,1,0,0:0:0:0:
448,192,57942,1,0,0:0:0:70:snare.wav
64,192,57942,1,0,0:0:0:0:
320,192,58025,1,0,0:0:0:0:
448,192,58025,1,2,0:0:0:0:
64,192,58109,1,0,0:0:0:70:snare.wav
192,192,58109,1,0,0:0:0:0:
320,192,58192,1,2,0:0:0:0:
448,192,58192,1,0,0:0:0:0:
64,192,58359,1,0,0:0:0:0:
448,192,58359,1,0,0:0:0:70:snare.wav
320,192,58442,1,0,0:0:0:0:
192,192,58525,1,2,0:0:0:0:
64,192,58525,1,0,0:0:0:0:
448,192,58609,1,0,0:0:0:0:
64,192,58609,1,0,0:0:0:70:snare.wav
320,192,58692,1,0,0:0:0:0:
192,192,58692,1,2,0:0:0:0:
448,192,58775,1,0,0:0:0:0:
64,192,58859,1,0,0:0:0:0:
192,192,58859,1,2,0:0:0:0:
320,192,58942,1,0,0:0:0:0:
64,192,59025,1,0,0:0:0:70:snare.wav
448,192,59025,1,0,0:0:0:0:
320,192,59192,1,0,0:0:0:0:
448,192,59275,1,0,0:0:0:0:
192,192,59275,1,2,0:0:0:0:
320,192,59359,1,0,0:0:0:0:
64,192,59359,1,2,0:0:0:0:
192,192,59442,1,0,0:0:0:0:
448,192,59525,1,2,0:0:0:0:
320,192,59525,1,0,0:0:0:0:
64,192,59692,1,0,0:0:0:70:snare.wav
448,192,59692,1,0,0:0:0:0:
320,192,59775,1,0,0:0:0:0:
64,192,59859,1,0,0:0:0:0:
192,192,59942,1,0,0:0:0:0:
448,192,60025,1,0,0:0:0:0:
320,192,60025,1,2,0:0:0:0:
448,192,60109,1,0,0:0:0:70:snare.wav
64,192,60109,1,0,0:0:0:0:
320,192,60192,1,0,0:0:0:0:
192,192,60192,1,2,0:0:0:0:
64,192,60275,1,0,0:0:0:0:
448,192,60359,1,0,0:0:0:70:snare.wav
320,192,60359,1,0,0:0:0:0:
192,192,60525,1,0,0:0:0:0:
448,192,60609,1,0,0:0:0:0:
64,192,60609,1,0,0:0:0:70:snare.wav
64,192,60692,1,0,0:0:0:0:
192,192,60692,1,2,0:0:0:0:
448,192,60775,1,0,0:0:0:0:
320,192,60775,1,0,0:0:0:70:snare.wav
64,192,60859,1,2,0:0:0:0:
192,192,60859,1,0,0:0:0:0:
448,192,61025,1,0,0:0:0:0:
64,192,61025,1,0,0:0:0:70:snare.wav
320,192,61109,1,0,0:0:0:0:
192,192,61192,1,2,0:0:0:0:
64,192,61192,1,0,0:0:0:0:
320,192,61275,1,0,0:0:0:70:snare.wav
448,192,61275,1,0,0:0:0:0:
448,192,61359,1,0,0:0:0:0:
64,192,61359,1,2,0:0:0:0:
192,192,61442,1,0,0:0:0:0:
320,192,61525,1,0,0:0:0:0:
448,192,61609,1,0,0:0:0:0:
192,192,61692,1,0,0:0:0:0:
64,192,61692,1,0,0:0:0:70:snare.wav
448,192,61859,1,0,0:0:0:0:
64,192,62025,1,0,0:0:0:0:
192,192,62025,1,2,0:0:0:0:
320,192,62109,1,0,0:0:0:0:
192,192,62192,1,2,0:0:0:0:
448,192,62192,1,0,0:0:0:0:
64,192,62359,1,0,0:0:0:0:
448,192,62359,1,0,0:0:0:70:snare.wav
320,192,62442,1,0,0:0:0:0:
192,192,62525,1,0,0:0:0:0:
64,192,62609,1,0,0:0:0:0:
448,192,62692,1,0,0:0:0:0:
320,192,62692,1,2,0:0:0:0:
192,192,62775,1,0,0:0:0:0:
64,192,62859,1,2,0:0:0:0:
448,192,62859,1,0,0:0:0:0:
192,192,62942,1,0,0:0:0:0:
320,192,63025,1,0,0:0:0:0:
448,192,63025,1,0,0:0:0:70:snare.wav
192,192,63192,1,0,0:0:0:0:
448,192,63275,1,0,0:0:0:70:snare.wav
64,192,63275,1,0,0:0:0:0:
448,192,63359,1,2,0:0:0:0:
320,192,63359,1,0,0:0:0:0:
64,192,63442,1,0,0:0:0:70:snare.wav
192,192,63442,1,0,0:0:0:0:
448,192,63525,1,2,0:0:0:0:
320,192,63525,1,0,0:0:0:0:
64,192,63692,1,0,0:0:0:0:
448,192,63692,1,0,0:0:0:70:snare.wav
192,192,63775,1,0,0:0:0:0:
320,192,63859,1,0,0:0:0:0:
448,192,63942,1,0,0:0:0:0:
64,192,64025,1,0,0:0:0:0:
192,192,64025,1,2,0:0:0:0:
448,192,64109,1,0,0:0:0:0:
320,192,64192,1,2,0:0:0:0:
64,192,64192,1,0,0:0:0:0:
192,192,64275,1,0,0:0:0:0:
320,192,64359,1,0,0:0:0:0:
448,192,64359,1,0,0:0:0:70:snare.wav
192,192,64525,1,0,0:0:0:0:
448,192,64609,1,2,0:0:0:0:
64,192,64609,1,0,0:0:0:0:
192,192,64692,1,0,0:0:0:0:
320,192,64692,1,2,0:0:0:0:
64,192,64775,1,0,0:0:0:0:
320,192,64859,1,2,0:0:0:0:
448,192,64859,1,0,0:0:0:0:
192,192,65025,1,0,0:0:0:0:
448,192,65025,1,0,0:0:0:70:snare.wav
320,192,65109,1,0,0:0:0:0:
64,192,65192,1,0,0:0:0:0:
192,192,65275,1,0,0:0:0:0:
320,192,65359,1,2,0:0:0:0:
448,192,65359,1,0,0:0:0:0:
448,192,65442,1,0,0:0:0:70:snare.wav
64,192,65442,1,0,0:0:0:0:
320,192,65525,1,2,0:0:0:0:
192,192,65525,1,0,0:0:0:0:
64,192,65609,1,0,0:0:0:0:
448,192,65692,1,0,0:0:0:70:snare.wav
320,192,65692,1,0,0:0:0:0:
192,192,65859,1,0,0:0:0:0:
448,192,65942,1,0,0:0:0:0:
320,192,65942,1,0,0:0:0:70:snare.wav
192,192,66025,1,0,0:0:0:0:
448,192,66109,1,0,0:0:0:0:
64,192,66109,1,0,0:0:0:70:snare.wav
192,192,66192,1,2,0:0:0:0:
64,192,66192,1,0,0:0:0:0:
320,192,66275,1,0,0:0:0:0:
64,192,66359,1,0,0:0:0:0:
448,192,66359,1,0,0:0:0:70:snare.wav
192,192,66442,1,0,0:0:0:0:
320,192,66525,1,2,0:0:0:0:
448,192,66525,1,0,0:0:0:0:
192,192,66609,1,0,0:0:0:70:snare.wav
64,192,66609,1,0,0:0:0:0:
320,192,66692,1,8,0:0:0:0:
448,192,66692,1,2,0:0:0:0:
192,192,66775,1,0,0:0:0:0:
64,192,66859,1,0,0:0:0:0:
192,192,66942,1,0,0:0:0:0:
320,192,67025,1,2,0:0:0:0:
448,192,67025,1,8,0:0:0:0:
320,192,67192,1,0,0:0:0:0:
192,192,67359,1,8,0:0:0:0:
64,192,67359,1,2,0:0:0:0:
320,192,67525,1,2,0:0:0:0:
192,192,67525,1,0,0:0:0:0:
64,192,67692,1,2,0:0:0:0:
448,192,67692,1,8,0:0:0:0:
192,192,67775,1,0,0:0:0:0:
448,192,67859,1,0,0:0:0:0:
320,192,67859,1,0,0:0:0:0:
192,192,67942,1,0,0:0:0:0:
448,192,68025,1,2,0:0:0:0:
64,192,68025,1,8,0:0:0:0:
320,192,68109,1,0,0:0:0:0:
192,192,68192,1,2,0:0:0:0:
64,192,68192,1,0,0:0:0:0:
320,192,68275,1,0,0:0:0:0:
64,192,68359,1,8,0:0:0:0:
448,192,68359,1,2,0:0:0:0:
192,192,68525,1,0,0:0:0:0:
448,192,68692,1,2,0:0:0:0:
64,192,68692,1,8,0:0:0:0:
320,192,68859,1,2,0:0:0:0:
448,192,68859,1,0,0:0:0:0:
192,192,68942,1,0,0:0:0:0:
64,192,69025,1,8,0:0:0:0:
448,192,69025,1,2,0:0:0:0:
320,192,69109,1,0,0:0:0:0:
64,192,69192,1,0,0:0:0:0:
192,192,69192,1,0,0:0:0:0:
320,192,69275,1,0,0:0:0:0:
192,192,69359,1,2,0:0:0:0:
448,192,69359,1,8,0:0:0:0:
64,192,69442,1,0,0:0:0:0:
448,192,69525,1,2,0:0:0:0:
320,192,69525,1,0,0:0:0:0:
192,192,69609,1,0,0:0:0:0:
64,192,69692,1,8,0:0:0:0:
448,192,69692,1,2,0:0:0:0:
320,192,69859,1,0,0:0:0:0:
192,192,70025,1,8,0:0:0:0:
64,192,70025,1,2,0:0:0:0:
320,192,70192,1,0,0:0:0:0:
192,192,70359,1,8,0:0:0:0:
448,192,70359,1,2,0:0:0:0:
320,192,70442,1,0,0:0:0:0:
64,192,70525,1,0,0:0:0:0:
448,192,70525,1,0,0:0:0:0:
192,192,70609,1,0,0:0:0:0:
320,192,70692,1,8,0:0:0:0:
448,192,70692,1,2,0:0:0:0:
192,192,70775,1,0,0:0:0:0:
64,192,70859,1,0,0:0:0:0:
320,192,70942,1,0,0:0:0:0:
192,192,71025,1,8,0:0:0:0:
448,192,71025,1,2,0:0:0:0:
192,192,71192,1,0,0:0:0:0:
320,192,71359,1,8,0:0:0:0:
448,192,71359,1,2,0:0:0:0:
192,192,71525,1,0,0:0:0:0:
64,192,71692,1,2,0:0:0:0:
448,192,71692,1,8,0:0:0:0:
192,192,71775,1,0,0:0:0:0:
320,192,71859,1,0,0:0:0:0:
448,192,71942,1,0,0:0:0:0:
64,192,72025,1,2,0:0:0:0:
192,192,72025,1,8,0:0:0:0:
320,192,72109,1,0,0:0:0:0:
448,192,72192,1,0,0:0:0:40:snare1.wav
64,192,72192,1,0,0:0:0:0:
192,192,72275,1,0,0:0:0:0:
320,192,72359,1,8,0:0:0:0:
448,192,72359,1,2,0:0:0:0:
320,192,72525,1,0,0:0:0:40:snare1.wav
64,192,72525,1,0,0:0:0:0:
192,192,72692,1,2,0:0:0:0:
64,192,72692,1,8,0:0:0:0:
192,192,72859,1,0,0:0:0:40:snare1.wav
448,192,72859,1,0,0:0:0:0:
448,192,73025,1,2,0:0:0:0:
64,192,73025,1,8,0:0:0:0:
320,192,73109,1,0,0:0:0:0:
64,192,73192,1,0,0:0:0:0:
192,192,73192,1,0,0:0:0:40:snare1.wav
320,192,73275,1,0,0:0:0:0:
64,192,73359,1,8,0:0:0:0:
448,192,73359,1,2,0:0:0:0:
192,192,73442,1,0,0:0:0:0:
320,192,73525,1,0,0:0:0:40:snare1.wav
448,192,73525,1,0,0:0:0:0:
192,192,73609,1,0,0:0:0:40:snare1.wav
448,192,73692,1,8,0:0:0:0:
64,192,73692,1,2,0:0:0:0:
192,192,73859,1,0,0:0:0:40:snare2.wav
64,192,73859,1,0,0:0:0:0:
320,192,73942,1,0,0:0:0:40:snare2.wav
448,192,74025,1,8,0:0:0:0:
64,192,74025,1,2,0:0:0:0:
448,192,74192,1,0,0:0:0:40:snare3.wav
320,192,74192,1,0,0:0:0:0:
192,192,74275,1,0,0:0:0:40:snare3.wav
64,192,74359,1,8,0:0:0:0:
448,192,74359,1,2,0:0:0:0:
64,192,74525,1,0,0:0:0:0:
192,192,74525,1,0,0:0:0:40:snare3.wav
320,192,74609,1,0,0:0:0:40:snare3.wav
64,192,74692,1,8,0:0:0:0:
448,192,74692,1,2,0:0:0:0:
320,192,74859,1,0,0:0:0:40:snare2.wav
448,192,74859,1,0,0:0:0:0:
64,192,74942,1,0,0:0:0:40:snare2.wav
192,192,74942,1,0,0:0:0:0:
320,192,75025,1,0,0:0:0:40:snare2.wav
448,192,75025,1,0,0:0:0:0:
192,192,75109,1,0,0:0:0:40:snare2.wav
64,192,75109,1,0,0:0:0:0:
320,192,75192,1,0,0:0:0:40:snare2.wav
448,192,75192,1,0,0:0:0:0:
192,192,75275,1,0,0:0:0:40:snare2.wav
64,192,75275,1,0,0:0:0:0:
320,192,75359,1,0,0:0:0:40:snare3.wav
448,192,75359,1,0,0:0:0:0:
192,192,75442,1,0,0:0:0:40:snare3.wav
64,192,75442,1,0,0:0:0:0:
320,192,75525,1,0,0:0:0:40:snare3.wav
448,192,75525,1,0,0:0:0:0:
192,192,75609,1,0,0:0:0:40:snare3.wav
64,192,75609,1,0,0:0:0:0:
320,192,75692,1,0,0:0:0:40:snare4.wav
192,192,75775,1,0,0:0:0:40:snare4.wav
320,192,75859,1,0,0:0:0:40:snare4.wav
192,192,75942,1,0,0:0:0:40:snare4.wav
448,192,76025,1,0,0:0:0:0:
64,192,76025,128,0,76692:0:0:0:0:
192,192,76359,128,0,77025:0:0:0:0:
320,192,76692,128,0,77025:0:0:0:0:
448,192,77025,128,0,77359:0:0:0:0:
64,192,77025,1,0,0:0:0:0:
320,192,77359,1,2,0:0:0:0:
192,192,77359,1,0,0:0:0:70:POW.wav
64,192,77359,1,0,0:0:0:0:
192,192,77525,1,0,0:0:0:0:
64,192,77692,1,0,0:0:0:0:
448,192,77692,1,2,0:0:0:0:
320,192,77859,1,0,0:0:0:0:
320,192,77942,1,0,0:0:0:0:
192,192,78025,1,0,0:0:0:70:POW.wav
64,192,78025,1,0,0:0:0:0:
448,192,78025,1,2,0:0:0:0:
320,192,78275,1,0,0:0:0:70:POW.wav
448,192,78275,1,2,0:0:0:0:
64,192,78275,1,0,0:0:0:0:
64,192,78525,1,0,0:0:0:0:
192,192,78525,1,0,0:0:0:70:POW.wav
320,192,78525,1,2,0:0:0:0:
320,192,78692,1,2,0:0:0:0:
448,192,78692,128,0,79025:0:0:0:0:
64,192,78859,1,0,0:0:0:0:
64,192,79025,1,0,0:0:0:0:
192,192,79025,1,2,0:0:0:0:
448,192,79192,1,0,0:0:0:0:
320,192,79234,1,0,0:0:0:0:
192,192,79275,1,0,0:0:0:0:
64,192,79359,1,0,0:0:0:0:
320,192,79359,1,0,0:0:0:70:POW.wav
448,192,79359,1,2,0:0:0:0:
192,192,79609,1,0,0:0:0:70:POW.wav
64,192,79609,1,0,0:0:0:0:
320,192,79609,1,2,0:0:0:0:
64,192,79859,1,0,0:0:0:0:
448,192,79859,1,2,0:0:0:0:
192,192,79859,1,0,0:0:0:70:POW.wav
448,192,80025,1,2,0:0:0:0:
320,192,80025,128,0,80359:0:0:0:0:
64,192,80192,1,0,0:0:0:0:
192,192,80192,1,0,0:0:0:0:
64,192,80359,1,0,0:0:0:0:
448,192,80359,1,2,0:0:0:0:
192,192,80525,1,0,0:0:0:0:
192,192,80609,1,0,0:0:0:0:
64,192,80692,1,0,0:0:0:0:
320,192,80692,1,0,0:0:0:70:POW.wav
448,192,80692,1,2,0:0:0:0:
64,192,80942,1,0,0:0:0:0:
192,192,80942,1,0,0:0:0:70:POW.wav
448,192,80942,1,2,0:0:0:0:
192,192,81192,1,0,0:0:0:70:POW.wav
320,192,81192,1,0,0:0:0:0:
448,192,81192,1,2,0:0:0:0:
64,192,81359,1,2,0:0:0:0:
192,192,81359,1,0,0:0:0:70:POW.wav
448,192,81359,1,0,0:0:0:0:
320,192,81525,1,0,0:0:0:0:
192,192,81609,1,0,0:0:0:0:
64,192,81692,1,0,0:0:0:70:POW.wav
448,192,81692,1,2,0:0:0:0:
320,192,81692,1,0,0:0:0:0:
192,192,81859,1,0,0:0:0:0:
320,192,81942,1,0,0:0:0:0:
192,192,82025,1,0,0:0:0:0:
64,192,82025,1,0,0:0:0:70:POW.wav
448,192,82025,1,2,0:0:0:0:
192,192,82275,1,0,0:0:0:0:
320,192,82275,1,0,0:0:0:70:POW.wav
448,192,82275,1,2,0:0:0:0:
64,192,82525,1,0,0:0:0:0:
192,192,82525,1,0,0:0:0:70:POW.wav
448,192,82525,1,2,0:0:0:0:
64,192,82692,1,0,0:0:0:0:
320,192,82692,1,0,0:0:0:70:POW.wav
448,192,82692,1,2,0:0:0:0:
320,192,82859,1,0,0:0:0:0:
192,192,83025,1,0,0:0:0:0:
64,192,83025,1,0,0:0:0:0:
448,192,83025,1,2,0:0:0:0:
192,192,83192,1,0,0:0:0:0:
192,192,83275,1,0,0:0:0:0:
64,192,83359,1,2,0:0:0:0:
320,192,83359,1,0,0:0:0:70:POW.wav
448,192,83359,1,0,0:0:0:0:
192,192,83609,1,0,0:0:0:0:
320,192,83609,1,0,0:0:0:70:POW.wav
64,192,83609,1,2,0:0:0:0:
192,192,83859,1,0,0:0:0:0:
320,192,83859,1,0,0:0:0:70:POW.wav
448,192,83859,1,2,0:0:0:0:
64,192,84025,128,0,84359:0:0:0:0:
192,192,84025,1,2,0:0:0:0:
448,192,84192,1,0,0:0:0:0:
448,192,84359,1,0,0:0:0:0:
320,192,84359,1,2,0:0:0:0:
64,192,84525,1,0,0:0:0:0:
192,192,84567,1,0,0:0:0:0:
320,192,84609,1,0,0:0:0:0:
64,192,84692,1,2,0:0:0:0:
192,192,84692,1,0,0:0:0:70:POW.wav
448,192,84692,1,0,0:0:0:0:
320,192,84942,1,0,0:0:0:70:POW.wav
448,192,84942,1,2,0:0:0:0:
192,192,84942,1,0,0:0:0:0:
64,192,85192,1,2,0:0:0:0:
448,192,85192,1,0,0:0:0:0:
192,192,85192,1,0,0:0:0:70:POW.wav
64,192,85359,1,2,0:0:0:0:
192,192,85359,128,0,85692:0:0:0:0:
448,192,85525,1,0,0:0:0:0:
320,192,85525,1,0,0:0:0:0:
448,192,85692,1,2,0:0:0:0:
64,192,85692,1,0,0:0:0:0:
320,192,85859,1,0,0:0:0:0:
320,192,85942,1,0,0:0:0:0:
448,192,86025,1,0,0:0:0:0:
192,192,86025,1,0,0:0:0:70:POW.wav
64,192,86025,1,2,0:0:0:0:
448,192,86275,1,0,0:0:0:0:
320,192,86275,1,0,0:0:0:70:POW.wav
192,192,86275,1,2,0:0:0:0:
320,192,86525,1,0,0:0:0:70:POW.wav
64,192,86525,1,2,0:0:0:0:
192,192,86525,1,0,0:0:0:0:
64,192,86692,1,0,0:0:0:70:POW.wav
192,192,86692,1,0,0:0:0:0:
448,192,86692,1,2,0:0:0:0:
320,192,86859,1,0,0:0:0:0:
192,192,86942,1,0,0:0:0:0:
64,192,87025,1,0,0:0:0:70:POW.wav
320,192,87025,1,0,0:0:0:0:
448,192,87025,1,2,0:0:0:0:
192,192,87192,1,0,0:0:0:0:
320,192,87275,1,0,0:0:0:0:
64,192,87359,1,0,0:0:0:0:
192,192,87359,1,0,0:0:0:70:POW.wav
448,192,87359,1,2,0:0:0:0:
448,192,87609,1,2,0:0:0:0:
320,192,87609,1,0,0:0:0:70:POW.wav
192,192,87609,1,0,0:0:0:0:
64,192,87859,1,0,0:0:0:0:
320,192,87859,1,0,0:0:0:70:POW.wav
448,192,87859,1,2,0:0:0:0:
448,192,88025,128,0,88192:0:0:0:0:
192,192,88025,128,0,88192:0:0:0:70:POW.wav
64,192,88025,128,2,88192:0:0:0:0:
320,192,88359,1,0,0:0:0:70:pew.wav
320,192,88442,1,0,0:0:0:70:pew.wav
192,192,88525,1,0,0:0:0:70:pew.wav
192,192,88609,1,0,0:0:0:70:pew.wav
448,192,88692,128,2,88859:0:0:0:0:
320,192,88692,128,0,88859:0:0:0:70:Growl.wav
64,192,88692,128,0,88859:0:0:0:70:POW.wav
320,192,88942,128,0,89109:0:0:0:70:Growl.wav
448,192,88942,128,2,89109:0:0:0:0:
192,192,88942,128,0,89109:0:0:0:70:POW.wav
64,192,89192,128,0,89275:0:0:0:70:POW.wav
192,192,89192,128,0,89275:0:0:0:70:Growl.wav
448,192,89192,128,2,89275:0:0:0:0:
320,192,89359,128,0,89775:0:0:0:0:
64,192,89525,1,0,0:0:0:0:
192,192,89525,128,0,89942:0:0:0:0:
320,192,89859,128,0,89942:0:0:0:0:
64,192,90025,128,0,90192:0:0:0:70:POW.wav
192,192,90025,128,0,90192:0:0:0:70:Cymbal2.wav
448,192,90025,128,2,90192:0:0:0:0:
192,192,90275,128,0,90359:0:0:0:0:
448,192,90275,128,0,90359:0:0:0:0:
64,192,90525,1,0,0:0:0:0:
320,192,90525,1,0,0:0:0:0:
192,192,90609,1,0,0:0:0:0:
320,192,90692,1,0,0:0:0:0:
448,192,90692,1,2,0:0:0:0:
64,192,90775,1,0,0:0:0:0:
448,192,90817,1,0,0:0:0:0:
320,192,90859,1,0,0:0:0:0:
192,192,90900,1,0,0:0:0:0:
64,192,90942,1,0,0:0:0:0:
320,192,91025,1,0,0:0:0:0:
448,192,91025,1,2,0:0:0:0:
192,192,91109,1,0,0:0:0:0:
320,192,91192,1,0,0:0:0:0:
192,192,91275,1,0,0:0:0:0:
320,192,91359,1,0,0:0:0:70:POW.wav
64,192,91359,1,0,0:0:0:0:
448,192,91359,1,2,0:0:0:0:
192,192,91442,1,0,0:0:0:0:
320,192,91525,1,0,0:0:0:0:
448,192,91609,1,2,0:0:0:0:
192,192,91609,1,0,0:0:0:70:POW.wav
64,192,91609,1,0,0:0:0:0:
320,192,91692,1,0,0:0:0:0:
192,192,91775,1,0,0:0:0:0:
320,192,91859,1,0,0:0:0:70:POW.wav
448,192,91859,1,2,0:0:0:0:
64,192,91859,1,0,0:0:0:0:
192,192,92025,1,0,0:0:0:0:
64,192,92025,1,2,0:0:0:0:
448,192,92109,1,0,0:0:0:0:
192,192,92192,1,0,0:0:0:0:
320,192,92275,1,0,0:0:0:0:
448,192,92359,1,0,0:0:0:0:
192,192,92359,1,0,0:0:0:70:POW.wav
64,192,92359,1,2,0:0:0:0:
320,192,92442,1,0,0:0:0:0:
64,192,92525,1,0,0:0:0:0:
320,192,92609,1,0,0:0:0:0:
192,192,92692,1,0,0:0:0:0:
64,192,92692,1,2,0:0:0:0:
448,192,92692,1,0,0:0:0:70:POW.wav
320,192,92775,1,0,0:0:0:0:
192,192,92859,1,0,0:0:0:0:
448,192,92942,1,2,0:0:0:0:
320,192,92942,1,0,0:0:0:70:POW.wav
64,192,92942,1,0,0:0:0:0:
192,192,93025,1,0,0:0:0:0:
448,192,93109,1,0,0:0:0:0:
64,192,93192,1,2,0:0:0:0:
192,192,93192,1,0,0:0:0:70:POW.wav
320,192,93192,1,0,0:0:0:0:
448,192,93359,1,0,0:0:0:0:
64,192,93359,1,2,0:0:0:0:
192,192,93442,1,0,0:0:0:0:
448,192,93525,1,0,0:0:0:0:
320,192,93609,1,0,0:0:0:0:
448,192,93692,1,0,0:0:0:0:
64,192,93692,1,2,0:0:0:0:
192,192,93692,1,0,0:0:0:70:POW.wav
320,192,93775,1,0,0:0:0:0:
64,192,93859,1,0,0:0:0:0:
192,192,93942,1,0,0:0:0:0:
320,192,94025,1,0,0:0:0:70:POW.wav
448,192,94025,1,2,0:0:0:0:
64,192,94025,1,0,0:0:0:0:
192,192,94109,1,0,0:0:0:0:
448,192,94192,1,0,0:0:0:0:
320,192,94275,1,2,0:0:0:0:
192,192,94275,1,0,0:0:0:70:POW.wav
64,192,94275,1,0,0:0:0:0:
448,192,94359,1,0,0:0:0:0:
64,192,94442,1,0,0:0:0:0:
192,192,94525,1,0,0:0:0:0:
320,192,94525,1,0,0:0:0:70:POW.wav
448,192,94525,1,2,0:0:0:0:
64,192,94692,1,2,0:0:0:0:
192,192,94692,1,0,0:0:0:0:
320,192,94775,1,0,0:0:0:0:
192,192,94859,128,0,94942:0:0:0:0:
64,192,94859,128,0,94942:0:0:0:0:
320,192,94942,1,0,0:0:0:0:
64,192,95025,1,0,0:0:0:0:
192,192,95025,1,0,0:0:0:70:POW.wav
448,192,95025,1,2,0:0:0:0:
320,192,95109,1,0,0:0:0:0:
64,192,95192,1,0,0:0:0:0:
192,192,95234,1,0,0:0:0:0:
320,192,95275,1,0,0:0:0:0:
448,192,95359,1,2,0:0:0:0:
64,192,95359,1,0,0:0:0:0:
192,192,95359,1,0,0:0:0:70:POW.wav
320,192,95442,1,0,0:0:0:0:
192,192,95525,1,0,0:0:0:0:
64,192,95609,1,0,0:0:0:0:
320,192,95609,1,0,0:0:0:70:POW.wav
448,192,95609,1,2,0:0:0:0:
192,192,95692,1,0,0:0:0:0:
320,192,95775,1,0,0:0:0:0:
64,192,95859,1,0,0:0:0:0:
192,192,95859,1,0,0:0:0:70:POW.wav
448,192,95859,1,2,0:0:0:0:
320,192,96025,1,0,0:0:0:0:
448,192,96025,1,2,0:0:0:0:
192,192,96109,1,0,0:0:0:0:
448,192,96192,1,0,0:0:0:0:
320,192,96234,1,0,0:0:0:0:
192,192,96275,1,0,0:0:0:0:
64,192,96359,1,0,0:0:0:0:
320,192,96359,1,0,0:0:0:0:
448,192,96359,1,2,0:0:0:0:
192,192,96442,1,0,0:0:0:0:
320,192,96525,1,0,0:0:0:0:
192,192,96609,1,0,0:0:0:0:
448,192,96692,1,2,0:0:0:0:
320,192,96692,1,0,0:0:0:70:POW.wav
64,192,96692,1,0,0:0:0:0:
192,192,96775,1,0,0:0:0:0:
320,192,96859,1,0,0:0:0:0:
448,192,96942,1,2,0:0:0:0:
192,192,96942,1,0,0:0:0:70:POW.wav
64,192,96942,1,0,0:0:0:0:
320,192,97025,1,0,0:0:0:0:
192,192,97109,1,0,0:0:0:0:
448,192,97192,1,2,0:0:0:0:
320,192,97192,1,0,0:0:0:70:POW.wav
64,192,97192,1,0,0:0:0:0:
320,192,97359,1,4,0:0:0:0:
448,192,97359,1,2,0:0:0:0:
64,192,97359,128,0,98025:0:0:0:0:
192,192,97692,128,0,98609:0:0:0:0:
320,192,98025,128,0,98609:0:0:0:0:
448,192,98359,128,0,98609:0:0:0:0:
64,192,98359,128,0,98609:0:0:0:0:
192,192,98692,1,2,0:0:0:0:
64,192,98692,1,0,0:0:0:0:
320,192,98692,128,0,100025:0:0:0:30:Finish.wav
64,192,99359,128,0,100025:0:0:0:0:
192,192,100025,128,0,100692:0:0:0:0:
448,192,100025,128,0,101359:0:0:0:0:
320,192,100692,128,0,101359:0:0:0:0:
192,192,101359,128,0,102692:0:0:0:0:
64,192,101359,128,0,102025:0:0:0:0:
448,192,101692,128,0,102025:0:0:0:0:
320,192,101859,128,0,102359:0:0:0:0:
64,192,102359,128,0,102692:0:0:0:0:
448,192,102692,128,0,103025:0:0:0:0:
320,192,102692,128,0,103025:0:0:0:0:
64,192,103025,1,0,0:0:0:0:
192,192,103025,128,0,103359:0:0:0:0:
64,192,103359,128,0,103692:0:0:0:0:
320,192,103359,1,0,0:0:0:0:
192,192,103692,1,0,0:0:0:0:
448,192,103692,128,0,104025:0:0:0:0:
64,192,104025,1,0,0:0:0:0:
192,192,104025,128,0,105359:0:0:0:0:
448,192,104525,128,0,104859:0:0:0:0:
320,192,104692,128,0,104859:0:0:0:0:
64,192,105359,1,0,0:0:0:0:
320,192,105359,128,0,106692:0:0:0:0:
192,192,105859,128,0,106192:0:0:0:0:
64,192,106025,128,0,106192:0:0:0:0:
64,192,106692,1,0,0:0:0:0:
192,192,106692,128,0,109275:0:0:0:0:
448,192,107192,128,0,107525:0:0:0:0:
320,192,107359,128,0,107525:0:0:0:0:
64,192,108025,1,0,0:0:0:0:
320,192,108025,128,0,108359:0:0:0:0:
448,192,108359,128,0,108692:0:0:0:0:
64,192,108359,1,0,0:0:0:0:
64,192,108692,128,0,109275:0:0:0:0:
320,192,108692,1,0,0:0:0:0:
320,192,109025,128,0,109275:0:0:0:0:
448,192,109025,128,0,109275:0:0:0:0:
64,192,109359,1,2,0:0:0:0:
192,192,109359,128,8,109442:0:0:0:0:
64,192,109692,1,2,0:0:0:0:
320,192,109692,128,8,109775:0:0:0:0:
64,192,110025,1,2,0:0:0:0:
192,192,110025,128,8,110109:0:0:0:0:
320,192,110275,128,0,110359:0:0:0:0:
192,192,110359,1,8,0:0:0:0:
64,192,110359,1,2,0:0:0:0:
64,192,110525,128,0,110692:0:0:0:0:
320,192,110692,128,8,110775:0:0:0:0:
448,192,110692,1,2,0:0:0:0:
448,192,111025,128,2,111109:0:0:0:0:
192,192,111025,1,8,0:0:0:0:
320,192,111359,128,8,111442:0:0:0:0:
448,192,111359,1,2,0:0:0:0:
448,192,111609,128,0,111692:0:0:0:0:
192,192,111692,1,8,0:0:0:0:
64,192,111692,1,2,0:0:0:0:
320,192,111859,128,0,112025:0:0:0:0:
448,192,112025,1,2,0:0:0:0:
192,192,112025,128,8,112109:0:0:0:0:
320,192,112359,128,8,112442:0:0:0:0:
64,192,112359,1,2,0:0:0:0:
192,192,112692,128,8,112775:0:0:0:0:
448,192,112692,1,2,0:0:0:0:
320,192,112942,128,0,113025:0:0:0:0:
192,192,113025,1,8,0:0:0:0:
64,192,113025,1,2,0:0:0:0:
192,192,113192,128,0,113359:0:0:0:0:
448,192,113359,1,8,0:0:0:0:
320,192,113359,128,2,113692:0:0:0:0:
448,192,113692,128,8,114025:0:0:0:0:
192,192,113692,1,2,0:0:0:0:
64,192,114025,128,8,114359:0:0:0:0:
320,192,114025,1,2,0:0:0:0:
192,192,114359,128,8,114692:0:0:0:0:
320,192,114359,1,2,0:0:0:0:
448,192,114525,128,0,114859:0:0:0:0:
320,192,114692,128,8,114859:0:0:0:0:
64,192,114692,1,2,0:0:0:0:
192,192,115025,1,2,0:0:0:0:
320,192,115025,128,8,115109:0:0:0:0:
448,192,115192,128,0,115359:0:0:0:0:
64,192,115359,128,8,115442:0:0:0:0:
192,192,115359,1,2,0:0:0:0:
320,192,115609,128,0,115692:0:0:0:0:
192,192,115692,1,2,0:0:0:0:
64,192,115692,1,8,0:0:0:0:
64,192,115859,128,0,116025:0:0:0:0:
320,192,116025,1,2,0:0:0:0:
448,192,116025,128,8,116109:0:0:0:0:
320,192,116359,128,8,116442:0:0:0:0:
64,192,116359,1,2,0:0:0:0:
192,192,116525,128,0,116692:0:0:0:0:
320,192,116692,1,2,0:0:0:0:
448,192,116692,128,8,116775:0:0:0:0:
320,192,116942,128,0,117025:0:0:0:0:
64,192,117025,1,2,0:0:0:0:
192,192,117025,1,8,0:0:0:0:
448,192,117192,128,0,117359:0:0:0:0:
192,192,117359,1,8,0:0:0:0:
64,192,117359,128,2,117442:0:0:0:0:
320,192,117692,128,8,117775:0:0:0:0:
192,192,117692,1,2,0:0:0:0:
448,192,117859,128,0,118025:0:0:0:0:
64,192,118025,128,2,118109:0:0:0:0:
192,192,118025,1,8,0:0:0:0:
320,192,118275,128,0,118359:0:0:0:0:
192,192,118359,1,8,0:0:0:0:
64,192,118359,1,2,0:0:0:0:
448,192,118525,128,0,118692:0:0:0:0:
64,192,118692,128,0,119942:0:0:0:0:
192,192,118692,128,0,119025:0:0:0:0:
448,192,119025,128,0,119942:0:0:0:0:
320,192,119359,128,0,119942:0:0:0:0:
192,192,119692,128,0,119942:0:0:0:0:
192,192,120025,1,4,0:0:0:0:
64,192,120025,1,0,0:0:0:0:
448,192,120025,1,0,0:0:0:0:
320,192,120025,1,0,0:0:0:70:POW.wav
448,192,120359,128,0,121025:0:0:0:0:
64,192,120359,128,0,120713:0:0:0:0:
320,192,120713,128,0,121025:0:0:0:0:
192,192,120713,1,0,0:0:0:0:
192,192,121025,1,0,0:0:0:0:
64,192,121067,1,0,0:0:0:0:
448,192,121109,1,0,0:0:0:0:
320,192,121150,1,0,0:0:0:0:
64,192,121192,1,0,0:0:0:0:
192,192,121234,1,0,0:0:0:0:
448,192,121275,1,0,0:0:0:0:
320,192,121317,1,0,0:0:0:0:
192,192,121359,1,0,0:0:0:70:POW.wav
64,192,121359,1,4,0:0:0:0:
64,192,121713,128,0,122359:0:0:0:0:
448,192,121713,128,0,122025:0:0:0:0:
192,192,122025,128,0,122359:0:0:0:0:
320,192,122025,1,0,0:0:0:0:
448,192,122359,1,0,0:0:0:0:
320,192,122400,1,0,0:0:0:0:
64,192,122442,1,0,0:0:0:0:
192,192,122484,1,0,0:0:0:0:
320,192,122525,1,0,0:0:0:0:
448,192,122525,1,0,0:0:0:0:
192,192,122609,1,0,0:0:0:0:
320,192,122692,1,0,0:0:0:0:
448,192,122692,1,2,0:0:0:0:
64,192,122692,1,0,0:0:0:0:
192,192,122859,1,0,0:0:0:0:
192,192,122942,1,0,0:0:0:0:
320,192,123025,1,0,0:0:0:0:
448,192,123025,1,0,0:0:0:0:
64,192,123109,1,0,0:0:0:0:
320,192,123192,1,0,0:0:0:0:
320,192,123275,1,0,0:0:0:0:
192,192,123359,1,2,0:0:0:0:
64,192,123359,1,0,0:0:0:0:
448,192,123359,1,0,0:0:0:0:
320,192,123609,1,0,0:0:0:0:
64,192,123609,1,0,0:0:0:0:
192,192,123859,1,0,0:0:0:0:
64,192,123859,1,0,0:0:0:0:
192,192,124025,1,2,0:0:0:0:
320,192,124025,128,0,124359:0:0:0:0:
448,192,124359,1,2,0:0:0:0:
192,192,124359,128,0,124692:0:0:0:0:
320,192,124525,128,0,124692:0:0:0:0:
64,192,124692,1,2,0:0:0:0:
448,192,124692,128,0,125025:0:0:0:0:
320,192,125025,128,0,125359:0:0:0:0:
64,192,125025,1,2,0:0:0:0:
192,192,125192,128,0,125359:0:0:0:0:
64,192,125359,1,0,0:0:0:0:
448,192,125359,1,2,0:0:0:0:
320,192,125525,1,0,0:0:0:0:
320,192,125609,1,0,0:0:0:0:
64,192,125692,1,0,0:0:0:0:
192,192,125692,1,0,0:0:0:0:
448,192,125775,1,0,0:0:0:0:
192,192,125859,1,0,0:0:0:0:
192,192,125942,1,0,0:0:0:0:
64,192,126025,1,0,0:0:0:0:
448,192,126025,1,2,0:0:0:0:
320,192,126025,1,0,0:0:0:0:
448,192,126275,1,2,0:0:0:0:
192,192,126275,1,0,0:0:0:0:
64,192,126275,1,0,0:0:0:0:
320,192,126525,1,0,0:0:0:0:
448,192,126525,1,2,0:0:0:0:
192,192,126525,1,0,0:0:0:0:
64,192,126692,1,0,0:0:0:0:
448,192,126692,1,2,0:0:0:0:
192,192,126859,1,0,0:0:0:0:
192,192,126942,1,0,0:0:0:0:
448,192,127025,1,0,0:0:0:0:
320,192,127025,1,0,0:0:0:0:
64,192,127109,1,0,0:0:0:0:
320,192,127192,1,0,0:0:0:0:
320,192,127275,1,0,0:0:0:0:
448,192,127359,1,0,0:0:0:0:
64,192,127359,1,2,0:0:0:0:
192,192,127359,1,0,0:0:0:0:
64,192,127609,1,2,0:0:0:0:
320,192,127609,1,0,0:0:0:0:
448,192,127609,1,0,0:0:0:0:
192,192,127859,1,0,0:0:0:0:
64,192,127859,1,2,0:0:0:0:
320,192,127859,1,0,0:0:0:0:
448,192,128025,1,0,0:0:0:0:
64,192,128025,1,2,0:0:0:0:
320,192,128192,1,0,0:0:0:0:
320,192,128275,1,0,0:0:0:0:
192,192,128359,1,0,0:0:0:0:
64,192,128359,1,0,0:0:0:0:
448,192,128442,1,0,0:0:0:0:
192,192,128525,1,0,0:0:0:0:
192,192,128609,1,0,0:0:0:0:
320,192,128692,1,0,0:0:0:0:
448,192,128692,1,2,0:0:0:0:
64,192,128692,1,0,0:0:0:0:
192,192,128942,1,0,0:0:0:0:
448,192,128942,1,2,0:0:0:0:
64,192,128942,1,0,0:0:0:0:
192,192,129192,1,0,0:0:0:0:
320,192,129192,1,0,0:0:0:0:
448,192,129192,1,2,0:0:0:0:
448,192,129359,1,2,0:0:0:0:
64,192,129359,128,0,130025:0:0:0:0:
320,192,129692,1,2,0:0:0:0:
192,192,129692,128,0,130025:0:0:0:0:
448,192,130025,128,0,130609:0:0:0:0:
320,192,130025,128,2,130609:0:0:0:0:
192,192,130359,1,2,0:0:0:0:
64,192,130359,128,0,130609:0:0:0:0:
64,192,130692,1,0,0:0:0:0:
320,192,130692,1,2,0:0:0:0:
448,192,130692,1,0,0:0:0:70:POW.wav
192,192,131025,1,0,0:0:0:70:pew.wav
192,192,131109,1,0,0:0:0:70:pew.wav
320,192,131192,1,0,0:0:0:70:pew.wav
320,192,131275,1,0,0:0:0:70:pew.wav
64,192,131359,128,0,131525:0:0:0:70:Growl.wav
192,192,131359,128,2,131525:0:0:0:0:
448,192,131359,128,0,131525:0:0:0:70:POW.wav
192,192,131609,128,2,131775:0:0:0:0:
64,192,131609,128,0,131775:0:0:0:70:Growl.wav
320,192,131609,128,0,131775:0:0:0:70:POW.wav
448,192,131859,128,0,131942:0:0:0:70:POW.wav
320,192,131859,128,2,131942:0:0:0:0:
64,192,131859,128,0,131942:0:0:0:70:Growl.wav
64,192,132025,1,2,0:0:0:0:
192,192,132025,1,4,0:0:0:0:
448,192,132025,128,0,132609:0:0:0:0:
64,192,132359,1,0,0:0:0:0:
320,192,132359,128,0,132609:0:0:0:0:
192,192,132692,128,2,132859:0:0:0:0:
64,192,132692,128,0,132859:0:0:0:70:Growl2.wav
448,192,132692,1,0,0:0:0:0:
320,192,132859,1,0,0:0:0:20:snare5.wav
448,192,132859,1,0,0:0:0:0:
320,192,132942,1,0,0:0:0:0:
192,192,132942,128,2,133109:0:0:0:0:
64,192,132942,128,0,133109:0:0:0:70:Growl2.wav
448,192,133109,1,0,0:0:0:0:
320,192,133109,1,0,0:0:0:20:snare5.wav
192,192,133192,1,2,0:0:0:0:
64,192,133192,1,0,0:0:0:0:
320,192,133275,1,0,0:0:0:20:snare5.wav
448,192,133275,1,0,0:0:0:0:
64,192,133359,1,0,0:0:0:0:
192,192,133359,1,2,0:0:0:0:
320,192,133442,1,0,0:0:0:0:
192,192,133525,1,0,0:0:0:0:
192,192,133609,1,0,0:0:0:0:
448,192,133692,1,2,0:0:0:0:
320,192,133692,1,0,0:0:0:0:
64,192,133775,1,0,0:0:0:0:
320,192,133859,1,0,0:0:0:0:
320,192,133942,1,0,0:0:0:0:
64,192,134025,1,0,0:0:0:0:
192,192,134025,1,0,0:0:0:0:
448,192,134025,1,2,0:0:0:0:
64,192,134275,1,0,0:0:0:0:
448,192,134275,1,0,0:0:0:0:
320,192,134359,1,0,0:0:0:0:
448,192,134359,1,2,0:0:0:0:
64,192,134525,1,0,0:0:0:0:
320,192,134525,1,0,0:0:0:0:
448,192,134692,128,0,135025:0:0:0:0:
192,192,134692,1,2,0:0:0:0:
64,192,135025,128,0,135359:0:0:0:0:
320,192,135025,1,2,0:0:0:0:
192,192,135192,128,0,135359:0:0:0:0:
448,192,135359,128,0,135692:0:0:0:0:
320,192,135359,1,2,0:0:0:0:
64,192,135692,1,2,0:0:0:0:
320,192,135692,128,0,136025:0:0:0:0:
192,192,135859,128,0,136025:0:0:0:0:
64,192,136025,1,2,0:0:0:0:
448,192,136025,1,0,0:0:0:70:Cymbal2.wav
320,192,136109,1,0,0:0:0:0:
64,192,136192,1,0,0:0:0:0:
64,192,136275,1,0,0:0:0:0:
448,192,136359,1,2,0:0:0:0:
320,192,136359,1,0,0:0:0:0:
192,192,136442,1,0,0:0:0:0:
320,192,136525,1,0,0:0:0:0:
320,192,136609,1,0,0:0:0:0:
64,192,136692,1,0,0:0:0:0:
192,192,136692,1,0,0:0:0:0:
448,192,136692,1,2,0:0:0:0:
64,192,136942,1,0,0:0:0:0:
448,192,136942,1,0,0:0:0:0:
64,192,137025,1,0,0:0:0:0:
192,192,137025,1,2,0:0:0:0:
448,192,137192,1,0,0:0:0:0:
192,192,137192,1,0,0:0:0:0:
64,192,137359,1,2,0:0:0:0:
320,192,137359,1,0,0:0:0:0:
192,192,137442,1,0,0:0:0:0:
448,192,137525,1,0,0:0:0:0:
448,192,137609,1,0,0:0:0:0:
64,192,137692,1,2,0:0:0:0:
192,192,137692,1,0,0:0:0:0:
320,192,137775,1,0,0:0:0:0:
192,192,137859,1,0,0:0:0:0:
192,192,137942,1,0,0:0:0:0:
64,192,138025,1,2,0:0:0:0:
320,192,138025,1,0,0:0:0:0:
448,192,138025,1,0,0:0:0:0:
64,192,138275,1,0,0:0:0:0:
448,192,138275,1,0,0:0:0:0:
320,192,138359,1,0,0:0:0:0:
448,192,138359,1,2,0:0:0:0:
320,192,138525,1,0,0:0:0:0:
64,192,138525,1,0,0:0:0:0:
192,192,138692,1,0,0:0:0:0:
448,192,138692,1,2,0:0:0:0:
320,192,138775,1,0,0:0:0:0:
192,192,138859,1,0,0:0:0:0:
192,192,138942,1,0,0:0:0:0:
448,192,139025,1,2,0:0:0:0:
320,192,139025,1,0,0:0:0:0:
64,192,139109,1,0,0:0:0:0:
320,192,139192,1,0,0:0:0:0:
320,192,139275,1,0,0:0:0:0:
64,192,139359,1,0,0:0:0:0:
192,192,139359,1,0,0:0:0:0:
448,192,139359,1,2,0:0:0:0:
64,192,139609,1,0,0:0:0:0:
448,192,139609,1,0,0:0:0:0:
64,192,139692,1,2,0:0:0:0:
192,192,139692,1,0,0:0:0:0:
448,192,139859,1,0,0:0:0:0:
192,192,139859,1,0,0:0:0:0:
64,192,140025,1,2,0:0:0:0:
448,192,140025,1,0,0:0:0:40:snare1.wav
320,192,140109,1,0,0:0:0:40:snare1.wav
192,192,140192,1,0,0:0:0:40:snare1.wav
192,192,140275,1,0,0:0:0:40:snare1.wav
448,192,140359,1,2,0:0:0:0:
320,192,140359,1,0,0:0:0:40:snare2.wav
64,192,140442,1,0,0:0:0:40:snare2.wav
448,192,140525,1,0,0:0:0:40:snare2.wav
448,192,140609,1,0,0:0:0:40:snare2.wav
192,192,140692,1,0,0:0:0:40:snare3.wav
64,192,140692,1,2,0:0:0:0:
320,192,140775,1,0,0:0:0:40:snare3.wav
64,192,140859,1,0,0:0:0:40:snare3.wav
64,192,140942,1,0,0:0:0:40:snare3.wav
448,192,141025,1,2,0:0:0:0:
320,192,141025,1,0,0:0:0:40:snare4.wav
192,192,141109,1,0,0:0:0:40:snare4.wav
320,192,141192,1,0,0:0:0:40:snare4.wav
320,192,141275,1,0,0:0:0:40:snare4.wav
64,192,141359,128,0,142692:0:0:0:30:Finish.wav
192,192,141359,1,2,0:0:0:0:
192,192,142692,128,0,144025:0:0:0:0:
64,192,143692,1,0,0:0:0:0:
320,192,143775,1,0,0:0:0:0:
448,192,143859,1,0,0:0:0:0:
64,192,143942,1,0,0:0:0:0:
320,192,144025,128,0,145359:0:0:0:0:
192,192,144109,1,0,0:0:0:0:
64,192,144192,1,0,0:0:0:0:
448,192,144275,1,0,0:0:0:0:
192,192,144359,1,0,0:0:0:0:
448,192,144525,1,0,0:0:0:0:
64,192,144692,1,0,0:0:0:0:
448,192,144859,1,0,0:0:0:0:
64,192,145025,1,0,0:0:0:0:
192,192,145109,1,0,0:0:0:0:
448,192,145192,1,0,0:0:0:0:
64,192,145275,1,0,0:0:0:0:
192,192,145359,128,0,145692:0:0:0:0:
448,192,145442,1,0,0:0:0:0:
320,192,145525,1,0,0:0:0:0:
64,192,145609,1,0,0:0:0:0:
448,192,145692,128,0,146025:0:0:0:0:
192,192,145859,1,0,0:0:0:0:
320,192,146025,128,0,146359:0:0:0:0:
448,192,146192,1,0,0:0:0:0:
192,192,146359,128,0,146692:0:0:0:0:
64,192,146442,1,0,0:0:0:0:
448,192,146525,1,0,0:0:0:0:
320,192,146609,1,0,0:0:0:0:
64,192,146692,128,0,148025:0:0:0:0:
448,192,146775,1,0,0:0:0:0:
320,192,146859,1,0,0:0:0:0:
192,192,146942,1,0,0:0:0:0:
320,192,147025,1,0,0:0:0:0:
448,192,147192,1,0,0:0:0:0:
192,192,147359,1,0,0:0:0:0:
448,192,147525,1,0,0:0:0:0:
320,192,147692,1,0,0:0:0:0:
192,192,147775,1,0,0:0:0:0:
320,192,147859,1,0,0:0:0:0:
448,192,147942,1,0,0:0:0:0:
192,192,148025,128,0,149359:0:0:0:0:
64,192,148109,1,0,0:0:0:0:
448,192,148192,1,0,0:0:0:0:
320,192,148275,1,0,0:0:0:0:
64,192,148359,1,0,0:0:0:0:
448,192,148525,1,0,0:0:0:0:
64,192,148692,1,0,0:0:0:0:
320,192,148859,1,0,0:0:0:0:
64,192,149025,1,0,0:0:0:0:
320,192,149109,1,0,0:0:0:0:
448,192,149192,1,0,0:0:0:0:
64,192,149275,1,0,0:0:0:0:
320,192,149359,128,0,150692:0:0:0:0:
192,192,149442,1,0,0:0:0:0:
64,192,149525,1,0,0:0:0:0:
448,192,149609,1,0,0:0:0:0:
192,192,149692,1,0,0:0:0:0:
448,192,149859,1,0,0:0:0:0:
64,192,150025,1,0,0:0:0:0:
448,192,150192,1,0,0:0:0:0:
64,192,150359,1,0,0:0:0:0:
192,192,150442,1,0,0:0:0:0:
448,192,150525,1,0,0:0:0:0:
64,192,150609,1,0,0:0:0:0:
192,192,150692,128,0,151025:0:0:0:0:
448,192,150775,1,0,0:0:0:0:
320,192,150859,1,0,0:0:0:0:
64,192,150942,1,0,0:0:0:0:
320,192,151025,128,0,151359:0:0:0:0:
192,192,151192,1,0,0:0:0:0:
448,192,151359,128,0,151692:0:0:0:0:
320,192,151525,1,0,0:0:0:0:
64,192,151692,128,0,152025:0:0:0:0:
320,192,151775,1,0,0:0:0:0:
448,192,151859,1,0,0:0:0:0:
192,192,151942,1,0,0:0:0:0:
320,192,152025,1,2,0:0:0:0:
448,192,152025,1,8,0:0:0:0:
192,192,152109,1,0,0:0:0:0:
64,192,152192,1,0,0:0:0:0:
320,192,152275,1,0,0:0:0:0:
192,192,152359,1,2,0:0:0:0:
448,192,152359,1,8,0:0:0:0:
192,192,152525,1,0,0:0:0:0:
64,192,152692,1,2,0:0:0:0:
320,192,152692,1,8,0:0:0:0:
192,192,152775,1,0,0:0:0:0:
320,192,152859,1,0,0:0:0:0:
64,192,153025,1,2,0:0:0:0:
448,192,153025,1,8,0:0:0:0:
320,192,153109,1,0,0:0:0:0:
192,192,153192,1,0,0:0:0:0:
320,192,153275,1,0,0:0:0:0:
192,192,153359,1,8,0:0:0:0:
64,192,153359,1,2,0:0:0:0:
448,192,153442,1,0,0:0:0:0:
320,192,153525,1,0,0:0:0:0:
192,192,153609,1,0,0:0:0:0:
64,192,153692,1,2,0:0:0:0:
448,192,153692,1,8,0:0:0:0:
448,192,153859,1,0,0:0:0:0:
64,192,154025,1,2,0:0:0:0:
320,192,154025,1,8,0:0:0:0:
64,192,154192,1,0,0:0:0:0:
320,192,154359,1,2,0:0:0:0:
448,192,154359,1,8,0:0:0:0:
64,192,154442,1,0,0:0:0:0:
192,192,154525,1,0,0:0:0:0:
320,192,154609,1,0,0:0:0:0:
448,192,154692,1,8,0:0:0:0:
64,192,154692,1,2,0:0:0:0:
320,192,154775,1,0,0:0:0:0:
192,192,154859,1,0,0:0:0:0:
64,192,154942,1,0,0:0:0:0:
320,192,155025,1,8,0:0:0:0:
448,192,155025,1,2,0:0:0:0:
320,192,155192,1,0,0:0:0:0:
64,192,155359,1,2,0:0:0:0:
192,192,155359,1,8,0:0:0:0:
320,192,155442,1,0,0:0:0:0:
192,192,155525,1,0,0:0:0:0:
320,192,155692,1,2,0:0:0:0:
448,192,155692,1,8,0:0:0:0:
64,192,155775,1,0,0:0:0:0:
192,192,155859,1,0,0:0:0:0:
320,192,155942,1,0,0:0:0:0:
64,192,156025,1,2,0:0:0:0:
448,192,156025,1,8,0:0:0:0:
192,192,156109,1,0,0:0:0:0:
320,192,156192,1,0,0:0:0:0:
192,192,156275,1,0,0:0:0:0:
64,192,156359,1,2,0:0:0:0:
320,192,156359,1,8,0:0:0:0:
64,192,156525,1,0,0:0:0:0:
320,192,156692,1,2,0:0:0:0:
448,192,156692,1,8,0:0:0:0:
64,192,156859,1,0,0:0:0:0:
192,192,157025,1,2,0:0:0:0:
448,192,157025,1,8,0:0:0:0:
320,192,157109,1,0,0:0:0:0:
64,192,157192,1,0,0:0:0:0:
192,192,157275,1,0,0:0:0:0:
64,192,157359,1,2,0:0:0:0:
448,192,157359,1,0,0:0:0:0:
320,192,157359,1,0,0:0:0:70:Cymbal2.wav
192,192,157442,1,0,0:0:0:0:
448,192,157525,1,0,0:0:0:0:
320,192,157609,1,0,0:0:0:0:
192,192,157692,1,0,0:0:0:0:
448,192,157859,1,0,0:0:0:0:
64,192,158025,1,0,0:0:0:0:
448,192,158192,1,0,0:0:0:0:
192,192,158359,1,0,0:0:0:0:
64,192,158442,1,0,0:0:0:0:
192,192,158525,1,0,0:0:0:0:
320,192,158609,1,0,0:0:0:0:
448,192,158692,1,0,0:0:0:0:
192,192,158775,1,0,0:0:0:0:
320,192,158859,1,0,0:0:0:0:
64,192,158942,1,0,0:0:0:0:
192,192,159025,1,0,0:0:0:0:
448,192,159192,1,0,0:0:0:0:
64,192,159359,1,0,0:0:0:0:
448,192,159525,1,0,0:0:0:0:
192,192,159692,1,0,0:0:0:0:
64,192,159775,1,0,0:0:0:0:
192,192,159859,1,0,0:0:0:0:
320,192,159942,1,0,0:0:0:0:
448,192,160025,1,0,0:0:0:0:
192,192,160109,1,0,0:0:0:0:
320,192,160192,1,0,0:0:0:0:
64,192,160275,1,0,0:0:0:0:
192,192,160359,1,0,0:0:0:0:
448,192,160525,1,0,0:0:0:0:
64,192,160692,1,0,0:0:0:0:
448,192,160859,1,0,0:0:0:0:
192,192,161025,1,0,0:0:0:0:
64,192,161109,1,0,0:0:0:0:
192,192,161192,1,0,0:0:0:0:
320,192,161275,1,0,0:0:0:0:
448,192,161359,1,0,0:0:0:0:
192,192,161442,1,0,0:0:0:0:
320,192,161525,1,0,0:0:0:0:
64,192,161609,1,0,0:0:0:0:
192,192,161692,1,0,0:0:0:0:
448,192,161859,1,0,0:0:0:0:
64,192,162025,1,0,0:0:0:0:
448,192,162192,1,0,0:0:0:0:
64,192,162359,128,0,162692:0:0:0:0:
192,192,162442,128,0,162692:0:0:0:0:
320,192,162525,128,0,162692:0:0:0:0:
448,192,162609,128,0,162692:0:0:0:0:
