osu file format v14

[General]
AudioFilename: audio.mp3
AudioLeadIn: 0
PreviewTime: 46302
Countdown: 0
SampleSet: None
StackLeniency: 0.7
Mode: 0
LetterboxInBreaks: 0
WidescreenStoryboard: 0
SamplesMatchPlaybackRate: 1

[Editor]
DistanceSpacing: 1.2
BeatDivisor: 4
GridSize: 4
TimelineZoom: 1.3

[Metadata]
Title:Deja Vu
TitleUnicode:Deja Vu
Artist:TXT
ArtistUnicode:투모로우바이투게더
Creator:KoteTYAN
Version:Easy
Source:
Tags:k-pop txt 투모로우바이투게더 deja vu kai yeonjun beomgyu soobin taehyun
BeatmapID:4576797
BeatmapSetID:2168952

[Difficulty]
HPDrainRate:2
CircleSize:2
OverallDifficulty:2
ApproachRate:3
SliderMultiplier:0.9
SliderTickRate:1

[Events]
//Background and Video events
0,0,"bg.jpg",0,0
//Break Periods
2,70152,79923
//Storyboard Layer 0 (Background)
//Storyboard Layer 1 (Fail)
//Storyboard Layer 2 (Pass)
//Storyboard Layer 3 (Foreground)
//Storyboard Layer 4 (Overlay)
//Storyboard Sound Samples

[TimingPoints]
14,368.098159509202,4,1,1,100,1,0
15,-100,4,1,1,30,0,0
11793,-100,4,3,1,30,0,0
23572,-100,4,2,1,30,0,0
41240,-100,4,1,1,30,0,0
46394,-100,4,2,1,30,0,1
47130,-100,4,2,1,30,0,1
58909,-100,4,1,1,30,0,1
70688,-100,4,1,1,30,0,0
82467,-100,4,1,1,30,0,0
105290,-100,4,1,1,30,0,1
106026,-100,4,1,1,30,0,1
129584,-100,4,3,1,30,0,0

[HitObjects]
162,66,14,6,0,B|91:183|188:209|133:334,1,270
461,173,2958,2,0,P|402:128|260:221,1,270
85,318,5903,2,0,B|196:278|188:160|188:160|145:106,1,270
358,61,7744,2,2,P|384:127|373:159,1,90
206,271,8848,2,0,P|179:190|312:88,1,270
82,253,11793,6,0,P|116:195|124:161,1,90
212,114,12529,1,4,0:0:0:0:
309,159,12897,2,0,P|374:149|435:47,1,180
326,60,14001,2,8,P|276:62|236:94,1,90
170,163,14737,6,0,P|196:235|156:337,1,180
95,245,15842,2,0,P|66:179|90:73,1,180
192,50,16946,2,0,L|291:45,1,90
349,129,17682,6,4,L|445:128,2,90
256,185,18787,2,0,P|167:231|70:218,1,180
49,125,19891,2,4,P|102:99|138:69,1,90
229,48,20627,6,0,P|294:38|405:99,1,180
418,191,21731,2,0,L|388:290,1,90
303,339,22467,1,0,0:0:0:0:
205,292,22836,6,2,L|102:280,1,90,2|2,1:0|1:0,1:0:0:0:
60,188,23572,2,0,P|99:149|121:102,1,90,0|0,3:0|3:0,3:0:0:0:
35,46,24308,1,10,0:0:0:0:
115,118,24676,2,0,L|218:121,2,90,0|0|0,3:0|3:0|3:0,3:0:0:0:
35,46,25780,1,10,0:0:0:0:
115,118,26148,5,0,0:0:0:0:
212,70,26517,2,8,P|272:54|376:115,1,180,8|8,3:0|3:0,3:0:0:0:
335,209,27621,2,2,P|330:269|353:300,2,90,2|2|2,1:0|1:0|1:0,1:0:0:0:
371,107,28725,2,10,P|325:93|272:108,1,90,10|10,1:0|1:0,1:0:0:0:
182,134,29461,6,0,P|177:202|65:234,1,180
41,141,30566,2,0,L|65:49,2,90
83,241,31670,2,10,P|46:282|29:324,1,90,10|10,1:0|1:0,1:0:0:0:
139,320,32406,6,0,L|242:302,1,90
317,245,33142,2,0,L|418:251,1,90
462,157,33879,2,6,P|451:93|450:54,2,90,6|6|6,1:0|1:0|1:0,1:0:0:0:
406,250,34983,6,0,P|439:304|475:333,1,90
304,272,35903,6,0,P|238:236|165:243,1,135
94,172,36823,1,10,1:0:0:0:
47,269,37191,2,10,P|89:303|135:304,1,90,10|10,1:0|1:0,1:0:0:0:
194,224,37928,6,0,P|204:177|240:146,2,90
288,276,39032,6,0,L|394:294,1,90
462,225,39768,1,10,1:0:0:0:
396,139,40136,2,10,P|376:76|372:34,2,90,10|10|10,1:0|1:0|1:0,1:0:0:0:
296,179,41240,6,0,L|107:186,1,180
45,267,42345,1,0,0:0:0:0:
139,319,42713,2,0,P|220:296|234:280,1,90
327,269,43449,2,0,P|392:294|420:296,1,90
461,200,44185,2,6,P|394:128|398:45,1,180
288,67,45290,2,6,P|228:122|122:142,1,180
99,245,46394,5,2,0:0:0:0:
188,305,46762,1,2,0:0:0:0:
273,239,47130,2,2,P|338:193|446:210,1,180
453,96,48234,6,0,P|388:52|374:37,1,90
275,70,48971,2,0,P|217:96|180:96,1,90
90,136,49707,1,0,0:0:0:0:
152,224,50075,2,0,L|135:319,1,90
242,331,50811,1,2,0:0:0:0:
319,255,51179,2,2,P|376:242|415:260,2,90,2|2|2,1:0|1:0|1:0,1:0:0:0:
263,162,52283,5,14,0:0:0:0:
337,83,52652,1,14,0:0:0:0:
230,68,53020,2,4,L|128:62,2,90
337,83,54124,2,0,P|417:152|404:234,1,180
313,261,55228,2,0,L|211:233,1,90
138,300,55964,2,8,L|42:318,1,90
60,208,56701,5,2,0:0:0:0:
45,100,57069,1,2,0:0:0:0:
146,63,57437,2,4,P|212:54|242:60,1,90
302,141,58173,5,2,0:0:0:0:
255,238,58541,1,2,0:0:0:0:
339,305,58909,2,12,P|287:337|168:297,1,180
103,230,60013,2,8,P|101:140|178:99,1,180
278,116,61118,5,2,0:0:0:0:
375,69,61486,1,2,0:0:0:0:
433,159,61854,2,12,L|381:337,1,180
276,312,62958,2,8,P|219:266|113:241,1,180
106,133,64063,2,2,L|147:50,1,90
253,50,64799,5,14,0:0:0:0:
348,100,65167,1,14,0:0:0:0:
255,156,65535,2,2,L|211:244,1,90
167,333,66271,5,14,0:0:0:0:
274,327,66639,1,14,0:0:0:0:
347,247,67007,2,2,L|394:147,1,90
328,73,67744,5,14,0:0:0:0:
222,94,68112,1,14,0:0:0:0:
138,161,68480,2,2,P|78:164|42:147,1,90
119,69,69216,2,10,P|157:63|239:173,1,180
55,327,81363,5,0,0:0:0:0:
152,279,81731,2,0,P|215:222|226:202,1,90
324,224,82467,6,2,P|396:228|423:243,1,90
459,331,83204,2,2,P|396:330|361:312,1,90
424,224,83940,2,0,P|456:161|423:54,1,180
313,60,85044,1,0,0:0:0:0:
247,146,85412,6,2,P|190:171|142:168,1,90
92,90,86148,2,2,P|142:69|191:75,1,90
163,171,86885,2,0,P|153:234|238:314,1,180
318,252,87989,1,0,0:0:0:0:
359,152,88357,6,0,L|325:55,1,90
224,41,89093,2,0,P|187:107|162:129,1,90
72,144,89829,2,2,B|29:218|111:245|80:318,1,180
290,261,91302,2,0,L|279:151,1,90
176,143,92038,2,0,L|176:241,1,90
290,261,92774,2,0,P|354:258|388:231,1,90
425,149,93510,6,0,L|387:50,1,90
285,77,94247,2,0,P|230:58|128:126,1,180
225,169,95351,1,0,0:0:0:0:
159,255,95719,2,2,P|139:304|106:337,2,90
225,169,96823,1,0,0:0:0:0:
327,203,97191,2,10,L|420:169,1,90
430,65,97928,2,0,L|326:56,1,90
234,80,98664,2,0,P|161:66|138:51,1,90
53,110,99400,2,10,P|81:164|85:201,1,90
145,281,100136,6,2,P|185:251|313:264,1,180
393,327,101240,1,2,0:0:0:0:
446,233,101609,2,2,L|423:131,2,90
290,82,103081,2,4,P|243:93|101:60,1,180,4|4,1:0|1:0,1:0:0:0:
136,229,104369,2,4,P|175:283|249:310,1,135
323,244,105290,5,2,0:0:0:0:
426,273,105658,1,2,0:0:0:0:
451,168,106026,2,2,P|445:93|346:50,1,180
279,121,107130,2,0,P|218:153|185:158,1,90
136,245,107866,2,0,P|188:255|222:272,1,90
311,330,108602,1,0,0:0:0:0:
385,251,108971,6,0,L|392:142,1,90
321,78,109707,1,0,0:0:0:0:
217,47,110075,2,0,P|137:64|113:62,2,90
321,78,111179,5,2,0:0:0:0:
257,165,111547,1,2,0:0:0:0:
329,245,111915,2,0,P|308:312|280:339,2,90
257,165,113020,2,0,P|188:148|91:207,1,180
110,305,114124,2,0,P|162:285|188:239,1,90
90,200,114860,2,0,P|64:135|67:110,1,90
147,45,115596,1,0,0:0:0:0:
239,100,115964,1,0,0:0:0:0:
342,68,116333,2,0,L|445:55,1,90
464,159,117069,5,0,0:0:0:0:
409,252,117437,1,0,0:0:0:0:
309,209,117805,2,0,P|217:169|143:212,1,180
70,273,118909,2,0,P|49:217|104:107,1,180
188,57,120013,5,0,0:0:0:0:
284,107,120382,1,0,0:0:0:0:
231,201,120750,2,0,P|226:268|313:341,1,180
323,233,121854,2,0,P|320:153|237:104,1,180
137,135,122958,2,0,P|90:113|47:117,1,90
75,220,123694,5,0,0:0:0:0:
180,243,124063,1,0,0:0:0:0:
274,296,124431,2,0,L|378:287,1,90
440,211,125167,5,0,0:0:0:0:
333,194,125535,1,0,0:0:0:0:
245,130,125903,2,0,L|134:135,1,90
80,56,126639,5,0,0:0:0:0:
186,36,127007,1,0,0:0:0:0:
245,130,127375,2,0,L|218:230,1,90
119,253,128112,2,0,P|161:310|281:307,1,180
286,102,129584,6,0,P|258:142|270:239,1,135
394,318,130688,1,0,0:0:0:0:
428,215,131056,2,0,P|355:198|272:269,1,180
173,223,132161,1,0,0:0:0:0:
94,148,132529,2,0,P|108:78|163:44,1,135
301,117,133633,2,0,P|365:94|468:136,2,180
79,165,135474,6,0,P|113:202|195:217,1,135
339,146,136578,2,0,P|394:141|463:242,1,180
140,247,138418,6,0,P|84:182|87:128,1,135
218,44,139523,2,0,P|285:64|385:68,1,157.5
451,178,140627,2,8,P|437:228|380:299,1,135,8|8,2:0|2:0,2:0:0:0:
